osu file format v14

[General]
AudioFilename: audio.mp3
AudioLeadIn: 0
PreviewTime: 50128
Countdown: 0
SampleSet: Soft
StackLeniency: 0.7
Mode: 3
LetterboxInBreaks: 0
SpecialStyle: 0
WidescreenStoryboard: 1

[Editor]
DistanceSpacing: 0.8
BeatDivisor: 4
GridSize: 8
TimelineZoom: 1.4

[Metadata]
Title:Babel
TitleUnicode:Babel
Artist:Nizikawa feat. nayuta
ArtistUnicode:Nizikawa feat. nayuta
Creator:Murumoo
Version:Hard
Source:BOFU2016 -Legendary Again-
Tags:Drum-Hitnormal Dudehacker Nicknem_ Virtue- Kim_GodSSI Kawawa KawaEE dh kimgodssi Electronic japanese female pop jpop j-pop vocal jcore j-core drum&bass edm hard dance hardcore trance dnb drum and bass nori to ikioi ノリと勢い LLMR-055 KNIGHTS OF THE SOUND SYSTEM bms of fighters ultimate lilium records
BeatmapID:2765096
BeatmapSetID:1334777

[Difficulty]
HPDrainRate:7.5
CircleSize:7
OverallDifficulty:7.5
ApproachRate:5
SliderMultiplier:1.4
SliderTickRate:1

[Events]
//Background and Video events
0,0,"bg.jpg",0,0
//Break Periods
//Storyboard Layer 0 (Background)
//Storyboard Layer 1 (Fail)
//Storyboard Layer 2 (Pass)
//Storyboard Layer 3 (Foreground)
//Storyboard Layer 4 (Overlay)
//Storyboard Sound Samples

[TimingPoints]
4186,342.857142857143,4,2,1,60,1,0

[HitObjects]
36,192,4185,5,0,0:0:0:0:
475,192,4185,1,0,0:0:0:0:
256,192,4185,1,0,0:0:0:0:
329,192,4357,1,0,0:0:0:0:
36,192,4528,1,0,0:0:0:0:
182,192,4700,1,0,0:0:0:0:
475,192,4871,1,0,0:0:0:0:
329,192,5043,1,0,0:0:0:0:
182,192,5214,1,0,0:0:0:0:
36,192,5386,1,0,0:0:0:0:
36,192,6928,1,0,0:0:0:0:
329,192,6928,1,0,0:0:0:0:
182,192,7100,1,0,0:0:0:0:
475,192,7271,1,0,0:0:0:0:
329,192,7443,1,0,0:0:0:0:
36,192,7614,1,0,0:0:0:0:
182,192,7786,1,0,0:0:0:0:
329,192,7957,1,0,0:0:0:0:
475,192,8128,1,0,0:0:0:0:
109,192,9671,1,0,0:0:0:0:
36,192,9671,1,0,0:0:0:0:
402,192,9843,1,0,0:0:0:0:
182,192,10014,1,0,0:0:0:0:
329,192,10186,1,0,0:0:0:0:
109,192,10357,1,0,0:0:0:0:
402,192,10528,1,0,0:0:0:0:
182,192,10700,1,0,0:0:0:0:
329,192,10871,1,0,0:0:0:0:
402,192,12414,1,0,0:0:0:0:
475,192,12414,1,0,0:0:0:0:
109,192,12586,1,0,0:0:0:0:
329,192,12757,1,0,0:0:0:0:
182,192,12928,1,0,0:0:0:0:
402,192,13100,1,0,0:0:0:0:
109,192,13271,1,0,0:0:0:0:
329,192,13443,1,0,0:0:0:0:
182,192,13614,1,0,0:0:0:0:
182,192,15157,1,0,0:0:0:0:
329,192,15157,1,0,0:0:0:0:
182,192,15328,1,0,0:0:0:0:
475,192,15500,1,0,0:0:0:0:
36,192,15500,1,0,0:0:0:0:
402,192,15671,1,0,0:0:0:0:
256,192,15757,1,0,0:0:0:0:
109,192,15843,1,0,0:0:0:0:
182,192,15928,1,0,0:0:0:0:
329,192,16014,1,0,0:0:0:0:
109,192,16186,1,0,0:0:0:0:
402,192,16186,1,0,0:0:0:0:
402,192,16357,1,0,0:0:0:0:
182,192,16528,1,0,0:0:0:0:
36,192,16528,1,0,0:0:0:0:
256,192,16614,1,0,0:0:0:0:
329,192,16700,1,0,0:0:0:0:
109,192,16871,1,0,0:0:0:0:
402,192,16871,1,0,0:0:0:0:
329,192,17043,1,0,0:0:0:0:
256,192,17128,1,0,0:0:0:0:
182,192,17214,1,0,0:0:0:0:
402,192,17300,1,0,0:0:0:0:
329,192,17386,1,0,0:0:0:0:
256,192,17557,1,0,0:0:0:0:
109,192,17557,1,0,0:0:0:0:
329,192,17900,1,0,0:0:0:0:
182,192,17900,1,0,0:0:0:0:
329,192,18071,1,0,0:0:0:0:
36,192,18243,1,0,0:0:0:0:
475,192,18243,1,0,0:0:0:0:
109,192,18414,1,0,0:0:0:0:
256,192,18500,1,0,0:0:0:0:
402,192,18586,1,0,0:0:0:0:
329,192,18671,1,0,0:0:0:0:
182,192,18757,1,0,0:0:0:0:
402,192,18928,1,0,0:0:0:0:
109,192,18928,1,0,0:0:0:0:
109,192,19100,1,0,0:0:0:0:
329,192,19271,1,0,0:0:0:0:
475,192,19271,1,0,0:0:0:0:
256,192,19357,1,0,0:0:0:0:
182,192,19443,1,0,0:0:0:0:
402,192,19614,1,0,0:0:0:0:
36,192,19614,1,0,0:0:0:0:
182,192,19786,1,0,0:0:0:0:
256,192,19871,1,0,0:0:0:0:
329,192,19957,1,0,0:0:0:0:
109,192,20043,1,0,0:0:0:0:
182,192,20128,1,0,0:0:0:0:
256,192,20300,1,0,0:0:0:0:
402,192,20300,1,0,0:0:0:0:
109,192,20643,1,0,0:0:0:0:
329,192,20643,1,0,0:0:0:0:
109,192,20814,1,0,0:0:0:0:
402,192,20986,1,0,0:0:0:0:
36,192,20986,1,0,0:0:0:0:
182,192,21157,1,0,0:0:0:0:
256,192,21243,1,0,0:0:0:0:
475,192,21328,1,0,0:0:0:0:
329,192,21414,1,0,0:0:0:0:
256,192,21500,1,0,0:0:0:0:
36,192,21671,1,0,0:0:0:0:
402,192,21671,1,0,0:0:0:0:
402,192,21843,1,0,0:0:0:0:
182,192,22014,1,0,0:0:0:0:
109,192,22014,1,0,0:0:0:0:
329,192,22100,1,0,0:0:0:0:
182,192,22186,1,0,0:0:0:0:
256,192,22357,1,0,0:0:0:0:
475,192,22357,1,0,0:0:0:0:
36,192,22528,1,0,0:0:0:0:
182,192,22614,1,0,0:0:0:0:
256,192,22700,1,0,0:0:0:0:
109,192,22786,1,0,0:0:0:0:
182,192,22871,1,0,0:0:0:0:
475,192,23043,1,0,0:0:0:0:
329,192,23043,1,0,0:0:0:0:
329,192,23214,1,0,0:0:0:0:
109,192,23386,1,0,0:0:0:0:
256,192,23386,1,0,0:0:0:0:
109,192,23557,1,0,0:0:0:0:
182,192,23728,1,0,0:0:0:0:
475,192,23728,1,0,0:0:0:0:
402,192,23900,1,0,0:0:0:0:
256,192,23986,1,0,0:0:0:0:
109,192,24071,1,0,0:0:0:0:
182,192,24157,1,0,0:0:0:0:
329,192,24243,1,0,0:0:0:0:
36,192,24414,1,0,0:0:0:0:
182,192,24414,1,0,0:0:0:0:
475,192,25443,1,0,0:0:0:0:
36,192,25443,1,0,0:0:0:0:
256,192,25443,1,0,0:0:0:0:
182,192,25614,1,0,0:0:0:0:
402,192,25786,1,0,0:0:0:0:
109,192,25871,1,0,0:0:0:0:
329,192,25957,1,0,0:0:0:0:
182,192,26043,1,0,0:0:0:0:
256,192,26128,1,0,0:0:0:0:
36,192,26128,1,0,0:0:0:0:
475,192,26128,1,0,0:0:0:0:
329,192,26300,1,0,0:0:0:0:
109,192,26471,1,0,0:0:0:0:
256,192,26471,1,0,0:0:0:0:
402,192,26643,1,0,0:0:0:0:
329,192,26728,1,0,0:0:0:0:
109,192,26814,1,0,0:0:0:0:
256,192,26900,1,0,0:0:0:0:
329,192,26986,1,0,0:0:0:0:
36,192,27157,1,0,0:0:0:0:
182,192,27157,1,0,0:0:0:0:
329,192,27328,1,0,0:0:0:0:
475,192,27328,1,0,0:0:0:0:
256,192,27500,1,0,0:0:0:0:
402,192,27500,1,0,0:0:0:0:
182,192,27586,1,0,0:0:0:0:
109,192,27671,1,0,0:0:0:0:
36,192,27843,1,0,0:0:0:0:
329,192,27843,1,0,0:0:0:0:
182,192,28014,1,0,0:0:0:0:
256,192,28100,1,0,0:0:0:0:
402,192,28186,1,0,0:0:0:0:
109,192,28271,1,0,0:0:0:0:
182,192,28357,1,0,0:0:0:0:
329,192,28357,1,0,0:0:0:0:
36,192,28528,1,0,0:0:0:0:
475,192,28528,1,0,0:0:0:0:
256,192,28700,1,0,0:0:0:0:
109,192,28871,1,0,0:0:0:0:
402,192,28871,1,0,0:0:0:0:
182,192,29043,1,0,0:0:0:0:
402,192,29214,1,0,0:0:0:0:
256,192,29214,1,0,0:0:0:0:
109,192,29386,1,0,0:0:0:0:
182,192,29471,1,0,0:0:0:0:
402,192,29557,1,0,0:0:0:0:
256,192,29643,1,0,0:0:0:0:
182,192,29728,1,0,0:0:0:0:
475,192,29900,1,0,0:0:0:0:
329,192,29900,1,0,0:0:0:0:
182,192,30071,1,0,0:0:0:0:
36,192,30071,1,0,0:0:0:0:
256,192,30243,1,0,0:0:0:0:
109,192,30243,1,0,0:0:0:0:
329,192,30328,1,0,0:0:0:0:
402,192,30414,1,0,0:0:0:0:
475,192,30586,1,0,0:0:0:0:
182,192,30586,1,0,0:0:0:0:
329,192,30757,1,0,0:0:0:0:
256,192,30843,1,0,0:0:0:0:
109,192,30928,1,0,0:0:0:0:
402,192,31014,1,0,0:0:0:0:
329,192,31100,1,0,0:0:0:0:
182,192,31100,1,0,0:0:0:0:
402,192,31271,1,0,0:0:0:0:
109,192,31271,1,0,0:0:0:0:
475,192,31443,1,0,0:0:0:0:
36,192,31443,1,0,0:0:0:0:
109,192,31614,1,0,0:0:0:0:
256,192,31614,1,0,0:0:0:0:
182,192,31786,1,0,0:0:0:0:
329,192,31957,1,0,0:0:0:0:
475,192,31957,1,0,0:0:0:0:
256,192,32128,1,0,0:0:0:0:
109,192,32214,1,0,0:0:0:0:
36,192,32300,1,0,0:0:0:0:
329,192,32386,1,0,0:0:0:0:
109,192,32471,1,0,0:0:0:0:
182,192,32471,1,0,0:0:0:0:
329,192,32643,1,0,0:0:0:0:
475,192,32643,1,0,0:0:0:0:
36,192,32814,1,0,0:0:0:0:
182,192,32814,1,0,0:0:0:0:
329,192,32986,1,0,0:0:0:0:
109,192,32986,1,0,0:0:0:0:
182,192,33071,1,0,0:0:0:0:
256,192,33157,1,0,0:0:0:0:
475,192,33328,1,0,0:0:0:0:
109,192,33328,1,0,0:0:0:0:
256,192,33500,1,0,0:0:0:0:
402,192,33586,1,0,0:0:0:0:
475,192,33671,1,0,0:0:0:0:
329,192,33757,1,0,0:0:0:0:
182,192,33843,1,0,0:0:0:0:
256,192,34014,1,0,0:0:0:0:
109,192,34014,1,0,0:0:0:0:
329,192,34186,1,0,0:0:0:0:
475,192,34186,1,0,0:0:0:0:
182,192,34357,1,0,0:0:0:0:
36,192,34357,1,0,0:0:0:0:
256,192,34528,1,0,0:0:0:0:
109,192,34700,1,0,0:0:0:0:
402,192,34700,1,0,0:0:0:0:
329,192,34871,1,0,0:0:0:0:
182,192,34957,1,0,0:0:0:0:
109,192,35043,1,0,0:0:0:0:
256,192,35128,1,0,0:0:0:0:
402,192,35214,1,0,0:0:0:0:
329,192,35214,1,0,0:0:0:0:
182,192,35386,1,0,0:0:0:0:
109,192,35386,1,0,0:0:0:0:
256,192,35557,1,0,0:0:0:0:
36,192,35728,1,0,0:0:0:0:
329,192,35728,1,0,0:0:0:0:
475,192,35728,1,0,0:0:0:0:
182,192,35900,1,0,0:0:0:0:
256,192,36071,1,0,0:0:0:0:
402,192,36071,1,0,0:0:0:0:
109,192,36243,1,0,0:0:0:0:
182,192,36414,1,0,0:0:0:0:
329,192,36414,1,0,0:0:0:0:
36,192,36586,1,0,0:0:0:0:
475,192,36586,1,0,0:0:0:0:
109,192,36757,1,0,0:0:0:0:
182,192,36843,1,0,0:0:0:0:
256,192,36928,1,0,0:0:0:0:
329,192,37014,1,0,0:0:0:0:
402,192,37100,1,0,0:0:0:0:
475,192,37100,1,0,0:0:0:0:
182,192,37186,1,0,0:0:0:0:
109,192,37271,1,0,0:0:0:0:
36,192,37357,1,0,0:0:0:0:
329,192,37443,1,0,0:0:0:0:
256,192,37528,1,0,0:0:0:0:
182,192,37614,1,0,0:0:0:0:
109,192,37700,1,0,0:0:0:0:
402,192,37786,1,0,0:0:0:0:
329,192,37871,1,0,0:0:0:0:
256,192,37957,1,0,0:0:0:0:
182,192,38043,1,0,0:0:0:0:
475,192,38128,1,0,0:0:0:0:
402,192,38214,1,0,0:0:0:0:
329,192,38300,1,0,0:0:0:0:
109,192,38471,1,0,0:0:0:0:
182,192,38557,1,0,0:0:0:0:
256,192,38643,1,0,0:0:0:0:
329,192,38728,1,0,0:0:0:0:
36,192,38814,1,0,0:0:0:0:
109,192,38900,1,0,0:0:0:0:
182,192,38986,1,0,0:0:0:0:
256,192,39071,1,0,0:0:0:0:
402,192,39157,1,0,0:0:0:0:
329,192,39243,1,0,0:0:0:0:
256,192,39328,1,0,0:0:0:0:
182,192,39414,1,0,0:0:0:0:
475,192,39500,1,0,0:0:0:0:
402,192,39586,1,0,0:0:0:0:
329,192,39671,1,0,0:0:0:0:
182,192,39843,1,0,0:0:0:0:
36,192,39843,1,0,0:0:0:0:
329,192,39928,1,0,0:0:0:0:
402,192,40014,1,0,0:0:0:0:
475,192,40100,1,0,0:0:0:0:
109,192,40186,1,0,0:0:0:0:
256,192,40271,1,0,0:0:0:0:
329,192,40357,1,0,0:0:0:0:
402,192,40443,1,0,0:0:0:0:
36,192,40528,1,0,0:0:0:0:
182,192,40614,1,0,0:0:0:0:
256,192,40700,1,0,0:0:0:0:
329,192,40786,1,0,0:0:0:0:
109,192,40871,1,0,0:0:0:0:
256,192,40957,1,0,0:0:0:0:
402,192,41043,1,0,0:0:0:0:
329,192,41214,1,0,0:0:0:0:
182,192,41300,1,0,0:0:0:0:
109,192,41386,1,0,0:0:0:0:
36,192,41471,1,0,0:0:0:0:
402,192,41557,1,0,0:0:0:0:
256,192,41643,1,0,0:0:0:0:
182,192,41728,1,0,0:0:0:0:
109,192,41814,1,0,0:0:0:0:
475,192,41900,1,0,0:0:0:0:
329,192,41986,1,0,0:0:0:0:
256,192,42071,1,0,0:0:0:0:
182,192,42157,1,0,0:0:0:0:
402,192,42243,1,0,0:0:0:0:
329,192,42328,1,0,0:0:0:0:
256,192,42414,1,0,0:0:0:0:
36,192,42586,1,0,0:0:0:0:
109,192,42586,1,0,0:0:0:0:
475,192,42586,1,0,0:0:0:0:
109,192,42757,1,0,0:0:0:0:
402,192,42928,1,0,0:0:0:0:
256,192,42928,1,0,0:0:0:0:
402,192,43100,1,0,0:0:0:0:
329,192,43186,1,0,0:0:0:0:
182,192,43271,1,0,0:0:0:0:
36,192,43271,1,0,0:0:0:0:
182,192,43443,1,0,0:0:0:0:
475,192,43614,1,0,0:0:0:0:
329,192,43614,1,0,0:0:0:0:
475,192,43786,1,0,0:0:0:0:
402,192,43871,1,0,0:0:0:0:
109,192,43957,1,0,0:0:0:0:
36,192,43957,1,0,0:0:0:0:
256,192,43957,1,0,0:0:0:0:
109,192,44128,1,0,0:0:0:0:
329,192,44300,1,0,0:0:0:0:
182,192,44300,1,0,0:0:0:0:
329,192,44471,1,0,0:0:0:0:
256,192,44557,1,0,0:0:0:0:
182,192,44643,1,0,0:0:0:0:
36,192,44643,1,0,0:0:0:0:
182,192,44814,1,0,0:0:0:0:
402,192,44986,1,0,0:0:0:0:
256,192,44986,1,0,0:0:0:0:
402,192,45157,1,0,0:0:0:0:
109,192,45328,1,0,0:0:0:0:
329,192,45328,1,0,0:0:0:0:
475,192,45328,1,0,0:0:0:0:
109,192,45500,1,0,0:0:0:0:
329,192,45671,1,0,0:0:0:0:
182,192,45671,1,0,0:0:0:0:
329,192,45843,1,0,0:0:0:0:
402,192,45928,1,0,0:0:0:0:
475,192,46014,1,0,0:0:0:0:
256,192,46014,1,0,0:0:0:0:
36,192,46014,1,0,0:0:0:0:
182,192,46186,1,0,0:0:0:0:
182,192,46357,1,0,0:0:0:0:
402,192,46357,1,0,0:0:0:0:
329,192,46528,1,0,0:0:0:0:
256,192,46614,1,0,0:0:0:0:
109,192,46700,1,0,0:0:0:0:
475,192,46700,1,0,0:0:0:0:
182,192,46700,1,0,0:0:0:0:
475,192,46871,1,0,0:0:0:0:
256,192,47043,1,0,0:0:0:0:
36,192,47043,1,0,0:0:0:0:
36,192,47214,1,0,0:0:0:0:
109,192,47300,1,0,0:0:0:0:
329,192,47386,1,0,0:0:0:0:
182,192,47386,1,0,0:0:0:0:
475,192,47471,1,0,0:0:0:0:
402,192,47557,1,0,0:0:0:0:
329,192,47643,1,0,0:0:0:0:
36,192,47728,1,0,0:0:0:0:
256,192,47728,1,0,0:0:0:0:
109,192,47814,1,0,0:0:0:0:
182,192,47900,1,0,0:0:0:0:
256,192,47986,1,0,0:0:0:0:
329,192,48071,1,0,0:0:0:0:
475,192,48071,1,0,0:0:0:0:
182,192,48157,1,0,0:0:0:0:
109,192,48243,1,0,0:0:0:0:
36,192,48328,1,0,0:0:0:0:
256,192,48414,1,0,0:0:0:0:
329,192,48500,1,0,0:0:0:0:
402,192,48586,1,0,0:0:0:0:
109,192,48671,1,0,0:0:0:0:
182,192,48757,1,0,0:0:0:0:
256,192,48843,1,0,0:0:0:0:
36,192,48928,1,0,0:0:0:0:
109,192,49014,1,0,0:0:0:0:
182,192,49100,1,0,0:0:0:0:
402,192,49100,1,0,0:0:0:0:
36,192,49271,1,0,0:0:0:0:
256,192,49271,1,0,0:0:0:0:
475,192,49271,1,0,0:0:0:0:
182,192,50128,1,0,0:0:0:0:
329,192,50471,1,0,0:0:0:0:
256,192,50814,1,0,0:0:0:0:
36,192,50814,1,0,0:0:0:0:
475,192,50814,1,0,0:0:0:0:
109,192,51157,1,0,0:0:0:0:
402,192,51157,1,0,0:0:0:0:
182,192,51328,1,0,0:0:0:0:
329,192,51328,1,0,0:0:0:0:
256,192,51671,1,0,0:0:0:0:
36,192,51671,1,0,0:0:0:0:
109,192,51843,1,0,0:0:0:0:
402,192,51843,1,0,0:0:0:0:
256,192,52186,1,0,0:0:0:0:
329,192,52357,1,0,0:0:0:0:
475,192,52357,1,0,0:0:0:0:
182,192,52528,1,0,0:0:0:0:
36,192,52528,1,0,0:0:0:0:
402,192,52700,1,0,0:0:0:0:
329,192,52871,1,0,0:0:0:0:
256,192,53043,1,0,0:0:0:0:
109,192,53043,1,0,0:0:0:0:
402,192,53214,1,0,0:0:0:0:
475,192,53214,1,0,0:0:0:0:
329,192,53557,1,0,0:0:0:0:
109,192,53557,1,0,0:0:0:0:
256,192,53728,1,0,0:0:0:0:
182,192,53900,1,0,0:0:0:0:
36,192,53900,1,0,0:0:0:0:
402,192,54071,1,0,0:0:0:0:
256,192,54157,1,0,0:0:0:0:
109,192,54243,1,0,0:0:0:0:
329,192,54414,1,0,0:0:0:0:
475,192,54414,1,0,0:0:0:0:
182,192,54586,1,0,0:0:0:0:
36,192,54586,1,0,0:0:0:0:
256,192,54757,1,0,0:0:0:0:
402,192,54928,1,0,0:0:0:0:
182,192,55100,1,0,0:0:0:0:
36,192,55100,1,0,0:0:0:0:
329,192,55271,1,0,0:0:0:0:
475,192,55271,1,0,0:0:0:0:
109,192,55443,1,0,0:0:0:0:
256,192,55528,1,0,0:0:0:0:
402,192,55614,1,0,0:0:0:0:
182,192,55786,1,0,0:0:0:0:
36,192,55786,1,0,0:0:0:0:
329,192,55957,1,0,0:0:0:0:
475,192,55957,1,0,0:0:0:0:
256,192,56128,1,0,0:0:0:0:
182,192,56300,1,0,0:0:0:0:
36,192,56300,1,0,0:0:0:0:
329,192,56471,1,0,0:0:0:0:
475,192,56471,1,0,0:0:0:0:
109,192,56643,1,0,0:0:0:0:
256,192,56643,1,0,0:0:0:0:
402,192,56814,1,0,0:0:0:0:
182,192,56900,1,0,0:0:0:0:
36,192,56986,1,0,0:0:0:0:
329,192,57157,1,0,0:0:0:0:
475,192,57157,1,0,0:0:0:0:
182,192,57328,1,0,0:0:0:0:
36,192,57328,1,0,0:0:0:0:
109,192,57500,1,0,0:0:0:0:
256,192,57586,1,0,0:0:0:0:
402,192,57671,1,0,0:0:0:0:
36,192,57843,1,0,0:0:0:0:
182,192,57843,1,0,0:0:0:0:
329,192,58014,1,0,0:0:0:0:
475,192,58014,1,0,0:0:0:0:
109,192,58186,1,0,0:0:0:0:
256,192,58271,1,0,0:0:0:0:
402,192,58357,1,0,0:0:0:0:
36,192,58528,1,0,0:0:0:0:
182,192,58528,1,0,0:0:0:0:
329,192,58700,1,0,0:0:0:0:
475,192,58700,1,0,0:0:0:0:
402,192,58871,1,0,0:0:0:0:
256,192,58957,1,0,0:0:0:0:
109,192,59043,1,0,0:0:0:0:
36,192,59043,1,0,0:0:0:0:
182,192,59214,1,0,0:0:0:0:
256,192,59386,1,0,0:0:0:0:
402,192,59386,1,0,0:0:0:0:
109,192,59557,1,0,0:0:0:0:
329,192,59643,1,0,0:0:0:0:
475,192,59728,1,0,0:0:0:0:
182,192,59900,1,0,0:0:0:0:
36,192,59900,1,0,0:0:0:0:
329,192,60071,1,0,0:0:0:0:
475,192,60071,1,0,0:0:0:0:
402,192,60243,1,0,0:0:0:0:
256,192,60328,1,0,0:0:0:0:
109,192,60414,1,0,0:0:0:0:
329,192,60586,1,0,0:0:0:0:
475,192,60586,1,0,0:0:0:0:
182,192,60757,1,0,0:0:0:0:
36,192,60757,1,0,0:0:0:0:
109,192,60928,1,0,0:0:0:0:
256,192,61100,1,0,0:0:0:0:
329,192,61271,1,0,0:0:0:0:
475,192,61271,1,0,0:0:0:0:
182,192,61443,1,0,0:0:0:0:
36,192,61443,1,0,0:0:0:0:
36,192,61786,1,0,0:0:0:0:
475,192,61786,1,0,0:0:0:0:
329,192,61786,1,0,0:0:0:0:
402,192,61957,1,0,0:0:0:0:
256,192,62043,1,0,0:0:0:0:
109,192,62128,1,0,0:0:0:0:
182,192,62128,1,0,0:0:0:0:
329,192,62300,1,0,0:0:0:0:
182,192,62471,1,0,0:0:0:0:
36,192,62471,1,0,0:0:0:0:
329,192,62557,1,0,0:0:0:0:
182,192,62728,1,0,0:0:0:0:
329,192,62814,1,0,0:0:0:0:
475,192,62814,1,0,0:0:0:0:
256,192,62986,1,0,0:0:0:0:
36,192,63157,1,0,0:0:0:0:
182,192,63157,1,0,0:0:0:0:
109,192,63328,1,0,0:0:0:0:
256,192,63414,1,0,0:0:0:0:
402,192,63500,1,0,0:0:0:0:
329,192,63500,1,0,0:0:0:0:
182,192,63671,1,0,0:0:0:0:
329,192,63843,1,0,0:0:0:0:
475,192,63843,1,0,0:0:0:0:
182,192,63928,1,0,0:0:0:0:
329,192,64100,1,0,0:0:0:0:
182,192,64186,1,0,0:0:0:0:
36,192,64186,1,0,0:0:0:0:
256,192,64357,1,0,0:0:0:0:
109,192,64528,1,0,0:0:0:0:
329,192,64528,1,0,0:0:0:0:
475,192,64528,1,0,0:0:0:0:
402,192,64700,1,0,0:0:0:0:
256,192,64786,1,0,0:0:0:0:
182,192,64871,1,0,0:0:0:0:
36,192,64871,1,0,0:0:0:0:
402,192,65043,1,0,0:0:0:0:
109,192,65214,1,0,0:0:0:0:
256,192,65214,1,0,0:0:0:0:
329,192,65300,1,0,0:0:0:0:
182,192,65471,1,0,0:0:0:0:
402,192,65557,1,0,0:0:0:0:
256,192,65557,1,0,0:0:0:0:
329,192,65728,1,0,0:0:0:0:
36,192,65900,1,0,0:0:0:0:
182,192,65900,1,0,0:0:0:0:
475,192,65900,1,0,0:0:0:0:
402,192,66071,1,0,0:0:0:0:
329,192,66157,1,0,0:0:0:0:
109,192,66243,1,0,0:0:0:0:
256,192,66243,1,0,0:0:0:0:
36,192,66414,1,0,0:0:0:0:
329,192,66414,1,0,0:0:0:0:
475,192,66414,1,0,0:0:0:0:
182,192,66414,1,0,0:0:0:0:
109,192,66757,1,0,0:0:0:0:
402,192,66757,1,0,0:0:0:0:
256,192,66757,1,0,0:0:0:0:
182,192,66928,1,0,0:0:0:0:
329,192,67014,1,0,0:0:0:0:
182,192,67100,1,0,0:0:0:0:
329,192,67186,1,0,0:0:0:0:
256,192,67271,1,0,0:0:0:0:
36,192,67271,1,0,0:0:0:0:
475,192,67271,1,0,0:0:0:0:
109,192,67443,1,0,0:0:0:0:
402,192,67443,1,0,0:0:0:0:
182,192,67614,1,0,0:0:0:0:
329,192,67614,1,0,0:0:0:0:
256,192,67786,1,0,0:0:0:0:
36,192,67786,1,0,0:0:0:0:
109,192,67957,1,0,0:0:0:0:
182,192,67957,1,0,0:0:0:0:
329,192,68128,1,0,0:0:0:0:
402,192,68128,1,0,0:0:0:0:
256,192,68300,1,0,0:0:0:0:
475,192,68300,1,0,0:0:0:0:
182,192,68471,1,0,0:0:0:0:
402,192,68471,1,0,0:0:0:0:
109,192,68643,1,0,0:0:0:0:
329,192,68643,1,0,0:0:0:0:
36,192,68814,1,0,0:0:0:0:
475,192,68814,1,0,0:0:0:0:
109,192,68986,1,0,0:0:0:0:
402,192,68986,1,0,0:0:0:0:
182,192,69157,1,0,0:0:0:0:
329,192,69157,1,0,0:0:0:0:
256,192,69328,1,0,0:0:0:0:
475,192,69328,1,0,0:0:0:0:
402,192,69500,1,0,0:0:0:0:
329,192,69500,1,0,0:0:0:0:
109,192,69671,1,0,0:0:0:0:
182,192,69843,1,0,0:0:0:0:
256,192,70014,1,0,0:0:0:0:
475,192,70014,1,0,0:0:0:0:
36,192,70014,1,0,0:0:0:0:
402,192,70186,1,0,0:0:0:0:
109,192,70186,1,0,0:0:0:0:
329,192,70357,1,0,0:0:0:0:
182,192,70357,1,0,0:0:0:0:
256,192,70528,1,0,0:0:0:0:
475,192,70528,1,0,0:0:0:0:
402,192,70700,1,0,0:0:0:0:
329,192,70700,1,0,0:0:0:0:
182,192,70871,1,0,0:0:0:0:
109,192,70871,1,0,0:0:0:0:
256,192,71043,1,0,0:0:0:0:
36,192,71043,1,0,0:0:0:0:
329,192,71214,1,0,0:0:0:0:
109,192,71214,1,0,0:0:0:0:
402,192,71386,1,0,0:0:0:0:
475,192,71386,1,0,0:0:0:0:
256,192,71471,1,0,0:0:0:0:
109,192,71557,1,0,0:0:0:0:
36,192,71557,1,0,0:0:0:0:
329,192,71728,1,0,0:0:0:0:
402,192,71728,1,0,0:0:0:0:
256,192,71814,1,0,0:0:0:0:
182,192,71900,1,0,0:0:0:0:
109,192,71900,1,0,0:0:0:0:
402,192,72071,1,0,0:0:0:0:
475,192,72071,1,0,0:0:0:0:
329,192,72157,1,0,0:0:0:0:
182,192,72243,1,0,0:0:0:0:
256,192,72243,1,0,0:0:0:0:
36,192,72414,1,0,0:0:0:0:
329,192,72586,1,0,0:0:0:0:
36,192,72757,1,0,0:0:0:0:
475,192,72757,1,0,0:0:0:0:
256,192,72757,1,0,0:0:0:0:
109,192,72928,1,0,0:0:0:0:
402,192,72928,1,0,0:0:0:0:
182,192,73100,1,0,0:0:0:0:
329,192,73100,1,0,0:0:0:0:
256,192,73271,1,0,0:0:0:0:
36,192,73271,1,0,0:0:0:0:
329,192,73357,1,0,0:0:0:0:
402,192,73443,1,0,0:0:0:0:
475,192,73443,1,0,0:0:0:0:
109,192,73614,1,0,0:0:0:0:
182,192,73614,1,0,0:0:0:0:
36,192,73786,1,0,0:0:0:0:
256,192,73786,1,0,0:0:0:0:
109,192,73957,1,0,0:0:0:0:
329,192,73957,1,0,0:0:0:0:
182,192,74128,1,0,0:0:0:0:
402,192,74128,1,0,0:0:0:0:
256,192,74128,1,0,0:0:0:0:
36,192,74300,1,0,0:0:0:0:
475,192,74300,1,0,0:0:0:0:
109,192,74471,1,0,0:0:0:0:
402,192,74471,1,0,0:0:0:0:
182,192,74643,1,0,0:0:0:0:
329,192,74643,1,0,0:0:0:0:
256,192,74728,1,0,0:0:0:0:
109,192,74814,1,0,0:0:0:0:
402,192,74814,1,0,0:0:0:0:
36,192,74986,1,0,0:0:0:0:
475,192,74986,1,0,0:0:0:0:
182,192,75157,1,0,0:0:0:0:
329,192,75157,1,0,0:0:0:0:
109,192,75328,1,0,0:0:0:0:
402,192,75328,1,0,0:0:0:0:
256,192,75500,1,0,0:0:0:0:
36,192,75500,1,0,0:0:0:0:
475,192,75500,1,0,0:0:0:0:
182,192,75586,1,0,0:0:0:0:
109,192,75671,1,0,0:0:0:0:
329,192,75757,1,0,0:0:0:0:
402,192,75843,1,0,0:0:0:0:
475,192,75928,1,0,0:0:0:0:
182,192,76014,1,0,0:0:0:0:
109,192,76100,1,0,0:0:0:0:
36,192,76186,1,0,0:0:0:0:
475,192,76186,1,0,0:0:0:0:
256,192,76271,1,0,0:0:0:0:
329,192,76357,1,0,0:0:0:0:
402,192,76443,1,0,0:0:0:0:
182,192,76528,1,0,0:0:0:0:
256,192,76614,1,0,0:0:0:0:
329,192,76700,1,0,0:0:0:0:
402,192,76786,1,0,0:0:0:0:
36,192,76871,1,0,0:0:0:0:
475,192,76871,1,0,0:0:0:0:
109,192,76871,1,0,0:0:0:0:
182,192,77043,1,0,0:0:0:0:
329,192,77128,1,0,0:0:0:0:
329,192,77300,1,0,0:0:0:0:
182,192,77386,1,0,0:0:0:0:
475,192,77557,1,0,0:0:0:0:
36,192,77900,1,0,0:0:0:0:
182,192,78071,1,0,0:0:0:0:
329,192,78243,1,0,0:0:0:0:
402,192,78243,1,0,0:0:0:0:
256,192,78328,1,0,0:0:0:0:
182,192,78414,1,0,0:0:0:0:
109,192,78500,1,0,0:0:0:0:
329,192,78586,1,0,0:0:0:0:
402,192,78671,1,0,0:0:0:0:
475,192,78757,1,0,0:0:0:0:
182,192,78757,1,0,0:0:0:0:
109,192,78843,1,0,0:0:0:0:
36,192,78928,1,0,0:0:0:0:
256,192,79014,1,0,0:0:0:0:
329,192,79100,1,0,0:0:0:0:
402,192,79186,1,0,0:0:0:0:
475,192,79271,1,0,0:0:0:0:
109,192,79357,1,0,0:0:0:0:
329,192,79443,1,0,0:0:0:0:
36,192,79528,1,0,0:0:0:0:
182,192,79614,1,0,0:0:0:0:
256,192,79700,1,0,0:0:0:0:
329,192,79786,1,0,0:0:0:0:
402,192,79871,5,0,0:0:0:0:
182,192,79957,5,0,0:0:0:0:
109,192,80043,1,0,0:0:0:0:
36,192,80128,1,0,0:0:0:0:
329,192,80214,1,0,0:0:0:0:
402,192,80300,1,0,0:0:0:0:
475,192,80386,1,0,0:0:0:0:
182,192,80471,1,0,0:0:0:0:
109,192,80557,1,0,0:0:0:0:
329,192,80643,1,0,0:0:0:0:
402,192,80728,1,0,0:0:0:0:
182,192,80814,1,0,0:0:0:0:
256,192,80986,5,0,0:0:0:0:
36,192,80986,1,0,0:0:0:0:
329,192,81043,1,0,0:0:0:0:
402,192,81100,1,0,0:0:0:0:
475,192,81157,1,0,0:0:0:0:
182,192,81214,1,0,0:0:0:0:
109,192,81271,1,0,0:0:0:0:
256,192,81328,1,0,0:0:0:0:
36,192,81328,1,0,0:0:0:0:
329,192,81500,1,0,0:0:0:0:
402,192,81500,1,0,0:0:0:0:
256,192,81671,1,0,0:0:0:0:
475,192,81671,1,0,0:0:0:0:
182,192,81728,1,0,0:0:0:0:
109,192,81786,1,0,0:0:0:0:
36,192,81843,1,0,0:0:0:0:
329,192,81900,1,0,0:0:0:0:
402,192,81957,1,0,0:0:0:0:
475,192,82014,1,0,0:0:0:0:
256,192,82014,1,0,0:0:0:0:
182,192,82100,1,0,0:0:0:0:
109,192,82186,1,0,0:0:0:0:
256,192,82357,1,0,0:0:0:0:
475,192,82357,1,0,0:0:0:0:
182,192,82414,1,0,0:0:0:0:
109,192,82471,1,0,0:0:0:0:
36,192,82528,1,0,0:0:0:0:
329,192,82586,1,0,0:0:0:0:
402,192,82643,1,0,0:0:0:0:
256,192,82700,1,0,0:0:0:0:
475,192,82700,1,0,0:0:0:0:
182,192,82871,1,0,0:0:0:0:
109,192,82871,1,0,0:0:0:0:
256,192,83043,1,0,0:0:0:0:
36,192,83043,1,0,0:0:0:0:
329,192,83100,1,0,0:0:0:0:
402,192,83157,1,0,0:0:0:0:
475,192,83214,1,0,0:0:0:0:
182,192,83271,1,0,0:0:0:0:
109,192,83328,1,0,0:0:0:0:
36,192,83386,1,0,0:0:0:0:
256,192,83386,1,0,0:0:0:0:
329,192,83471,1,0,0:0:0:0:
402,192,83557,1,0,0:0:0:0:
36,192,83728,1,0,0:0:0:0:
256,192,83728,1,0,0:0:0:0:
109,192,83786,1,0,0:0:0:0:
182,192,83843,1,0,0:0:0:0:
475,192,83900,1,0,0:0:0:0:
402,192,83957,1,0,0:0:0:0:
329,192,84014,1,0,0:0:0:0:
36,192,84071,1,0,0:0:0:0:
256,192,84071,1,0,0:0:0:0:
109,192,84243,1,0,0:0:0:0:
182,192,84243,1,0,0:0:0:0:
256,192,84414,1,0,0:0:0:0:
475,192,84414,1,0,0:0:0:0:
402,192,84471,1,0,0:0:0:0:
329,192,84528,1,0,0:0:0:0:
36,192,84586,1,0,0:0:0:0:
109,192,84643,1,0,0:0:0:0:
182,192,84700,1,0,0:0:0:0:
256,192,84757,1,0,0:0:0:0:
402,192,84843,1,0,0:0:0:0:
329,192,84928,1,0,0:0:0:0:
256,192,85014,1,0,0:0:0:0:
475,192,85100,1,0,0:0:0:0:
109,192,85100,1,0,0:0:0:0:
402,192,85157,1,0,0:0:0:0:
329,192,85214,1,0,0:0:0:0:
36,192,85271,1,0,0:0:0:0:
109,192,85328,1,0,0:0:0:0:
182,192,85386,1,0,0:0:0:0:
256,192,85443,1,0,0:0:0:0:
475,192,85443,1,0,0:0:0:0:
329,192,85614,1,0,0:0:0:0:
402,192,85614,1,0,0:0:0:0:
36,192,85786,1,0,0:0:0:0:
256,192,85786,1,0,0:0:0:0:
109,192,85843,1,0,0:0:0:0:
182,192,85900,1,0,0:0:0:0:
475,192,85957,1,0,0:0:0:0:
402,192,86014,1,0,0:0:0:0:
329,192,86071,1,0,0:0:0:0:
256,192,86128,1,0,0:0:0:0:
36,192,86128,1,0,0:0:0:0:
109,192,86300,1,0,0:0:0:0:
402,192,86357,1,0,0:0:0:0:
182,192,86414,1,0,0:0:0:0:
329,192,86471,1,0,0:0:0:0:
475,192,86471,1,0,0:0:0:0:
256,192,86643,1,0,0:0:0:0:
109,192,86643,1,0,0:0:0:0:
36,192,86814,1,0,0:0:0:0:
182,192,86814,1,0,0:0:0:0:
329,192,86986,1,0,0:0:0:0:
475,192,86986,1,0,0:0:0:0:
109,192,87157,1,0,0:0:0:0:
256,192,87157,1,0,0:0:0:0:
329,192,87243,1,0,0:0:0:0:
402,192,87328,1,0,0:0:0:0:
475,192,87414,1,0,0:0:0:0:
182,192,87500,1,0,0:0:0:0:
256,192,87586,1,0,0:0:0:0:
329,192,87671,1,0,0:0:0:0:
402,192,87757,1,0,0:0:0:0:
36,192,87843,1,0,0:0:0:0:
109,192,87843,1,0,0:0:0:0:
182,192,87843,1,0,0:0:0:0:
256,192,87928,1,0,0:0:0:0:
329,192,88014,1,0,0:0:0:0:
402,192,88100,1,0,0:0:0:0:
109,192,88186,1,0,0:0:0:0:
182,192,88271,1,0,0:0:0:0:
256,192,88357,1,0,0:0:0:0:
329,192,88443,1,0,0:0:0:0:
402,192,88528,1,0,0:0:0:0:
109,192,88614,1,0,0:0:0:0:
329,192,88700,1,0,0:0:0:0:
182,192,88786,1,0,0:0:0:0:
256,192,88871,1,0,0:0:0:0:
475,192,88871,1,0,0:0:0:0:
36,192,88871,1,0,0:0:0:0:
36,192,89214,1,0,0:0:0:0:
182,192,89214,1,0,0:0:0:0:
329,192,89214,1,0,0:0:0:0:
475,192,89214,1,0,0:0:0:0:
109,192,89386,1,0,0:0:0:0:
256,192,89386,1,0,0:0:0:0:
182,192,89557,1,0,0:0:0:0:
402,192,89557,1,0,0:0:0:0:
475,192,89557,1,0,0:0:0:0:
256,192,89728,1,0,0:0:0:0:
329,192,89728,1,0,0:0:0:0:
182,192,89900,1,0,0:0:0:0:
109,192,89900,1,0,0:0:0:0:
36,192,89900,1,0,0:0:0:0:
256,192,90071,1,0,0:0:0:0:
36,192,90243,1,0,0:0:0:0:
329,192,90243,1,0,0:0:0:0:
475,192,90243,1,0,0:0:0:0:
109,192,90414,1,0,0:0:0:0:
182,192,90500,1,0,0:0:0:0:
36,192,90586,1,0,0:0:0:0:
256,192,90586,1,0,0:0:0:0:
475,192,90586,1,0,0:0:0:0:
402,192,90757,1,0,0:0:0:0:
329,192,90757,1,0,0:0:0:0:
256,192,90928,1,0,0:0:0:0:
109,192,90928,1,0,0:0:0:0:
36,192,90928,1,0,0:0:0:0:
182,192,91100,1,0,0:0:0:0:
329,192,91100,1,0,0:0:0:0:
109,192,91271,1,0,0:0:0:0:
402,192,91271,1,0,0:0:0:0:
475,192,91271,1,0,0:0:0:0:
256,192,91443,1,0,0:0:0:0:
475,192,91614,1,0,0:0:0:0:
182,192,91614,1,0,0:0:0:0:
36,192,91614,1,0,0:0:0:0:
402,192,91786,1,0,0:0:0:0:
329,192,91871,1,0,0:0:0:0:
36,192,91957,1,0,0:0:0:0:
256,192,91957,1,0,0:0:0:0:
475,192,91957,1,0,0:0:0:0:
109,192,92128,1,0,0:0:0:0:
182,192,92128,1,0,0:0:0:0:
475,192,92300,1,0,0:0:0:0:
402,192,92300,1,0,0:0:0:0:
256,192,92300,1,0,0:0:0:0:
329,192,92471,1,0,0:0:0:0:
182,192,92471,1,0,0:0:0:0:
36,192,92643,1,0,0:0:0:0:
109,192,92643,1,0,0:0:0:0:
256,192,92643,1,0,0:0:0:0:
402,192,92814,1,0,0:0:0:0:
475,192,92986,1,0,0:0:0:0:
329,192,92986,1,0,0:0:0:0:
36,192,92986,1,0,0:0:0:0:
182,192,93157,1,0,0:0:0:0:
109,192,93157,1,0,0:0:0:0:
256,192,93328,1,0,0:0:0:0:
475,192,93328,1,0,0:0:0:0:
36,192,93328,1,0,0:0:0:0:
329,192,93500,1,0,0:0:0:0:
109,192,93671,1,0,0:0:0:0:
182,192,93671,1,0,0:0:0:0:
475,192,93671,1,0,0:0:0:0:
256,192,93843,1,0,0:0:0:0:
329,192,93843,1,0,0:0:0:0:
36,192,94014,1,0,0:0:0:0:
109,192,94014,1,0,0:0:0:0:
402,192,94014,1,0,0:0:0:0:
182,192,94186,1,0,0:0:0:0:
256,192,94186,1,0,0:0:0:0:
36,192,94357,1,0,0:0:0:0:
109,192,94357,1,0,0:0:0:0:
402,192,94357,1,0,0:0:0:0:
256,192,94528,1,0,0:0:0:0:
329,192,94528,1,0,0:0:0:0:
475,192,94700,1,0,0:0:0:0:
182,192,94700,1,0,0:0:0:0:
36,192,94700,1,0,0:0:0:0:
402,192,94871,1,0,0:0:0:0:
329,192,94871,1,0,0:0:0:0:
256,192,95043,1,0,0:0:0:0:
109,192,95043,1,0,0:0:0:0:
36,192,95043,1,0,0:0:0:0:
182,192,95214,1,0,0:0:0:0:
329,192,95214,1,0,0:0:0:0:
256,192,95386,1,0,0:0:0:0:
402,192,95386,1,0,0:0:0:0:
475,192,95386,1,0,0:0:0:0:
109,192,95557,1,0,0:0:0:0:
475,192,95728,1,0,0:0:0:0:
182,192,95728,1,0,0:0:0:0:
36,192,95728,1,0,0:0:0:0:
402,192,95900,1,0,0:0:0:0:
329,192,95986,1,0,0:0:0:0:
182,192,96071,1,0,0:0:0:0:
475,192,96071,1,0,0:0:0:0:
36,192,96071,1,0,0:0:0:0:
109,192,96243,1,0,0:0:0:0:
256,192,96243,1,0,0:0:0:0:
182,192,96414,1,0,0:0:0:0:
402,192,96414,1,0,0:0:0:0:
475,192,96414,1,0,0:0:0:0:
256,192,96586,1,0,0:0:0:0:
329,192,96586,1,0,0:0:0:0:
182,192,96757,1,0,0:0:0:0:
109,192,96757,1,0,0:0:0:0:
36,192,96757,1,0,0:0:0:0:
256,192,96928,1,0,0:0:0:0:
36,192,97100,1,0,0:0:0:0:
329,192,97100,1,0,0:0:0:0:
475,192,97100,1,0,0:0:0:0:
109,192,97271,1,0,0:0:0:0:
182,192,97357,1,0,0:0:0:0:
475,192,97443,1,0,0:0:0:0:
256,192,97443,1,0,0:0:0:0:
329,192,97443,1,0,0:0:0:0:
36,192,97614,1,0,0:0:0:0:
182,192,97614,1,0,0:0:0:0:
109,192,97786,1,0,0:0:0:0:
402,192,97786,1,0,0:0:0:0:
329,192,97786,1,0,0:0:0:0:
182,192,97957,1,0,0:0:0:0:
256,192,97957,1,0,0:0:0:0:
36,192,98128,1,0,0:0:0:0:
475,192,98128,1,0,0:0:0:0:
402,192,98128,1,0,0:0:0:0:
109,192,98300,1,0,0:0:0:0:
329,192,98300,1,0,0:0:0:0:
182,192,98471,1,0,0:0:0:0:
256,192,98471,1,0,0:0:0:0:
402,192,98643,1,0,0:0:0:0:
329,192,98814,1,0,0:0:0:0:
36,192,98814,1,0,0:0:0:0:
475,192,98814,1,0,0:0:0:0:
182,192,98814,1,0,0:0:0:0:
256,192,98986,1,0,0:0:0:0:
109,192,99157,1,0,0:0:0:0:
402,192,99328,1,0,0:0:0:0:
256,192,99414,1,0,0:0:0:0:
109,192,99500,1,0,0:0:0:0:
329,192,99586,1,0,0:0:0:0:
475,192,99671,1,0,0:0:0:0:
182,192,99757,1,0,0:0:0:0:
36,192,99843,1,0,0:0:0:0:
402,192,99843,1,0,0:0:0:0:
256,192,100014,1,0,0:0:0:0:
36,192,100186,1,0,0:0:0:0:
182,192,100186,1,0,0:0:0:0:
329,192,100186,1,0,0:0:0:0:
475,192,100186,1,0,0:0:0:0:
256,192,100357,1,0,0:0:0:0:
402,192,100357,1,0,0:0:0:0:
329,192,100528,1,0,0:0:0:0:
36,192,100528,1,0,0:0:0:0:
109,192,100528,1,0,0:0:0:0:
256,192,100700,1,0,0:0:0:0:
182,192,100700,1,0,0:0:0:0:
36,192,100871,1,0,0:0:0:0:
329,192,100871,1,0,0:0:0:0:
475,192,100871,1,0,0:0:0:0:
182,192,101043,1,0,0:0:0:0:
256,192,101128,1,0,0:0:0:0:
36,192,101214,1,0,0:0:0:0:
329,192,101214,1,0,0:0:0:0:
475,192,101214,1,0,0:0:0:0:
109,192,101300,1,0,0:0:0:0:
182,192,101386,1,0,0:0:0:0:
256,192,101557,1,0,0:0:0:0:
402,192,101557,1,0,0:0:0:0:
36,192,101557,1,0,0:0:0:0:
329,192,101728,1,0,0:0:0:0:
256,192,101814,1,0,0:0:0:0:
182,192,101900,1,0,0:0:0:0:
36,192,101900,1,0,0:0:0:0:
475,192,101900,1,0,0:0:0:0:
402,192,101986,1,0,0:0:0:0:
329,192,102071,1,0,0:0:0:0:
109,192,102243,1,0,0:0:0:0:
256,192,102243,1,0,0:0:0:0:
36,192,102243,1,0,0:0:0:0:
182,192,102414,1,0,0:0:0:0:
109,192,102500,1,0,0:0:0:0:
36,192,102586,1,0,0:0:0:0:
329,192,102586,1,0,0:0:0:0:
475,192,102586,1,0,0:0:0:0:
256,192,102671,1,0,0:0:0:0:
182,192,102757,1,0,0:0:0:0:
329,192,102928,1,0,0:0:0:0:
475,192,102928,1,0,0:0:0:0:
109,192,102928,1,0,0:0:0:0:
182,192,103100,1,0,0:0:0:0:
256,192,103100,1,0,0:0:0:0:
475,192,103271,1,0,0:0:0:0:
36,192,103271,1,0,0:0:0:0:
402,192,103271,1,0,0:0:0:0:
329,192,103443,1,0,0:0:0:0:
256,192,103443,1,0,0:0:0:0:
475,192,103614,1,0,0:0:0:0:
182,192,103614,1,0,0:0:0:0:
36,192,103614,1,0,0:0:0:0:
329,192,103786,1,0,0:0:0:0:
256,192,103871,1,0,0:0:0:0:
475,192,103957,1,0,0:0:0:0:
182,192,103957,1,0,0:0:0:0:
36,192,103957,1,0,0:0:0:0:
402,192,104128,1,0,0:0:0:0:
329,192,104128,1,0,0:0:0:0:
256,192,104214,1,0,0:0:0:0:
182,192,104214,1,0,0:0:0:0:
109,192,104300,1,0,0:0:0:0:
475,192,104300,1,0,0:0:0:0:
36,192,104300,1,0,0:0:0:0:
182,192,104471,1,0,0:0:0:0:
256,192,104557,1,0,0:0:0:0:
329,192,104643,1,0,0:0:0:0:
475,192,104643,1,0,0:0:0:0:
36,192,104643,1,0,0:0:0:0:
109,192,104728,1,0,0:0:0:0:
182,192,104814,1,0,0:0:0:0:
402,192,104986,1,0,0:0:0:0:
256,192,104986,1,0,0:0:0:0:
475,192,104986,1,0,0:0:0:0:
329,192,105071,1,0,0:0:0:0:
182,192,105157,1,0,0:0:0:0:
256,192,105243,1,0,0:0:0:0:
36,192,105328,1,0,0:0:0:0:
109,192,105328,1,0,0:0:0:0:
182,192,105414,1,0,0:0:0:0:
402,192,105500,1,0,0:0:0:0:
329,192,105586,1,0,0:0:0:0:
256,192,105671,1,0,0:0:0:0:
36,192,105671,1,0,0:0:0:0:
475,192,105671,1,0,0:0:0:0:
109,192,105843,1,0,0:0:0:0:
182,192,106014,1,0,0:0:0:0:
329,192,106014,1,0,0:0:0:0:
402,192,106014,1,0,0:0:0:0:
256,192,106186,1,0,0:0:0:0:
36,192,106357,1,0,0:0:0:0:
475,192,106357,1,0,0:0:0:0:
109,192,106357,1,0,0:0:0:0:
329,192,106528,1,0,0:0:0:0:
182,192,106700,1,0,0:0:0:0:
402,192,106700,1,0,0:0:0:0:
36,192,106700,1,0,0:0:0:0:
109,192,106871,1,0,0:0:0:0:
256,192,106871,1,0,0:0:0:0:
182,192,106957,1,0,0:0:0:0:
329,192,106957,1,0,0:0:0:0:
475,192,107043,1,0,0:0:0:0:
402,192,107043,1,0,0:0:0:0:
36,192,107043,1,0,0:0:0:0:
329,192,107214,1,0,0:0:0:0:
36,192,107386,1,0,0:0:0:0:
109,192,107386,1,0,0:0:0:0:
256,192,107386,1,0,0:0:0:0:
182,192,107557,1,0,0:0:0:0:
36,192,107728,1,0,0:0:0:0:
475,192,107728,1,0,0:0:0:0:
402,192,107728,1,0,0:0:0:0:
256,192,107900,1,0,0:0:0:0:
109,192,108071,1,0,0:0:0:0:
475,192,108071,1,0,0:0:0:0:
329,192,108071,1,0,0:0:0:0:
256,192,108243,1,0,0:0:0:0:
402,192,108243,1,0,0:0:0:0:
182,192,108328,1,0,0:0:0:0:
329,192,108328,1,0,0:0:0:0:
36,192,108414,1,0,0:0:0:0:
109,192,108414,1,0,0:0:0:0:
475,192,108414,1,0,0:0:0:0:
182,192,108586,1,0,0:0:0:0:
402,192,108586,1,0,0:0:0:0:
256,192,108671,1,0,0:0:0:0:
329,192,108757,1,0,0:0:0:0:
36,192,108757,1,0,0:0:0:0:
109,192,108757,1,0,0:0:0:0:
182,192,108928,1,0,0:0:0:0:
256,192,108928,1,0,0:0:0:0:
36,192,109100,1,0,0:0:0:0:
402,192,109100,1,0,0:0:0:0:
475,192,109100,1,0,0:0:0:0:
109,192,109271,1,0,0:0:0:0:
329,192,109271,1,0,0:0:0:0:
256,192,109357,1,0,0:0:0:0:
182,192,109443,1,0,0:0:0:0:
402,192,109443,1,0,0:0:0:0:
475,192,109443,1,0,0:0:0:0:
36,192,109614,1,0,0:0:0:0:
329,192,109614,1,0,0:0:0:0:
475,192,109786,1,0,0:0:0:0:
109,192,109786,1,0,0:0:0:0:
256,192,109786,1,0,0:0:0:0:
109,192,109957,1,0,0:0:0:0:
182,192,110128,1,0,0:0:0:0:
402,192,110128,1,0,0:0:0:0:
475,192,110128,1,0,0:0:0:0:
256,192,110300,1,0,0:0:0:0:
182,192,110471,1,0,0:0:0:0:
329,192,110557,1,0,0:0:0:0:
182,192,110643,1,0,0:0:0:0:
329,192,110728,1,0,0:0:0:0:
256,192,110814,1,0,0:0:0:0:
36,192,110814,1,0,0:0:0:0:
475,192,110814,1,0,0:0:0:0:
109,192,111157,1,0,0:0:0:0:
402,192,111157,1,0,0:0:0:0:
256,192,111157,1,0,0:0:0:0:
