osu file format v14

[General]
AudioFilename: Maxi.mp3
AudioLeadIn: 0
PreviewTime: 81613
Countdown: 0
SampleSet: None
StackLeniency: 0.7
Mode: 1
LetterboxInBreaks: 0
WidescreenStoryboard: 0

[Editor]
DistanceSpacing: 1
BeatDivisor: 16
GridSize: 32
TimelineZoom: 1

[Metadata]
Title:Maxi
TitleUnicode:Maxi
Artist:Nizikawa
ArtistUnicode:Nizikawa
Creator:butter0414
Version:Inner Oni
Source:BMS
Tags:nizikawa bofu2016 energetic j core
BeatmapID:2488935
BeatmapSetID:1194703

[Difficulty]
HPDrainRate:5.5
CircleSize:5
OverallDifficulty:5.5
ApproachRate:5
SliderMultiplier:1.4
SliderTickRate:1

[Events]
//Background and Video events
0,0,"bg.jpg",0,0
//Break Periods
//Storyboard Layer 0 (Background)
//Storyboard Layer 1 (Fail)
//Storyboard Layer 2 (Pass)
//Storyboard Layer 3 (Foreground)
//Storyboard Layer 4 (Overlay)
//Storyboard Sound Samples

[TimingPoints]
280,333.333333333333,4,1,0,85,1,0
280,-100,4,1,0,85,0,0
13446,-100,4,1,0,75,0,0
34779,-100,4,1,0,90,0,0
34946,-100,4,1,0,90,0,1
39946,-100,4,1,0,90,0,0
40279,-100,4,1,0,90,0,1
45613,-100,4,1,0,90,0,0
45946,-100,4,1,0,50,0,0
49529,-100,4,1,0,75,0,0
50863,-100,4,1,0,70,0,0
61446,-100,4,1,0,65,0,0
66196,-100,4,1,0,70,0,0
70863,-100,4,1,0,75,0,0
73529,-100,4,1,0,78,0,0
74779,-100,4,1,0,81,0,0
76196,-100,4,1,0,84,0,0
77529,-100,4,1,0,87,0,0
78696,-100,4,1,0,90,0,0
80196,-100,4,1,0,93,0,0
80296,-100,4,1,0,96,0,0
82946,-100,4,1,0,100,0,1
88279,-100,4,1,0,100,0,0
88613,-100,4,1,0,100,0,1
93279,-100,4,1,0,100,0,0
93613,-100,4,1,0,100,0,1
104279,-100,4,1,0,100,0,0
104613,-100,4,1,0,85,0,0

[HitObjects]
256,192,2613,5,0,0:0:0:0:
256,192,2946,1,4,0:0:0:0:
256,192,3446,1,4,0:0:0:0:
256,192,3780,1,0,0:0:0:0:
256,192,3946,1,0,0:0:0:0:
256,192,4113,1,0,0:0:0:0:
256,192,4196,1,2,0:0:0:0:
256,192,4280,1,0,0:0:0:0:
256,192,4780,1,4,0:0:0:0:
256,192,5113,1,0,0:0:0:0:
256,192,5279,1,2,0:0:0:0:
256,192,5613,1,4,0:0:0:0:
256,192,6113,1,4,0:0:0:0:
256,192,6446,1,0,0:0:0:0:
256,192,6613,1,2,0:0:0:0:
256,192,6779,1,0,0:0:0:0:
256,192,6863,1,2,0:0:0:0:
256,192,6946,1,0,0:0:0:0:
256,192,7279,1,2,0:0:0:0:
256,192,7446,1,0,0:0:0:0:
256,192,7529,1,0,0:0:0:0:
256,192,7613,1,2,0:0:0:0:
256,192,7696,1,0,0:0:0:0:
256,192,7779,1,2,0:0:0:0:
256,192,7863,1,2,0:0:0:0:
256,192,7946,1,0,0:0:0:0:
256,192,8029,1,2,0:0:0:0:
256,192,8113,1,2,0:0:0:0:
256,192,8196,1,2,0:0:0:0:
256,192,8279,1,0,0:0:0:0:
256,192,8529,1,0,0:0:0:0:
256,192,8613,1,2,0:0:0:0:
256,192,8779,1,0,0:0:0:0:
256,192,8863,1,2,0:0:0:0:
256,192,8946,1,0,0:0:0:0:
256,192,9113,1,2,0:0:0:0:
256,192,9196,1,0,0:0:0:0:
256,192,9279,1,0,0:0:0:0:
256,192,9446,1,0,0:0:0:0:
256,192,9529,1,2,0:0:0:0:
256,192,9696,1,2,0:0:0:0:
256,192,9779,1,0,0:0:0:0:
256,192,9863,1,0,0:0:0:0:
256,192,9946,1,2,0:0:0:0:
256,192,10113,1,0,0:0:0:0:
256,192,10196,1,2,0:0:0:0:
256,192,10280,1,0,0:0:0:0:
256,192,10446,1,2,0:0:0:0:
256,192,10530,1,2,0:0:0:0:
256,192,10613,1,0,0:0:0:0:
256,192,10780,1,0,0:0:0:0:
256,192,10863,1,2,0:0:0:0:
256,192,10946,1,0,0:0:0:0:
256,192,11030,1,0,0:0:0:0:
256,192,11113,1,2,0:0:0:0:
256,192,11196,1,0,0:0:0:0:
256,192,11280,1,2,0:0:0:0:
256,192,11363,1,0,0:0:0:0:
256,192,11446,1,2,0:0:0:0:
256,192,11530,1,2,0:0:0:0:
256,192,11613,1,2,0:0:0:0:
256,192,11696,1,0,0:0:0:0:
256,192,11780,1,2,0:0:0:0:
256,192,11863,1,0,0:0:0:0:
256,192,11946,1,2,0:0:0:0:
256,192,12030,1,0,0:0:0:0:
256,192,12113,1,0,0:0:0:0:
256,192,12196,1,2,0:0:0:0:
256,192,12280,1,0,0:0:0:0:
256,192,13113,1,6,0:0:0:0:
256,192,13280,1,6,0:0:0:0:
256,192,13613,1,4,0:0:0:0:
256,192,13946,1,0,0:0:0:0:
256,192,14113,1,2,0:0:0:0:
256,192,14280,1,0,0:0:0:0:
256,192,14363,1,2,0:0:0:0:
256,192,14530,1,2,0:0:0:0:
256,192,14613,1,0,0:0:0:0:
256,192,14780,1,2,0:0:0:0:
256,192,14946,1,0,0:0:0:0:
256,192,15196,1,2,0:0:0:0:
256,192,15280,1,0,0:0:0:0:
256,192,15446,1,2,0:0:0:0:
256,192,15613,1,0,0:0:0:0:
256,192,15696,1,2,0:0:0:0:
256,192,15780,1,2,0:0:0:0:
256,192,15863,1,0,0:0:0:0:
256,192,15946,1,2,0:0:0:0:
256,192,16113,1,0,0:0:0:0:
256,192,16196,1,2,0:0:0:0:
256,192,16280,1,0,0:0:0:0:
256,192,16335,1,0,0:0:0:0:
256,192,16391,1,0,0:0:0:0:
256,192,16613,1,0,0:0:0:0:
256,192,16780,1,2,0:0:0:0:
256,192,16946,1,0,0:0:0:0:
256,192,17113,1,2,0:0:0:0:
256,192,17196,1,2,0:0:0:0:
256,192,17280,1,0,0:0:0:0:
256,192,17446,1,2,0:0:0:0:
256,192,17613,1,0,0:0:0:0:
256,192,17696,1,0,0:0:0:0:
256,192,17780,1,2,0:0:0:0:
256,192,17946,1,0,0:0:0:0:
256,192,18113,1,2,0:0:0:0:
256,192,18280,1,0,0:0:0:0:
256,192,18446,1,2,0:0:0:0:
256,192,18613,1,0,0:0:0:0:
256,192,18696,1,2,0:0:0:0:
256,192,18780,1,2,0:0:0:0:
256,192,18946,1,6,0:0:0:0:
256,192,19280,1,4,0:0:0:0:
256,192,19446,1,2,0:0:0:0:
256,192,19613,1,0,0:0:0:0:
256,192,19780,1,0,0:0:0:0:
256,192,19863,1,2,0:0:0:0:
256,192,19946,1,0,0:0:0:0:
256,192,20030,1,0,0:0:0:0:
256,192,20113,1,2,0:0:0:0:
256,192,20280,1,0,0:0:0:0:
256,192,20335,1,0,0:0:0:0:
256,192,20391,1,0,0:0:0:0:
256,192,20446,1,2,0:0:0:0:
256,192,20613,1,0,0:0:0:0:
256,192,20780,1,2,0:0:0:0:
256,192,20863,1,2,0:0:0:0:
256,192,20946,1,0,0:0:0:0:
256,192,21113,1,0,0:0:0:0:
256,192,21196,1,2,0:0:0:0:
256,192,21280,1,2,0:0:0:0:
256,192,21363,1,0,0:0:0:0:
256,192,21446,1,2,0:0:0:0:
256,192,21530,1,2,0:0:0:0:
256,192,21613,1,0,0:0:0:0:
256,192,21668,1,0,0:0:0:0:
256,192,21724,1,0,0:0:0:0:
256,192,21946,1,0,0:0:0:0:
256,192,22113,1,2,0:0:0:0:
256,192,22196,1,0,0:0:0:0:
256,192,22280,1,0,0:0:0:0:
256,192,22446,1,2,0:0:0:0:
256,192,22530,1,2,0:0:0:0:
256,192,22613,1,0,0:0:0:0:
256,192,22696,1,0,0:0:0:0:
256,192,22780,1,2,0:0:0:0:
256,192,22946,1,0,0:0:0:0:
256,192,23113,1,2,0:0:0:0:
256,192,23196,1,0,0:0:0:0:
256,192,23280,1,0,0:0:0:0:
256,192,23363,1,2,0:0:0:0:
256,192,23530,1,0,0:0:0:0:
256,192,23613,1,0,0:0:0:0:
256,192,23696,1,2,0:0:0:0:
256,192,23780,1,0,0:0:0:0:
256,192,23863,1,0,0:0:0:0:
256,192,23946,1,2,0:0:0:0:
256,192,24280,1,4,0:0:0:0:
256,192,24613,1,0,0:0:0:0:
256,192,24780,1,2,0:0:0:0:
256,192,24946,1,0,0:0:0:0:
256,192,25113,1,0,0:0:0:0:
256,192,25196,1,2,0:0:0:0:
256,192,25280,1,0,0:0:0:0:
256,192,25363,1,0,0:0:0:0:
256,192,25446,1,2,0:0:0:0:
256,192,25613,1,0,0:0:0:0:
256,192,25780,1,0,0:0:0:0:
256,192,25863,1,2,0:0:0:0:
256,192,25946,1,0,0:0:0:0:
256,192,26113,1,0,0:0:0:0:
256,192,26196,1,2,0:0:0:0:
256,192,26363,1,2,0:0:0:0:
256,192,26446,1,0,0:0:0:0:
256,192,26530,1,0,0:0:0:0:
256,192,26613,1,2,0:0:0:0:
256,192,26780,1,2,0:0:0:0:
256,192,26863,1,2,0:0:0:0:
256,192,26946,1,0,0:0:0:0:
256,192,27280,1,0,0:0:0:0:
256,192,27446,1,2,0:0:0:0:
256,192,27530,1,2,0:0:0:0:
256,192,27613,1,0,0:0:0:0:
256,192,27780,1,0,0:0:0:0:
256,192,27863,1,2,0:0:0:0:
256,192,27946,1,2,0:0:0:0:
256,192,28030,1,0,0:0:0:0:
256,192,28113,1,2,0:0:0:0:
256,192,28280,1,0,0:0:0:0:
256,192,28446,1,2,0:0:0:0:
256,192,28780,1,2,0:0:0:0:
256,192,28946,1,0,0:0:0:0:
256,192,29113,1,0,0:0:0:0:
256,192,29196,1,2,0:0:0:0:
256,192,29280,1,0,0:0:0:0:
256,192,29363,1,2,0:0:0:0:
256,192,29446,1,2,0:0:0:0:
256,192,29613,1,2,0:0:0:0:
256,192,29696,1,2,0:0:0:0:
256,192,29780,1,2,0:0:0:0:
256,192,29863,1,2,0:0:0:0:
256,192,29946,1,0,0:0:0:0:
256,192,30113,1,2,0:0:0:0:
256,192,30280,1,0,0:0:0:0:
256,192,30446,1,2,0:0:0:0:
256,192,30530,1,2,0:0:0:0:
256,192,30613,1,0,0:0:0:0:
256,192,30780,1,0,0:0:0:0:
256,192,30863,1,2,0:0:0:0:
256,192,30946,1,0,0:0:0:0:
256,192,31030,1,0,0:0:0:0:
256,192,31113,1,2,0:0:0:0:
256,192,31280,1,0,0:0:0:0:
256,192,31446,1,2,0:0:0:0:
256,192,31613,1,0,0:0:0:0:
256,192,31779,1,2,0:0:0:0:
256,192,31863,1,2,0:0:0:0:
256,192,31946,1,0,0:0:0:0:
256,192,32029,1,0,0:0:0:0:
256,192,32113,1,2,0:0:0:0:
256,192,32196,1,2,0:0:0:0:
256,192,32279,1,0,0:0:0:0:
256,192,32529,1,0,0:0:0:0:
256,192,32613,1,2,0:0:0:0:
256,192,32780,1,4,0:0:0:0:
256,192,32946,1,2,0:0:0:0:
256,192,33030,1,2,0:0:0:0:
256,192,33113,1,0,0:0:0:0:
256,192,33280,1,6,0:0:0:0:
256,192,33446,1,0,0:0:0:0:
256,192,33530,1,2,0:0:0:0:
256,192,33613,1,0,0:0:0:0:
256,192,33780,1,2,0:0:0:0:
256,192,33946,1,2,0:0:0:0:
256,192,34030,1,2,0:0:0:0:
256,192,34113,1,0,0:0:0:0:
256,192,34196,1,0,0:0:0:0:
256,192,34280,1,2,0:0:0:0:
256,192,34446,1,0,0:0:0:0:
256,192,34613,1,6,0:0:0:0:
256,192,34946,1,4,0:0:0:0:
256,192,35280,1,0,0:0:0:0:
256,192,35446,1,2,0:0:0:0:
256,192,35613,1,0,0:0:0:0:
256,192,35696,1,2,0:0:0:0:
256,192,35863,1,2,0:0:0:0:
256,192,35946,1,0,0:0:0:0:
256,192,36030,1,0,0:0:0:0:
256,192,36113,1,2,0:0:0:0:
256,192,36196,1,0,0:0:0:0:
256,192,36280,1,0,0:0:0:0:
256,192,36446,1,0,0:0:0:0:
256,192,36530,1,2,0:0:0:0:
256,192,36613,1,0,0:0:0:0:
256,192,36780,1,2,0:0:0:0:
256,192,36863,1,0,0:0:0:0:
256,192,37030,1,0,0:0:0:0:
256,192,37113,1,2,0:0:0:0:
256,192,37196,1,2,0:0:0:0:
256,192,37280,1,0,0:0:0:0:
256,192,37446,1,0,0:0:0:0:
256,192,37530,1,2,0:0:0:0:
256,192,37613,1,0,0:0:0:0:
256,192,37780,1,0,0:0:0:0:
256,192,37863,1,0,0:0:0:0:
256,192,37946,1,2,0:0:0:0:
256,192,38113,1,0,0:0:0:0:
256,192,38280,1,2,0:0:0:0:
256,192,38363,1,0,0:0:0:0:
256,192,38530,1,0,0:0:0:0:
256,192,38613,1,2,0:0:0:0:
256,192,38696,1,0,0:0:0:0:
256,192,38780,1,0,0:0:0:0:
256,192,38863,1,2,0:0:0:0:
256,192,38946,1,0,0:0:0:0:
256,192,39030,1,0,0:0:0:0:
256,192,39113,1,2,0:0:0:0:
256,192,39196,1,2,0:0:0:0:
256,192,39280,1,0,0:0:0:0:
256,192,39446,1,0,0:0:0:0:
256,192,39530,1,2,0:0:0:0:
256,192,39696,1,2,0:0:0:0:
256,192,39780,1,0,0:0:0:0:
256,192,39863,1,0,0:0:0:0:
256,192,39946,1,2,0:0:0:0:
256,192,40113,1,0,0:0:0:0:
256,192,40196,1,2,0:0:0:0:
256,192,40280,1,0,0:0:0:0:
256,192,40613,1,0,0:0:0:0:
256,192,40780,1,2,0:0:0:0:
256,192,40946,1,0,0:0:0:0:
256,192,41113,1,0,0:0:0:0:
256,192,41196,1,2,0:0:0:0:
256,192,41280,1,2,0:0:0:0:
256,192,41363,1,0,0:0:0:0:
256,192,41446,1,2,0:0:0:0:
256,192,41613,1,0,0:0:0:0:
256,192,41780,1,2,0:0:0:0:
256,192,41863,1,2,0:0:0:0:
256,192,41946,1,0,0:0:0:0:
256,192,42113,1,0,0:0:0:0:
256,192,42196,1,2,0:0:0:0:
256,192,42363,1,2,0:0:0:0:
256,192,42446,1,0,0:0:0:0:
256,192,42530,1,0,0:0:0:0:
256,192,42613,1,2,0:0:0:0:
256,192,42780,1,0,0:0:0:0:
256,192,42863,1,2,0:0:0:0:
256,192,42946,1,0,0:0:0:0:
256,192,43196,1,0,0:0:0:0:
256,192,43280,1,2,0:0:0:0:
256,192,43446,1,0,0:0:0:0:
256,192,43613,1,2,0:0:0:0:
256,192,43780,1,0,0:0:0:0:
256,192,43863,1,0,0:0:0:0:
256,192,43946,1,2,0:0:0:0:
256,192,44113,1,0,0:0:0:0:
256,192,44196,1,2,0:0:0:0:
256,192,44280,1,0,0:0:0:0:
256,192,44446,1,2,0:0:0:0:
256,192,44530,1,0,0:0:0:0:
256,192,44613,1,2,0:0:0:0:
256,192,44696,1,2,0:0:0:0:
256,192,44780,1,0,0:0:0:0:
256,192,44863,1,2,0:0:0:0:
256,192,44946,1,0,0:0:0:0:
256,192,45030,1,2,0:0:0:0:
256,192,45113,1,2,0:0:0:0:
256,192,45196,1,2,0:0:0:0:
256,192,45280,1,0,0:0:0:0:
256,192,45363,1,0,0:0:0:0:
256,192,45446,1,2,0:0:0:0:
256,192,45530,1,2,0:0:0:0:
256,192,45613,1,0,0:0:0:0:
256,192,46113,1,0,0:0:0:0:
256,192,46280,1,2,0:0:0:0:
256,192,46613,1,0,0:0:0:0:
256,192,47113,1,0,0:0:0:0:
256,192,47446,1,2,0:0:0:0:
256,192,47613,1,2,0:0:0:0:
256,192,47946,1,0,0:0:0:0:
256,192,48280,1,0,0:0:0:0:
256,192,48780,1,0,0:0:0:0:
256,192,48946,1,2,0:0:0:0:
256,192,49280,1,0,0:0:0:0:
256,192,49446,1,2,0:0:0:0:
256,192,49613,1,4,0:0:0:0:
256,192,49946,1,2,0:0:0:0:
256,192,50030,1,2,0:0:0:0:
256,192,50113,1,2,0:0:0:0:
256,192,50280,1,2,0:0:0:0:
256,192,50446,1,2,0:0:0:0:
256,192,50613,1,4,0:0:0:0:
256,192,50780,1,2,0:0:0:0:
256,192,50946,1,4,0:0:0:0:
256,192,51280,1,2,0:0:0:0:
256,192,51446,1,0,0:0:0:0:
256,192,51613,1,2,0:0:0:0:
256,192,51946,1,0,0:0:0:0:
256,192,52113,1,2,0:0:0:0:
256,192,52446,1,2,0:0:0:0:
256,192,52613,1,0,0:0:0:0:
256,192,52780,1,2,0:0:0:0:
256,192,52946,1,2,0:0:0:0:
256,192,53280,1,4,0:0:0:0:
256,192,53613,1,0,0:0:0:0:
256,192,53946,1,2,0:0:0:0:
256,192,54030,1,2,0:0:0:0:
256,192,54113,1,0,0:0:0:0:
256,192,54196,1,0,0:0:0:0:
256,192,54280,1,2,0:0:0:0:
256,192,54446,1,2,0:0:0:0:
256,192,54780,1,2,0:0:0:0:
256,192,54946,1,0,0:0:0:0:
256,192,55113,1,2,0:0:0:0:
256,192,55280,1,2,0:0:0:0:
256,192,55446,1,0,0:0:0:0:
256,192,55613,1,2,0:0:0:0:
256,192,55780,1,2,0:0:0:0:
256,192,55946,1,6,0:0:0:0:
256,192,56280,1,0,0:0:0:0:
256,192,56613,1,2,0:0:0:0:
256,192,56780,1,0,0:0:0:0:
256,192,56946,1,2,0:0:0:0:
256,192,57113,1,2,0:0:0:0:
256,192,57446,1,0,0:0:0:0:
256,192,57780,1,0,0:0:0:0:
256,192,57946,1,2,0:0:0:0:
256,192,58113,1,2,0:0:0:0:
256,192,58280,1,0,0:0:0:0:
256,192,58613,1,2,0:0:0:0:
256,192,58946,1,0,0:0:0:0:
256,192,59446,1,0,0:0:0:0:
256,192,59613,1,2,0:0:0:0:
256,192,59946,1,0,0:0:0:0:
256,192,60280,1,6,0:0:0:0:
256,192,60613,1,6,0:0:0:0:
256,192,60946,1,6,0:0:0:0:
256,192,61280,1,2,0:0:0:0:
256,192,61613,1,4,0:0:0:0:
256,192,61946,1,0,0:0:0:0:
256,192,62280,1,0,0:0:0:0:
256,192,62613,1,0,0:0:0:0:
256,192,62946,1,0,0:0:0:0:
256,192,63113,1,2,0:0:0:0:
256,192,63280,1,0,0:0:0:0:
256,192,63613,1,0,0:0:0:0:
256,192,63780,1,2,0:0:0:0:
256,192,63946,1,0,0:0:0:0:
256,192,64113,1,2,0:0:0:0:
256,192,64196,1,2,0:0:0:0:
256,192,64280,1,0,0:0:0:0:
256,192,64613,1,0,0:0:0:0:
256,192,64780,1,0,0:0:0:0:
256,192,64863,1,0,0:0:0:0:
256,192,64946,1,2,0:0:0:0:
256,192,65113,1,0,0:0:0:0:
256,192,65280,1,2,0:0:0:0:
256,192,65363,1,2,0:0:0:0:
256,192,65446,1,0,0:0:0:0:
256,192,65613,1,4,0:0:0:0:
256,192,65863,1,2,0:0:0:0:
256,192,65946,1,0,0:0:0:0:
256,192,66113,1,2,0:0:0:0:
256,192,66280,1,0,0:0:0:0:
256,192,66446,1,0,0:0:0:0:
256,192,66530,1,2,0:0:0:0:
256,192,66613,1,0,0:0:0:0:
256,192,66780,1,6,0:0:0:0:
256,192,66946,1,0,0:0:0:0:
256,192,67280,1,0,0:0:0:0:
256,192,67446,1,2,0:0:0:0:
256,192,67613,1,0,0:0:0:0:
256,192,67780,1,0,0:0:0:0:
256,192,67863,1,2,0:0:0:0:
256,192,67946,1,0,0:0:0:0:
256,192,68030,1,0,0:0:0:0:
256,192,68113,1,2,0:0:0:0:
256,192,68280,1,0,0:0:0:0:
256,192,68446,1,2,0:0:0:0:
256,192,68530,1,2,0:0:0:0:
256,192,68613,1,0,0:0:0:0:
256,192,68779,1,0,0:0:0:0:
256,192,68863,1,2,0:0:0:0:
256,192,68946,1,2,0:0:0:0:
256,192,69029,1,0,0:0:0:0:
256,192,69113,1,2,0:0:0:0:
256,192,69279,1,0,0:0:0:0:
256,192,69446,1,2,0:0:0:0:
256,192,69502,1,2,0:0:0:0:
256,192,69557,1,2,0:0:0:0:
256,192,69613,1,0,0:0:0:0:
256,192,69779,1,0,0:0:0:0:
256,192,69863,1,2,0:0:0:0:
256,192,69946,1,0,0:0:0:0:
256,192,70113,1,0,0:0:0:0:
256,192,70196,1,2,0:0:0:0:
256,192,70279,1,2,0:0:0:0:
256,192,70363,1,0,0:0:0:0:
256,192,70446,1,2,0:0:0:0:
256,192,70529,1,0,0:0:0:0:
256,192,70613,1,2,0:0:0:0:
256,192,70696,1,2,0:0:0:0:
256,192,70779,1,0,0:0:0:0:
256,192,70946,1,0,0:0:0:0:
256,192,71113,1,2,0:0:0:0:
256,192,71196,1,0,0:0:0:0:
256,192,71279,1,0,0:0:0:0:
256,192,71363,1,2,0:0:0:0:
256,192,71446,1,0,0:0:0:0:
256,192,71529,1,0,0:0:0:0:
256,192,71613,1,2,0:0:0:0:
256,192,71779,1,0,0:0:0:0:
256,192,71863,1,2,0:0:0:0:
256,192,71946,1,0,0:0:0:0:
256,192,72029,1,2,0:0:0:0:
256,192,72113,1,2,0:0:0:0:
256,192,72196,1,2,0:0:0:0:
256,192,72279,1,0,0:0:0:0:
256,192,72613,1,0,0:0:0:0:
256,192,72946,1,0,0:0:0:0:
256,192,73113,1,0,0:0:0:0:
256,192,73279,1,2,0:0:0:0:
256,192,73446,1,0,0:0:0:0:
256,192,73529,1,2,0:0:0:0:
256,192,73613,1,0,0:0:0:0:
256,192,73946,1,0,0:0:0:0:
256,192,74196,1,0,0:0:0:0:
256,192,74279,1,2,0:0:0:0:
256,192,74363,1,2,0:0:0:0:
256,192,74446,1,0,0:0:0:0:
256,192,74613,1,2,0:0:0:0:
256,192,74946,1,0,0:0:0:0:
256,192,75279,1,0,0:0:0:0:
256,192,75446,1,2,0:0:0:0:
256,192,75529,1,2,0:0:0:0:
256,192,75613,1,0,0:0:0:0:
256,192,75779,1,0,0:0:0:0:
256,192,75946,1,2,0:0:0:0:
256,192,76113,1,0,0:0:0:0:
256,192,76196,1,2,0:0:0:0:
256,192,76279,1,0,0:0:0:0:
256,192,76529,1,0,0:0:0:0:
256,192,76613,1,2,0:0:0:0:
256,192,76779,1,2,0:0:0:0:
256,192,76863,1,2,0:0:0:0:
256,192,76946,1,0,0:0:0:0:
256,192,77029,1,0,0:0:0:0:
256,192,77113,1,2,0:0:0:0:
256,192,77279,1,0,0:0:0:0:
256,192,77446,1,6,0:0:0:0:
256,192,77613,1,0,0:0:0:0:
256,192,77863,1,0,0:0:0:0:
256,192,77946,1,2,0:0:0:0:
256,192,78113,1,0,0:0:0:0:
256,192,78196,1,2,0:0:0:0:
256,192,78279,1,0,0:0:0:0:
256,192,78446,1,2,0:0:0:0:
256,192,78529,1,0,0:0:0:0:
256,192,78613,1,0,0:0:0:0:
256,192,78696,1,2,0:0:0:0:
256,192,78779,1,0,0:0:0:0:
256,192,78946,1,0,0:0:0:0:
256,192,79029,1,2,0:0:0:0:
256,192,79113,1,0,0:0:0:0:
256,192,79196,1,0,0:0:0:0:
256,192,79279,1,2,0:0:0:0:
256,192,79446,1,0,0:0:0:0:
256,192,79529,1,2,0:0:0:0:
256,192,79696,1,2,0:0:0:0:
256,192,79779,1,0,0:0:0:0:
256,192,79863,1,0,0:0:0:0:
256,192,79946,1,2,0:0:0:0:
256,192,80113,1,0,0:0:0:0:
256,192,80196,1,2,0:0:0:0:
256,192,80279,1,0,0:0:0:0:
256,192,80446,1,0,0:0:0:0:
256,192,80529,1,0,0:0:0:0:
256,192,80613,1,2,0:0:0:0:
256,192,80779,1,0,0:0:0:0:
256,192,80863,1,2,0:0:0:0:
256,192,80946,1,2,0:0:0:0:
256,192,81029,1,0,0:0:0:0:
256,192,81113,1,2,0:0:0:0:
256,192,81196,1,2,0:0:0:0:
256,192,81279,1,0,0:0:0:0:
256,192,81446,1,2,0:0:0:0:
256,192,81613,1,2,0:0:0:0:
256,192,81696,1,2,0:0:0:0:
256,192,81779,1,2,0:0:0:0:
256,192,81863,1,2,0:0:0:0:
256,192,81946,1,2,0:0:0:0:
256,192,82029,1,2,0:0:0:0:
256,192,82113,1,2,0:0:0:0:
256,192,82196,1,2,0:0:0:0:
256,192,82279,1,2,0:0:0:0:
256,192,82446,1,0,0:0:0:0:
256,192,82613,1,2,0:0:0:0:
256,192,82946,1,4,0:0:0:0:
256,192,83279,1,0,0:0:0:0:
256,192,83446,1,2,0:0:0:0:
256,192,83529,1,2,0:0:0:0:
256,192,83613,1,0,0:0:0:0:
256,192,83696,1,2,0:0:0:0:
256,192,83863,1,0,0:0:0:0:
256,192,83946,1,2,0:0:0:0:
256,192,84029,1,2,0:0:0:0:
256,192,84113,1,0,0:0:0:0:
256,192,84196,1,2,0:0:0:0:
256,192,84279,1,0,0:0:0:0:
256,192,84363,1,0,0:0:0:0:
256,192,84446,1,2,0:0:0:0:
256,192,84529,1,2,0:0:0:0:
256,192,84613,1,0,0:0:0:0:
256,192,84779,1,0,0:0:0:0:
256,192,84863,1,2,0:0:0:0:
256,192,85029,1,2,0:0:0:0:
256,192,85113,1,0,0:0:0:0:
256,192,85196,1,0,0:0:0:0:
256,192,85279,1,2,0:0:0:0:
256,192,85363,1,2,0:0:0:0:
256,192,85446,1,0,0:0:0:0:
256,192,85529,1,2,0:0:0:0:
256,192,85613,1,0,0:0:0:0:
256,192,85779,1,0,0:0:0:0:
256,192,85863,1,0,0:0:0:0:
256,192,85946,1,2,0:0:0:0:
256,192,86029,1,0,0:0:0:0:
256,192,86113,1,2,0:0:0:0:
256,192,86279,1,0,0:0:0:0:
256,192,86363,1,2,0:0:0:0:
256,192,86529,1,0,0:0:0:0:
256,192,86613,1,2,0:0:0:0:
256,192,86696,1,0,0:0:0:0:
256,192,86779,1,0,0:0:0:0:
256,192,86863,1,2,0:0:0:0:
256,192,86946,1,0,0:0:0:0:
256,192,87029,1,0,0:0:0:0:
256,192,87113,1,2,0:0:0:0:
256,192,87196,1,2,0:0:0:0:
256,192,87279,1,0,0:0:0:0:
256,192,87446,1,0,0:0:0:0:
256,192,87529,1,2,0:0:0:0:
256,192,87613,1,0,0:0:0:0:
256,192,87779,1,2,0:0:0:0:
256,192,87946,1,0,0:0:0:0:
256,192,88029,1,2,0:0:0:0:
256,192,88113,1,2,0:0:0:0:
256,192,88279,1,6,0:0:0:0:
256,192,88613,1,4,0:0:0:0:
256,192,88779,1,2,0:0:0:0:
256,192,88946,1,0,0:0:0:0:
256,192,89113,1,0,0:0:0:0:
256,192,89196,1,2,0:0:0:0:
256,192,89279,1,2,0:0:0:0:
256,192,89363,1,0,0:0:0:0:
256,192,89446,1,2,0:0:0:0:
256,192,89529,1,2,0:0:0:0:
256,192,89613,1,0,0:0:0:0:
256,192,89696,1,0,0:0:0:0:
256,192,89779,1,2,0:0:0:0:
256,192,89863,1,2,0:0:0:0:
256,192,89946,1,0,0:0:0:0:
256,192,90113,1,0,0:0:0:0:
256,192,90196,1,2,0:0:0:0:
256,192,90363,1,2,0:0:0:0:
256,192,90446,1,0,0:0:0:0:
256,192,90529,1,0,0:0:0:0:
256,192,90613,1,2,0:0:0:0:
256,192,90779,1,0,0:0:0:0:
256,192,90863,1,2,0:0:0:0:
256,192,90946,1,0,0:0:0:0:
256,192,91196,1,0,0:0:0:0:
256,192,91279,1,2,0:0:0:0:
256,192,91446,1,0,0:0:0:0:
256,192,91529,1,0,0:0:0:0:
256,192,91613,1,2,0:0:0:0:
256,192,91696,1,2,0:0:0:0:
256,192,91779,1,0,0:0:0:0:
256,192,91863,1,2,0:0:0:0:
256,192,91946,1,0,0:0:0:0:
256,192,92029,1,2,0:0:0:0:
256,192,92113,1,2,0:0:0:0:
256,192,92279,1,0,0:0:0:0:
256,192,92446,1,2,0:0:0:0:
256,192,92529,1,0,0:0:0:0:
256,192,92613,1,2,0:0:0:0:
256,192,92779,1,0,0:0:0:0:
256,192,92863,1,2,0:0:0:0:
256,192,92946,1,2,0:0:0:0:
256,192,93029,1,0,0:0:0:0:
256,192,93113,1,2,0:0:0:0:
256,192,93279,1,2,0:0:0:0:
256,192,93613,1,4,0:0:0:0:
256,192,93779,1,0,0:0:0:0:
256,192,93863,1,0,0:0:0:0:
256,192,93946,1,2,0:0:0:0:
256,192,94113,1,0,0:0:0:0:
256,192,94196,1,2,0:0:0:0:
256,192,94279,1,2,0:0:0:0:
256,192,94363,1,0,0:0:0:0:
256,192,94446,1,2,0:0:0:0:
256,192,94529,1,0,0:0:0:0:
256,192,94696,1,0,0:0:0:0:
256,192,94779,1,2,0:0:0:0:
256,192,94863,1,2,0:0:0:0:
256,192,95029,1,2,0:0:0:0:
256,192,95113,1,0,0:0:0:0:
256,192,95279,1,2,0:0:0:0:
256,192,95446,1,0,0:0:0:0:
256,192,95529,1,0,0:0:0:0:
256,192,95613,1,2,0:0:0:0:
256,192,95696,1,0,0:0:0:0:
256,192,95779,1,2,0:0:0:0:
256,192,95863,1,2,0:0:0:0:
256,192,95946,1,0,0:0:0:0:
256,192,96029,1,2,0:0:0:0:
256,192,96113,1,2,0:0:0:0:
256,192,96196,1,2,0:0:0:0:
256,192,96279,1,0,0:0:0:0:
256,192,96363,1,0,0:0:0:0:
256,192,96446,1,2,0:0:0:0:
256,192,96613,1,2,0:0:0:0:
256,192,96779,1,2,0:0:0:0:
256,192,96863,1,2,0:0:0:0:
256,192,96946,1,0,0:0:0:0:
256,192,97029,1,2,0:0:0:0:
256,192,97113,1,0,0:0:0:0:
256,192,97279,1,0,0:0:0:0:
256,192,97446,1,0,0:0:0:0:
256,192,97529,1,2,0:0:0:0:
256,192,97696,1,0,0:0:0:0:
256,192,97779,1,2,0:0:0:0:
256,192,97863,1,0,0:0:0:0:
256,192,97946,1,0,0:0:0:0:
256,192,98113,1,2,0:0:0:0:
256,192,98196,1,2,0:0:0:0:
256,192,98279,1,0,0:0:0:0:
256,192,98446,1,0,0:0:0:0:
256,192,98529,1,2,0:0:0:0:
256,192,98613,1,0,0:0:0:0:
256,192,98696,1,2,0:0:0:0:
256,192,98779,1,2,0:0:0:0:
256,192,98863,1,2,0:0:0:0:
256,192,98946,1,0,0:0:0:0:
256,192,99029,1,2,0:0:0:0:
256,192,99113,1,0,0:0:0:0:
256,192,99196,1,2,0:0:0:0:
256,192,99279,1,2,0:0:0:0:
256,192,99446,1,0,0:0:0:0:
256,192,99529,1,2,0:0:0:0:
256,192,99696,1,2,0:0:0:0:
256,192,99779,1,0,0:0:0:0:
256,192,99863,1,0,0:0:0:0:
256,192,99946,1,2,0:0:0:0:
256,192,100113,1,0,0:0:0:0:
256,192,100196,1,2,0:0:0:0:
256,192,100279,1,0,0:0:0:0:
256,192,100446,1,0,0:0:0:0:
256,192,100529,1,0,0:0:0:0:
256,192,100613,1,2,0:0:0:0:
256,192,100779,1,0,0:0:0:0:
256,192,100863,1,2,0:0:0:0:
256,192,101029,1,2,0:0:0:0:
256,192,101113,1,2,0:0:0:0:
256,192,101196,1,0,0:0:0:0:
256,192,101279,1,2,0:0:0:0:
256,192,101446,1,0,0:0:0:0:
256,192,101529,1,2,0:0:0:0:
256,192,101613,1,0,0:0:0:0:
256,192,101696,1,2,0:0:0:0:
256,192,101779,1,2,0:0:0:0:
256,192,101863,1,2,0:0:0:0:
256,192,101946,1,0,0:0:0:0:
256,192,102029,1,2,0:0:0:0:
256,192,102113,1,0,0:0:0:0:
256,192,102196,1,0,0:0:0:0:
256,192,102279,1,2,0:0:0:0:
256,192,102363,1,2,0:0:0:0:
256,192,102446,1,0,0:0:0:0:
256,192,102529,1,2,0:0:0:0:
256,192,102613,1,0,0:0:0:0:
256,192,102779,1,2,0:0:0:0:
256,192,102863,1,2,0:0:0:0:
256,192,102946,1,0,0:0:0:0:
256,192,103029,1,2,0:0:0:0:
256,192,103113,1,2,0:0:0:0:
256,192,103196,1,0,0:0:0:0:
256,192,103279,1,0,0:0:0:0:
256,192,103363,1,2,0:0:0:0:
256,192,103446,1,0,0:0:0:0:
256,192,103529,1,2,0:0:0:0:
256,192,103613,1,0,0:0:0:0:
256,192,103696,1,2,0:0:0:0:
256,192,103779,1,2,0:0:0:0:
256,192,103863,1,2,0:0:0:0:
256,192,103946,1,0,0:0:0:0:
256,192,104029,1,0,0:0:0:0:
256,192,104113,1,2,0:0:0:0:
256,192,104196,1,2,0:0:0:0:
256,192,104279,1,0,0:0:0:0:
256,192,104779,1,4,0:0:0:0:
256,192,105113,1,0,0:0:0:0:
256,192,105279,1,2,0:0:0:0:
256,192,105363,1,0,0:0:0:0:
256,192,105446,1,0,0:0:0:0:
256,192,105529,1,2,0:0:0:0:
256,192,105613,1,0,0:0:0:0:
256,192,106113,1,4,0:0:0:0:
256,192,106446,1,0,0:0:0:0:
256,192,106529,1,0,0:0:0:0:
256,192,106613,1,2,0:0:0:0:
256,192,106946,1,4,0:0:0:0:
256,192,107446,1,4,0:0:0:0:
256,192,107779,1,0,0:0:0:0:
256,192,107946,1,2,0:0:0:0:
256,192,108029,1,2,0:0:0:0:
256,192,108113,1,0,0:0:0:0:
256,192,108196,1,2,0:0:0:0:
256,192,108279,1,0,0:0:0:0:
256,192,108613,1,2,0:0:0:0:
256,192,108779,1,0,0:0:0:0:
256,192,108863,1,0,0:0:0:0:
256,192,108946,1,2,0:0:0:0:
256,192,109029,1,2,0:0:0:0:
256,192,109113,1,2,0:0:0:0:
256,192,109196,1,0,0:0:0:0:
256,192,109279,1,2,0:0:0:0:
256,192,109363,1,2,0:0:0:0:
256,192,109446,1,0,0:0:0:0:
256,192,109529,1,2,0:0:0:0:
256,192,109613,1,0,0:0:0:0:
256,192,109863,1,0,0:0:0:0:
256,192,109946,1,2,0:0:0:0:
256,192,110113,1,0,0:0:0:0:
256,192,110196,1,2,0:0:0:0:
256,192,110279,1,0,0:0:0:0:
256,192,110363,1,0,0:0:0:0:
256,192,110446,1,2,0:0:0:0:
256,192,110613,1,0,0:0:0:0:
256,192,110779,1,0,0:0:0:0:
256,192,110863,1,2,0:0:0:0:
256,192,111029,1,2,0:0:0:0:
256,192,111113,1,0,0:0:0:0:
256,192,111196,1,0,0:0:0:0:
256,192,111279,1,2,0:0:0:0:
256,192,111446,1,0,0:0:0:0:
256,192,111529,1,2,0:0:0:0:
256,192,111613,1,0,0:0:0:0:
256,192,111696,1,2,0:0:0:0:
256,192,111779,1,2,0:0:0:0:
256,192,111863,1,0,0:0:0:0:
256,192,111946,1,0,0:0:0:0:
256,192,112113,1,0,0:0:0:0:
256,192,112196,1,2,0:0:0:0:
256,192,112279,1,0,0:0:0:0:
256,192,112613,1,2,0:0:0:0:
256,192,112779,1,2,0:0:0:0:
256,192,112946,1,0,0:0:0:0:
256,192,113113,1,2,0:0:0:0:
256,192,113279,1,0,0:0:0:0:
256,192,113446,1,2,0:0:0:0:
256,192,113779,1,2,0:0:0:0:
256,192,113946,1,2,0:0:0:0:
256,192,114279,1,2,0:0:0:0:
256,192,114613,1,6,0:0:0:0:
