osu file format v14

[General]
AudioFilename: FKS.mp3
AudioLeadIn: 0
PreviewTime: 67816
Countdown: 0
SampleSet: Normal
StackLeniency: 0.2
Mode: 0
LetterboxInBreaks: 0
WidescreenStoryboard: 1

[Editor]
Bookmarks: 9438,30194,44465,48356,56140
DistanceSpacing: 0.8
BeatDivisor: 6
GridSize: 4
TimelineZoom: 2.3

[Metadata]
Title:F.K.S.
TitleUnicode:F.K.S.
Artist:Nizikawa
ArtistUnicode:Nizikawa
Creator:Yauxo
Version:EXTREME
Source:SOUND VOLTEX III GRAVITY WARS
Tags:fks sdvx sdvx3
BeatmapID:652948
BeatmapSetID:289714

[Difficulty]
HPDrainRate:6.5
CircleSize:4.3
OverallDifficulty:8.5
ApproachRate:9.5
SliderMultiplier:1.8
SliderTickRate:1

[Events]
//Background and Video events
0,0,"301 - ziC0MY2.jpg",0,0
//Break Periods
//Storyboard Layer 0 (Background)
//Storyboard Layer 1 (Fail)
//Storyboard Layer 2 (Pass)
//Storyboard Layer 3 (Foreground)
//Storyboard Sound Samples

[TimingPoints]
357,324.324324324324,4,1,22,80,1,0
3924,-83.3333333333333,4,1,22,80,0,0
4194,-83.3333333333333,4,1,22,5,0,0
4248,-100,4,1,22,80,0,0
9113,-83.3333333333333,4,1,22,80,0,0
9438,-100,4,1,22,80,0,0
13897,-100,4,1,22,5,0,0
13978,-100,4,1,22,80,0,0
17465,-100,4,1,22,5,0,0
17546,-100,4,1,22,80,0,0
19086,-100,4,1,22,5,0,0
19167,-100,4,1,22,80,0,0
19329,-66.6666666666667,4,1,22,80,0,0
19492,-83.3333333333333,4,1,22,80,0,0
19735,-83.3333333333333,4,1,22,5,0,0
19816,-100,4,1,22,80,0,0
19816,-100,4,1,22,80,0,0
30843,-83.3333333333333,4,1,22,80,0,0
31492,-100,4,1,22,80,0,0
32140,-83.3333333333333,4,1,22,80,0,0
32789,-100,4,1,22,80,0,0
39275,-125,4,1,22,80,0,0
39843,-125,4,1,22,5,0,0
39924,-83.3333333333333,4,1,22,80,0,0
40167,-83.3333333333333,4,1,22,5,0,0
40248,-71.4285714285714,4,1,22,80,0,0
40492,-71.4285714285714,4,1,22,5,0,0
40573,-100,4,1,22,80,0,0
42843,-83.3333333333333,4,1,22,80,0,0
43086,-83.3333333333333,4,1,22,5,0,0
43167,-100,4,1,22,80,0,0
44735,-100,4,1,22,5,0,0
44789,-100,4,1,22,80,0,0
45059,-100,4,1,22,5,0,0
45113,-100,4,1,22,80,0,0
45600,-100,4,1,22,5,0,0
45654,-100,4,1,22,80,0,0
46248,-100,4,1,22,5,0,0
46302,-100,4,1,22,80,0,0
46573,-100,4,1,22,5,0,0
46627,-100,4,1,22,80,0,0
47654,-100,4,1,22,5,0,0
47708,-100,4,1,22,80,0,0
48302,-100,4,1,22,5,0,0
48356,-100,4,1,22,80,0,0
56465,-100,4,1,22,5,0,0
56546,-100,4,1,22,80,0,0
57113,-100,4,1,22,5,0,0
57194,-100,4,1,22,80,0,0
58411,-83.3333333333333,4,1,22,80,0,0
58654,-83.3333333333333,4,1,22,5,0,0
58735,-100,4,1,22,80,0,0
60275,-100,4,1,22,5,0,0
60356,-100,4,1,22,80,0,0
65465,-100,4,1,22,5,0,0
65546,-100,4,1,22,80,0,0
67816,-133.333333333333,4,1,22,80,0,0
68789,-83.3333333333333,4,1,22,80,0,0
69032,-83.3333333333333,4,1,22,5,0,0
69113,-100,4,1,22,80,0,0
73573,-100,4,1,22,5,0,0
73654,-100,4,1,22,80,0,0
75600,-83.3333333333333,4,1,22,80,0,0
75762,-83.3333333333333,4,1,22,5,0,0
75843,-83.3333333333333,4,1,22,80,0,0
76005,-83.3333333333333,4,1,22,5,0,0
76086,-100,4,1,22,80,0,0
76248,-100,4,1,22,5,0,0
76329,-100,4,1,22,80,0,0
76492,-100,4,1,22,5,0,0
76573,-83.3333333333333,4,1,22,80,0,0
76654,-83.3333333333333,4,1,22,5,0,0
76735,-83.3333333333333,4,1,22,80,0,0
76816,-83.3333333333333,4,1,22,5,0,0
76897,-100,4,1,22,80,0,0
79208,-100,4,1,22,5,0,0
79492,-100,4,1,22,80,0,0
83951,-100,4,1,22,5,0,0
84032,-100,4,1,22,80,0,0
87438,-83.3333333333333,4,1,22,80,0,0
87600,-83.3333333333333,4,1,22,5,0,0
87681,-83.3333333333333,4,1,22,80,0,0
87843,-83.3333333333333,4,1,22,5,0,0
87924,-83.3333333333333,4,1,22,80,0,0
88086,-83.3333333333333,4,1,22,5,0,0
88167,-83.3333333333333,4,1,22,80,0,0
88329,-83.3333333333333,4,1,22,5,0,0
88411,-83.3333333333333,4,1,22,80,0,0
88573,-83.3333333333333,4,1,22,5,0,0
88654,-83.3333333333333,4,1,22,80,0,0
88816,-83.3333333333333,4,1,22,5,0,0
88897,-83.3333333333333,4,1,22,80,0,0
89059,-83.3333333333333,4,1,22,5,0,0
89140,-83.3333333333333,4,1,22,80,0,0
89302,-83.3333333333333,4,1,22,5,0,0
89384,-83.3333333333333,4,1,22,80,0,0
89546,-83.3333333333333,4,1,22,5,0,0
89627,-83.3333333333333,4,1,22,80,0,0
89708,-100,4,1,22,80,0,0
92140,-83.3333333333333,4,1,22,80,0,0
92384,-83.3333333333333,4,1,22,5,0,0
92465,-100,4,1,22,80,0,0
94329,-100,4,1,22,5,0,0
94411,-100,4,1,22,80,0,0
97654,-125,4,1,22,80,0,0
98951,-100,4,1,22,80,0,0
99924,-83.3333333333333,4,1,22,80,0,0
100167,-83.3333333333333,4,1,22,5,0,0
100248,-100,4,1,22,80,0,0
101221,-83.3333333333333,4,1,22,80,0,0
101465,-83.3333333333333,4,1,22,5,0,0
101546,-100,4,1,22,80,0,0

[Colours]
Combo1 : 101,82,177
Combo2 : 128,0,64

[HitObjects]
44,176,2951,5,0,1:0:0:0:
80,168,3059,1,0,1:0:0:0:
132,108,3167,5,0,1:0:0:0:
168,116,3275,1,0,1:0:0:0:
220,176,3384,5,0,1:0:0:0:
256,168,3492,1,0,1:0:0:0:
308,108,3600,5,0,1:0:0:0:
344,116,3708,1,0,1:0:0:0:
396,176,3816,5,0,1:0:0:0:
432,168,3924,2,0,B|479:157|479:157|452:205|452:205|379:223,1,179.999994506836,8|0,1:0|0:0,0:0:0:0:
368,244,4248,5,8,1:0:0:0:
220,176,4411,6,0,B|209:128|209:128|257:155|257:155|276:232,1,180,0|0,0:0|0:0,0:0:0:0:
180,332,4897,1,8,1:0:0:0:
180,332,5059,2,0,B|143:365|143:365|143:309|143:309|200:255,1,180,0|0,0:0|0:0,0:0:0:0:
335,288,5546,1,8,1:0:0:0:
335,288,5708,2,0,B|381:302|381:302|333:330|333:330|258:308,1,180,0|0,0:0|0:0,0:0:0:0:
133,151,6194,6,0,L|219:175,1,90,0|0,1:0|0:0,0:0:0:0:
338,67,6438,1,0,0:0:0:0:
338,67,6519,2,0,L|251:91,1,90,0|0,1:0|0:0,0:0:0:0:
284,236,6762,1,0,0:0:0:0:
284,236,6843,6,0,B|297:283|297:283|326:236|326:236|307:160,1,180,8|2,1:0|0:0,0:0:0:0:
338,67,7329,1,0,0:0:0:0:
152,192,7492,2,0,B|117:227|117:227|173:229|173:229|229:174,1,180,8|2,1:0|0:0,0:0:0:0:
338,67,7978,1,0,0:0:0:0:
120,56,8140,2,0,B|72:43|72:43|98:92|98:92|174:113,1,180,8|0,1:0|0:0,0:0:0:0:
284,236,8627,1,0,0:0:0:0:
338,67,8789,6,0,L|267:79,1,45,0|0,1:0|0:0,0:0:0:0:
396,136,8951,2,0,L|466:148,1,45,0|0,0:0|0:0,0:0:0:0:
352,32,9113,6,0,L|230:53,1,107.999996704102,12|0,1:0|0:0,0:0:0:0:
382,171,9356,1,2,0:0:0:0:
382,171,9438,6,0,L|504:152,1,90,0|0,1:0|0:0,0:0:0:0:
412,276,9681,2,0,L|323:262,1,90,2|0,0:0|0:0,0:0:0:0:
305,357,9924,2,0,L|250:348,1,45,2|0,0:0|0:0,0:0:0:0:
108,256,10086,6,0,L|89:378,1,90,0|0,1:0|0:0,0:0:0:0:
212,288,10329,2,0,L|198:199,1,90,2|0,0:0|0:0,0:0:0:0:
294,179,10572,2,0,L|285:124,1,45,0|0,0:0|0:0,0:0:0:0:
188,64,10735,6,0,L|66:45,1,90,0|0,1:0|0:0,0:0:0:0:
36,164,10978,2,0,L|158:145,1,90,2|0,0:0|0:0,0:0:0:0:
201,218,11221,2,0,L|260:232,1,45,2|0,0:0|0:0,0:0:0:0:
188,64,11384,5,2,1:2:0:0:
188,64,11708,1,2,1:2:0:0:
188,64,12032,6,0,L|66:45,1,90,0|0,1:0|0:0,0:0:0:0:
164,168,12275,2,0,L|286:149,1,90,2|0,0:0|0:0,0:0:0:0:
265,250,12518,2,0,L|320:241,1,45,2|0,0:0|0:0,0:0:0:0:
428,276,12681,5,0,1:0:0:0:
168,240,12843,1,2,0:0:0:0:
440,244,13005,1,0,1:0:0:0:
156,272,13167,1,2,0:0:0:0:
452,212,13329,6,0,L|444:160,1,45,0|0,1:0|0:0,0:0:0:0:
384,48,13492,2,0,L|377:92,1,45,2|0,0:0|0:0,0:0:0:0:
488,232,13654,2,0,L|465:98,1,135,2|0,1:2|0:0,0:0:0:0:
384,48,13978,5,2,1:2:0:0:
265,250,14140,1,8,0:1:0:0:
265,250,14221,1,8,0:1:0:0:
265,250,14302,1,8,1:0:0:0:
372,176,14465,1,0,1:0:0:0:
72,112,14627,6,0,L|53:234,1,90,4|2,1:0|0:1,0:0:0:0:
172,264,14870,2,0,L|153:142,1,90,2|0,0:0|0:0,0:0:0:0:
226,99,15113,2,0,L|280:92,1,45,2|0,0:1|0:0,0:0:0:0:
416,168,15275,6,0,L|504:154,1,90,2|2,1:2|0:1,0:0:0:0:
452,272,15518,2,0,L|330:253,1,90,2|0,0:0|0:0,0:0:0:0:
276,324,15762,2,0,L|269:280,1,45,2|0,0:1|0:0,0:0:0:0:
145,157,15924,6,0,L|158:68,1,90,0|2,1:0|0:1,0:0:0:0:
245,5,16167,2,0,L|258:93,1,90,2|0,0:0|0:0,0:0:0:0:
327,170,16411,1,2,0:1:0:0:
276,324,16573,5,2,1:0:0:0:
244,320,16654,1,2,0:0:0:0:
212,316,16735,1,2,0:0:0:0:
180,312,16816,1,2,0:0:0:0:
116,244,16897,5,2,0:0:0:0:
136,240,16978,1,2,0:0:0:0:
156,236,17059,1,2,0:0:0:0:
176,232,17140,1,2,0:0:0:0:
264,232,17221,6,0,L|252:92,1,135,2|0,1:0|0:0,0:0:0:0:
300,8,17546,2,0,L|288:142,1,135,2|0,1:2|0:0,0:0:0:0:
264,232,17870,6,0,L|320:240,1,45,0|0,1:0|0:0,0:0:0:0:
212,164,18032,2,0,L|156:172,1,45,2|0,0:0|0:0,0:0:0:0:
40,120,18194,2,0,L|48:176,1,45,0|0,1:0|0:0,0:0:0:0:
112,280,18356,2,0,L|105:235,1,45,2|0,0:0|0:0,0:0:0:0:
136,52,18519,5,2,1:2:0:0:
16,252,18681,1,2,0:0:0:0:
232,344,18843,2,0,B|280:338|280:338|316:320|316:320|368:328,1,135,2|0,1:2|0:0,0:0:0:0:
380,348,19167,5,2,1:2:0:0:
212,164,19329,2,0,P|235:150|284:148,1,67.5000025749208,8|0,0:1|0:1,0:0:0:0:
264,232,19492,2,0,P|196:264|96:232,1,161.999995056153,8|0,0:1|0:0,0:0:0:0:
84,260,19816,5,4,1:0:0:0:
48,84,19978,1,0,0:0:0:0:
48,84,20059,1,2,0:0:0:0:
48,84,20140,2,0,L|152:72,1,90,0|2,1:0|0:0,0:0:0:0:
264,36,20465,6,0,L|269:80,1,45,0|2,1:0|0:0,0:0:0:0:
198,180,20627,2,0,L|204:136,1,45,0|2,0:0|0:0,0:0:0:0:
296,20,20789,2,0,L|308:128,1,90,0|2,1:0|0:0,0:0:0:0:
368,320,21113,6,0,P|324:332|264:308,1,90,0|0,1:0|0:0,0:0:0:0:
120,248,21356,1,2,0:0:0:0:
120,248,21438,2,0,P|164:236|224:260,1,90,0|2,1:0|0:0,0:0:0:0:
316,150,21762,2,0,L|324:240,2,90,0|0|0,1:0|0:0|1:0,0:0:0:0:
296,20,22248,1,0,1:0:0:0:
198,181,22411,6,0,L|205:91,1,90,0|2,1:0|0:0,0:0:0:0:
324,240,22735,2,0,L|316:150,1,90,0|0,1:0|0:0,0:0:0:0:
440,36,23059,5,8,1:2:0:0:
436,60,23140,1,8,0:0:0:0:
432,84,23221,1,8,0:0:0:0:
428,108,23302,1,0,0:0:0:0:
396,188,23384,5,8,1:2:0:0:
404,220,23465,1,8,0:0:0:0:
412,252,23546,1,8,0:0:0:0:
420,284,23627,1,0,0:0:0:0:
492,336,23708,5,0,1:0:0:0:
248,296,23870,1,8,0:0:0:0:
396,188,24032,1,0,1:0:0:0:
360,372,24194,1,8,0:0:0:0:
360,372,24275,1,8,0:0:0:0:
360,372,24356,1,0,1:0:0:0:
165,264,24519,6,0,P|102:306|168:344,1,180,8|8,0:0|0:0,0:0:0:0:
300,336,25005,5,0,1:0:0:0:
312,340,25086,1,0,0:0:0:0:
324,344,25167,1,0,0:0:0:0:
336,348,25248,1,0,0:0:0:0:
360,372,25329,2,0,L|364:264,1,90,2|2,1:0|0:0,0:0:0:0:
332,132,25654,5,0,1:0:0:0:
320,128,25735,1,0,0:0:0:0:
308,124,25816,1,0,0:0:0:0:
296,120,25897,1,0,0:0:0:0:
272,96,25978,2,0,L|268:204,1,90,2|2,1:0|0:0,0:0:0:0:
165,264,26302,5,8,1:2:0:0:
304,72,26627,6,0,L|308:180,1,90,0|2,1:0|0:0,0:0:0:0:
165,265,26951,2,0,L|167:235,5,30,0|0|0|0|0|0,1:0|0:0|0:0|0:0|0:0|0:0,0:0:0:0:
184,288,27275,1,0,1:0:0:0:
64,128,27438,1,0,0:0:0:0:
32,312,27600,6,0,L|28:364,1,45,0|0,1:0|1:0,0:0:0:0:
104,252,27762,2,0,L|100:207,1,45,0|0,1:0|1:0,0:0:0:0:
64,128,27924,1,0,1:0:0:0:
184,288,28086,1,2,0:0:0:0:
300,168,28248,1,0,1:0:0:0:
328,172,28329,1,0,1:0:0:0:
356,176,28411,1,0,1:0:0:0:
384,180,28492,1,0,1:0:0:0:
400,200,28573,6,0,L|452:188,1,45,2|0,1:2|0:0,0:0:0:0:
492,292,28735,2,0,L|440:280,1,45,0|0,1:0|0:0,0:0:0:0:
368,320,28897,5,8,1:3:0:0:
352,324,28978,1,8,0:3:0:0:
336,328,29059,1,8,0:3:0:0:
320,332,29140,1,8,0:3:0:0:
292,356,29221,5,8,0:3:0:0:
271,350,29302,1,8,0:3:0:0:
249,343,29383,1,8,0:3:0:0:
229,336,29464,1,8,0:3:0:0:
196,348,29546,5,8,0:3:0:0:
177,329,29627,1,8,0:3:0:0:
159,308,29708,1,8,0:3:0:0:
142,289,29789,1,8,0:3:0:0:
108,280,29870,6,0,L|112:250,2,30
153,174,30032,2,0,L|148:144,2,30
212,96,30194,5,0,1:0:0:0:
241,130,30275,1,0,0:0:0:0:
251,173,30356,1,2,0:0:0:0:
240,217,30437,1,0,0:0:0:0:
153,174,30518,5,0,1:0:0:0:
120,143,30599,1,0,0:0:0:0:
106,101,30680,1,0,0:0:0:0:
112,56,30761,1,0,0:0:0:0:
140,24,30843,6,0,L|231:41,1,53.9999983520508,8|0,1:0|0:0,0:0:0:0:
460,120,31005,2,0,L|369:137,1,53.9999983520508,8|0,0:1|0:0,0:0:0:0:
232,244,31167,2,0,L|249:153,1,53.9999983520508,8|0,1:0|0:0,0:0:0:0:
308,36,31329,2,0,L|317:89,1,53.9999983520508,8|0,0:1|0:0,0:0:0:0:
350,287,31492,5,0,1:0:0:0:
384,316,31573,1,0,0:0:0:0:
427,326,31654,1,2,0:0:0:0:
471,315,31735,1,0,0:0:0:0:
428,228,31816,5,0,1:0:0:0:
397,195,31897,1,0,0:0:0:0:
355,181,31978,1,2,0:0:0:0:
310,187,32059,1,0,0:0:0:0:
272,212,32140,6,0,L|241:299,1,53.9999983520508,8|0,1:0|0:0,0:0:0:0:
70,310,32302,2,0,L|88:260,1,53.9999983520508,8|0,0:1|0:0,0:0:0:0:
232,84,32465,2,0,L|201:171,1,53.9999983520508,8|0,1:0|0:0,0:0:0:0:
30,182,32627,2,0,L|47:131,1,53.9999983520508,8|0,0:1|0:0,0:0:0:0:
116,24,32789,5,8,1:0:0:0:
70,310,32951,1,0,0:0:0:0:
272,212,33113,1,8,1:0:0:0:
30,182,33275,1,8,1:0:0:0:
30,182,33600,6,0,L|92:176,1,45,8|0,1:0|0:0,0:0:0:0:
220,200,33762,1,8,1:0:0:0:
104,268,33924,1,0,0:0:0:0:
128,76,34086,5,0,0:0:0:0:
128,76,34411,1,0,0:0:0:0:
128,76,34735,6,0,L|196:64,1,45,0|0,0:0|0:0,0:0:0:0:
292,120,34897,2,0,L|224:108,1,45
120,161,35059,2,0,P|112:117|128:76,1,90,0|0,0:0|0:0,0:0:0:0:
240,276,35384,6,0,B|226:322|226:322|198:274|198:274|220:199,1,180,8|0,1:0|0:0,0:0:0:0:
312,44,35870,1,0,0:0:0:0:
312,44,36032,2,0,B|298:-1|298:-1|270:46|270:46|292:120,1,180,8|0,1:0|0:0,0:0:0:0:
384,276,36519,1,0,0:0:0:0:
384,276,36681,6,0,L|400:176,1,90,8|8,1:3|0:3,0:0:0:0:
288,328,37005,2,0,L|272:228,1,90,8|8,1:3|0:3,0:0:0:0:
164,372,37329,5,8,1:3:0:0:
170,336,37410,1,8,0:3:0:0:
176,301,37491,1,8,0:3:0:0:
182,265,37572,1,8,0:3:0:0:
188,230,37653,1,8,1:3:0:0:
288,328,37816,1,8,0:1:0:0:
48,184,37978,6,0,L|56:116,1,45,0|2,1:0|0:0,0:0:0:0:
64,68,38140,1,6,1:2:0:0:
232,44,38302,2,0,L|224:112,1,45,0|2,1:0|0:0,0:0:0:0:
216,164,38464,1,2,1:0:0:0:
436,188,38627,1,8,1:2:0:0:
462,163,38708,1,8,1:2:0:0:
482,134,38789,1,8,1:2:0:0:
494,100,38870,1,8,1:2:0:0:
499,67,38951,5,8,1:2:0:0:
467,109,39032,1,8,1:2:0:0:
449,160,39113,1,8,1:2:0:0:
448,213,39194,1,8,1:2:0:0:
460,254,39275,6,0,P|460:302|380:230,1,252,0|0,1:0|2:0,0:0:0:0:
374,233,39924,6,0,L|204:262,1,161.999995056153,8|0,0:1|2:0,0:0:0:0:
128,244,40248,6,0,L|348:208,1,188.999994232178,8|0,0:0|2:0,0:0:0:0:
376,160,40573,5,8,1:2:0:0:
377,123,40654,1,0,0:0:0:0:
366,90,40735,1,8,1:2:0:0:
340,64,40816,1,8,0:2:0:0:
308,50,40897,1,8,1:2:0:0:
272,50,40978,1,8,0:2:0:0:
239,65,41059,1,8,1:2:0:0:
215,93,41140,1,8,0:2:0:0:
205,126,41221,5,8,1:2:0:0:
280,232,41384,1,8,1:2:0:0:
136,28,41546,1,8,0:1:0:0:
136,28,41870,6,0,L|32:56,1,90,2|2,1:2|1:2,0:0:0:0:
164,176,42194,2,0,L|250:152,1,90,2|2,1:2|1:2,0:0:0:0:
384,80,42519,1,0,1:0:0:0:
404,84,42600,1,0,0:0:0:0:
424,88,42681,1,0,1:0:0:0:
444,92,42762,1,0,0:0:0:0:
464,96,42843,6,0,P|407:142|384:80,1,161.999995056153,0|0,1:0|0:0,0:0:0:0:
436,0,43167,5,8,1:0:0:0:
268,48,43329,1,8,1:0:0:0:
384,80,43492,1,8,1:0:0:0:
184,36,43654,1,8,1:0:0:0:
332,160,43816,1,8,1:0:0:0:
100,24,43978,1,8,1:0:0:0:
384,80,44140,1,8,1:0:0:0:
132,116,44302,1,8,1:0:0:0:
280,240,44465,6,0,L|452:228,1,150,2|0,1:0|0:0,0:0:0:0:
504,272,44789,2,0,L|332:260,1,150,2|0,1:0|0:0,0:0:0:0:
316,272,45113,5,2,1:0:0:0:
240,232,45221,1,2,1:0:0:0:
164,272,45329,1,2,1:0:0:0:
88,312,45438,2,0,L|76:212,1,90,2|0,1:0|0:0,0:0:0:0:
52,192,45654,5,2,1:0:0:0:
112,132,45762,2,0,L|124:48,2,60,2|2|2,1:0|1:0|1:0,0:0:0:0:
77,222,46086,2,0,L|166:211,1,90,2|0,1:0|0:0,0:0:0:0:
200,232,46302,5,0,0:0:0:0:
272,276,46411,2,0,P|284:240|264:176,1,90,2|0,1:2|0:0,0:0:0:0:
288,156,46627,1,2,1:0:0:0:
248,80,46735,2,0,L|316:24,2,60,2|2|2,1:0|1:0|1:0,0:0:0:0:
200,148,47059,6,0,L|116:118,2,60,2|2|2,1:0|1:0|1:0,0:0:0:0:
200,232,47384,2,0,L|348:180,1,150,2|0,1:0|0:0,0:0:0:0:
360,148,47708,6,0,L|440:160,2,60,2|8|8,1:2|0:3|0:3,0:0:0:0:
284,116,48032,2,0,L|142:165,1,150,8|0,0:3|0:0,0:0:0:0:
104,156,48356,5,8,1:0:0:0:
144,76,48519,1,0,0:0:0:0:
200,232,48681,1,0,0:0:0:0:
56,80,48843,1,0,0:0:0:0:
200,232,49167,5,0,0:0:0:0:
224,240,49329,1,0,0:0:0:0:
248,248,49492,1,0,0:0:0:0:
128,284,49654,1,0,0:0:0:0:
128,284,49978,5,0,0:0:0:0:
56,80,50140,1,0,0:0:0:0:
128,284,50465,5,0,0:0:0:0:
104,292,50627,1,0,0:0:0:0:
80,300,50790,1,0,0:0:0:0:
200,336,50952,1,0,0:0:0:0:
200,336,51275,5,0,0:0:0:0:
272,132,51437,1,0,0:0:0:0:
312,300,51762,5,0,0:0:0:0:
320,324,51924,1,0,0:0:0:0:
328,348,52087,1,0,0:0:0:0:
364,228,52248,5,0,0:0:0:0:
180,132,52411,1,0,0:0:0:0:
416,156,52573,1,0,0:0:0:0:
128,204,52735,1,0,0:0:0:0:
364,84,52897,1,0,0:0:0:0:
364,84,53221,6,0,L|380:40,3,45,0|0|0|0,0:0|0:0|0:0|0:0,0:0:0:0:
416,156,53546,5,0,0:0:0:0:
416,156,53870,5,0,0:0:0:0:
212,84,54032,1,0,0:0:0:0:
276,240,54356,5,0,0:0:0:0:
284,264,54518,1,0,0:0:0:0:
292,288,54681,1,0,0:0:0:0:
328,168,54842,1,0,0:0:0:0:
328,168,55167,5,0,0:0:0:0:
124,240,55329,1,0,0:0:0:0:
276,96,55654,5,0,0:0:0:0:
284,72,55816,1,0,0:0:0:0:
292,48,55979,1,0,0:0:0:0:
328,168,56140,6,0,B|360:260|308:344|308:344|276:308|300:240,1,270,8|2,0:1|0:0,0:0:0:0:
276,96,56789,2,0,B|293:50|261:14|261:14|209:98|240:189,1,270,8|2,1:0|0:0,0:0:0:0:
307,343,57438,2,0,P|351:354|393:340,1,90,8|2,1:0|0:0,0:0:0:0:
241,189,57762,2,0,P|197:178|155:192,1,90,8|0,1:0|0:0,0:0:0:0:
124,172,58411,6,0,P|198:143|272:172,1,161.999995056153,2|0,0:1|0:0,0:0:0:0:
296,164,58735,6,0,L|276:260,1,90,8|0,1:3|0:0,0:0:0:0:
372,108,59059,2,0,L|392:204,1,90,8|2,1:3|0:0,0:0:0:0:
296,52,59384,2,0,L|200:72,1,90,8|2,1:3|0:0,0:0:0:0:
48,140,59708,1,8,1:3:0:0:
64,144,59789,1,8,1:3:0:0:
80,148,59870,1,8,1:3:0:0:
96,152,59951,1,8,1:3:0:0:
112,156,60032,6,0,P|132:224|88:272,1,135,8|0,1:3|0:0,0:0:0:0:
100,304,60356,1,8,1:3:0:0:
48,140,60519,1,8,1:3:0:0:
11,320,60681,2,0,L|100:304,1,90,8|2,1:3|0:0,0:0:0:0:
232,244,61005,2,0,L|316:260,2,60,8|8|8,1:3|1:3|1:3,0:0:0:0:
144,128,61329,6,0,P|127:169|135:213,1,90,8|0,1:3|0:0,0:0:0:0:
188,328,61654,2,0,L|184:392,3,45,8|2|2|2,1:3|0:0|0:0|0:0,0:0:0:0:
220,296,61978,1,8,1:3:0:0:
100,304,62140,1,8,0:0:0:0:
264,120,62302,1,8,1:2:0:0:
80,136,62464,1,8,0:0:0:0:
296,220,62627,5,8,1:3:0:0:
264,120,62789,1,2,0:0:0:0:
396,40,62951,1,8,1:3:0:0:
364,140,63113,1,2,0:0:0:0:
232,20,63275,5,8,1:3:0:0:
232,20,63600,2,0,L|168:16,3,45,8|8|8|8,1:3|0:3|0:3|0:3,0:0:0:0:
268,40,63924,6,0,L|276:136,1,90,8|8,1:3|0:3,0:0:0:0:
216,309,64248,2,0,L|224:220,1,90,8|8,1:3|0:3,0:0:0:0:
176,132,64573,1,8,1:3:0:0:
368,48,64735,1,8,0:3:0:0:
464,208,64897,1,8,0:3:0:0:
460,224,64978,1,8,0:3:0:0:
456,240,65059,1,8,0:3:0:0:
452,256,65140,1,8,0:3:0:0:
448,272,65221,6,0,P|380:292|332:248,1,135,8|0,1:3|0:0,0:0:0:0:
320,228,65545,1,8,1:3:0:0:
368,48,65708,1,8,0:3:0:0:
368,48,66032,5,8,0:3:0:0:
268,88,66194,2,0,L|178:75,2,60,8|2|2,1:3|0:0|0:0,0:0:0:0:
340,128,66519,6,0,L|400:120,1,45,8|0,1:3|0:0,0:0:0:0:
496,172,66681,2,0,L|451:166,1,45,8|2,1:3|0:0,0:0:0:0:
320,220,66843,2,0,L|364:214,1,45,8|0,1:3|0:0,0:0:0:0:
512,260,67005,2,0,L|467:254,1,45,8|0,1:3|0:0,0:0:0:0:
364,308,67167,1,8,1:3:0:0:
328,301,67248,1,8,1:3:0:0:
292,304,67329,1,8,1:3:0:0:
259,317,67410,1,8,1:3:0:0:
176,306,67492,5,8,1:3:0:0:
197,267,67573,1,8,1:3:0:0:
202,223,67654,1,8,1:3:0:0:
186,181,67735,1,8,1:3:0:0:
156,149,67816,6,0,L|174:68,2,67.5000025749208,2|2|2,0:0|0:0|0:0,0:0:0:0:
88,216,68465,1,2,0:0:0:0:
156,149,68789,6,0,P|104:125|64:209,1,161.999995056153,8|0,0:1|0:0,0:0:0:0:
88,216,69113,6,0,L|69:338,1,90,2|0,1:0|0:0,0:0:0:0:
188,368,69356,2,0,L|169:246,1,90,2|0,0:0|0:0,0:0:0:0:
242,203,69600,2,0,L|249:158,1,45,2|0,0:0|0:0,0:0:0:0:
336,48,69762,6,0,P|294:32|244:44,1,90,2|8,1:2|0:0,0:0:0:0:
100,92,70005,2,0,P|141:107|191:95,1,90,10|0,0:0|0:0,0:0:0:0:
242,203,70248,2,0,L|249:158,1,45,10|0,0:0|0:0,0:0:0:0:
360,84,70411,6,0,L|342:193,1,90,2|0,1:2|0:0,0:0:0:0:
256,292,70654,2,0,L|241:203,1,90,2|0,0:0|0:0,0:0:0:0:
186,99,70897,2,0,L|175:159,1,45,2|0,0:0|0:0,0:0:0:0:
72,320,71059,5,8,1:3:0:0:
72,320,71384,1,8,1:3:0:0:
72,320,71708,6,0,L|194:339,1,90,2|0,1:2|0:0,0:0:0:0:
345,278,71951,2,0,L|223:297,1,90,2|0,0:0|0:0,0:0:0:0:
180,224,72195,2,0,L|173:174,1,45,2|0,0:0|0:0,0:0:0:0:
104,112,72356,5,10,1:2:0:0:
364,76,72518,1,2,0:2:0:0:
92,80,72680,1,10,1:2:0:0:
376,108,72842,1,2,0:0:0:0:
80,40,73004,6,0,L|132:48,1,45,2|0,1:2|0:0,0:0:0:0:
244,108,73167,2,0,L|200:115,1,45,0|0,0:0|0:0,0:0:0:0:
60,4,73329,2,0,L|194:27,1,135,2|0,1:2|0:0,0:0:0:0:
244,108,73653,5,2,1:2:0:0:
68,260,73816,2,0,L|60:300,3,22.5,0|0|0|0,0:0|0:0|0:0|0:0,0:0:0:0:
128,188,73978,2,0,L|120:136,3,45,2|0|0|0,1:2|0:0|0:0|0:0,0:0:0:0:
188,256,74302,6,0,L|310:275,1,90,2|0,1:2|0:0,0:0:0:0:
388,344,74546,2,0,L|407:222,1,90,2|0,0:0|0:0,0:0:0:0:
444,160,74789,2,0,L|436:115,1,45,2|0,0:0|0:0,0:0:0:0:
328,16,74951,6,0,P|312:58|324:108,1,90,2|0,1:2|0:0,0:0:0:0:
277,270,75194,2,0,P|285:226|269:184,1,90,2|0,0:0|0:0,0:0:0:0:
204,68,75438,2,0,L|196:132,1,45,2|0,0:0|0:0,0:0:0:0:
188,284,75600,6,0,P|224:340|304:352,1,107.999996704102,8|0,1:0|0:0,0:0:0:0:
456,236,75843,2,0,P|420:180|340:168,1,107.999996704102,8|0,1:0|0:0,0:0:0:0:
283,180,76086,6,0,L|277:270,1,90,8|0,1:0|0:0,0:0:0:0:
360,339,76329,2,0,L|367:250,1,90,8|0,1:0|0:0,0:0:0:0:
336,64,76573,6,0,L|404:56,1,53.9999983520508,8|0,1:0|0:0,0:0:0:0:
512,128,76735,2,0,L|444:120,1,53.9999983520508,8|0,1:0|0:0,0:0:0:0:
260,100,76897,5,2,1:2:0:0:
216,92,76978,1,2,0:0:0:0:
172,84,77059,1,2,0:0:0:0:
128,76,77140,1,2,0:0:0:0:
84,68,77221,5,2,1:2:0:0:
188,308,77384,1,2,0:0:0:0:
356,208,77546,6,0,L|280:188,1,60,8|0,1:2|0:0,0:0:0:0:
216,168,77762,1,0,0:0:0:0:
52,308,77870,2,0,L|128:328,1,60,8|0,1:2|0:0,0:0:0:0:
196,344,78086,1,0,0:0:0:0:
356,208,78194,5,8,1:3:0:0:
220,120,78356,1,8,0:3:0:0:
384,132,78519,1,8,0:1:0:0:
144,152,78681,1,8,0:3:0:0:
328,284,78843,1,8,1:3:0:0:
296,88,79005,1,8,0:3:0:0:
68,184,79167,6,0,L|56:224,7,22.5,8|0|8|0|8|0|8|0,0:1|0:0|0:3|0:0|0:3|0:0|0:3|0:0,0:0:0:0:
68,184,79492,6,0,L|49:62,1,90,4|2,1:0|0:2,0:0:0:0:
148,244,79735,2,0,L|134:332,1,90,8|0,0:0|0:0,0:0:0:0:
228,184,79978,2,0,L|218:123,1,45,8|0,0:0|0:0,0:0:0:0:
280,60,80140,6,0,P|323:51|365:67,1,90,2|2,1:0|0:0,0:0:0:0:
500,180,80384,2,0,P|456:188|414:172,1,90,8|0,0:0|0:0,0:0:0:0:
468,48,80627,2,0,L|464:92,1,45,8|0,0:0|0:0,0:0:0:0:
380,284,80789,6,0,L|399:406,1,90,2|2,1:0|0:0,0:0:0:0:
300,224,81032,2,0,L|314:136,1,90,8|0,0:0|0:0,0:0:0:0:
220,284,81275,2,0,L|230:345,1,45,8|0,0:0|0:0,0:0:0:0:
104,144,81438,5,8,1:3:0:0:
104,144,81762,1,8,1:3:0:0:
104,144,82086,6,0,L|208:124,1,90,2|0,1:2|0:0,0:0:0:0:
368,88,82329,2,0,L|264:68,1,90,2|0,0:0|0:0,0:0:0:0:
80,8,82573,2,0,L|74:52,1,45,2|0,0:0|0:0,0:0:0:0:
104,144,82735,5,2,1:2:0:0:
92,184,82816,1,2,0:0:0:0:
100,224,82897,1,2,0:0:0:0:
88,264,82978,1,2,0:0:0:0:
49,374,83059,5,2,1:2:0:0:
82,351,83140,1,2,0:0:0:0:
120,340,83221,1,2,0:0:0:0:
161,344,83302,1,2,0:0:0:0:
197,362,83384,6,0,L|256:340,1,45,2|0,1:2|0:0,0:0:0:0:
388,328,83546,2,0,L|345:312,1,45,0|0,0:0|0:0,0:0:0:0:
125,273,83708,2,0,P|102:328|160:344,1,135,2|0,1:2|0:0,0:0:0:0:
197,362,84032,1,0,1:0:0:0:
252,252,84194,5,2,0:0:0:0:
256,216,84275,1,0,0:0:0:0:
260,180,84356,2,0,L|216:148,2,30,2|0|0,1:2|0:0|0:0,0:0:0:0:
336,216,84519,2,0,L|408:200,1,45,2|0,0:0|0:0,0:0:0:0:
460,140,84681,6,0,P|468:96|453:55,1,90,2|0,1:2|0:0,0:0:0:0:
380,206,84924,2,0,P|364:247|373:290,1,90,2|0,0:0|0:0,0:0:0:0:
480,328,85167,2,0,L|456:264,1,45,10|0,0:0|0:0,0:0:0:0:
384,104,85329,6,0,L|272:88,1,90,2|0,1:2|0:0,0:0:0:0:
116,152,85573,2,0,L|228:136,1,90,2|0,0:0|0:0,0:0:0:0:
304,236,85816,2,0,L|280:172,1,45,10|0,0:0|0:0,0:0:0:0:
92,60,85978,6,0,P|51:78|26:115,1,90,2|0,1:2|0:0,0:0:0:0:
35,301,86221,2,0,L|48:212,1,90,2|0,0:0|0:0,0:0:0:0:
140,340,86465,2,0,L|133:295,1,45,10|0,0:0|0:0,0:0:0:0:
216,152,86627,5,2,1:0:0:0:
292,340,86789,1,0,0:0:0:0:
216,152,86951,1,0,0:0:0:0:
140,340,87113,1,0,0:0:0:0:
140,340,87438,6,0,P|92:315|67:268,1,107.999996704102,8|0,1:0|0:0,0:0:0:0:
172,64,87681,2,0,P|219:88|244:135,1,107.999996704102,8|0,1:0|0:0,0:0:0:0:
152,256,87924,6,0,L|160:136,1,107.999996704102,8|0,1:0|0:0,0:0:0:0:
232,324,88167,2,0,L|240:204,1,107.999996704102,8|0,1:0|0:0,0:0:0:0:
320,272,88411,2,0,L|328:152,1,107.999996704102,8|0,1:0|0:0,0:0:0:0:
340,80,88654,6,0,P|387:104|412:151,1,107.999996704102,8|0,1:0|0:0,0:0:0:0:
308,356,88897,2,0,P|260:331|235:284,1,107.999996704102,8|0,1:0|0:0,0:0:0:0:
159,72,89140,6,0,P|203:43|256:44,1,107.999996704102,8|0,1:0|0:0,0:0:0:0:
336,208,89384,2,0,P|291:236|238:235,1,107.999996704102,0|0,0:0|0:0,0:0:0:0:
226,124,89627,2,0,L|269:156,1,53.9999983520508,8|0,1:0|0:0,0:0:0:0:
124,268,90194,6,0,L|112:320,3,45,8|0|0|0,1:0|0:0|0:0|0:0,0:0:0:0:
200,208,90519,2,0,L|189:164,3,45,0|0|0|0,0:0|0:0|0:0|0:0,0:0:0:0:
272,268,90843,5,0,0:0:0:0:
300,272,90924,1,0,0:0:0:0:
328,276,91005,1,0,0:0:0:0:
356,280,91086,1,0,0:0:0:0:
469,339,91167,5,0,0:0:0:0:
445,307,91248,1,0,0:0:0:0:
436,268,91329,1,0,0:0:0:0:
441,228,91410,1,0,0:0:0:0:
462,193,91492,1,0,0:0:0:0:
473,153,91573,1,0,0:0:0:0:
468,113,91654,1,0,0:0:0:0:
447,78,91735,1,0,0:0:0:0:
412,57,91816,5,10,1:3:0:0:
312,13,92140,6,0,P|307:85|380:88,1,161.999995056153,8|0,0:1|0:0,0:0:0:0:
412,57,92465,6,0,L|428:168,1,90,2|2,1:0|0:0,0:0:0:0:
380,336,92708,2,0,L|367:246,1,90,8|2,0:0|0:0,0:0:0:0:
284,132,92951,2,0,L|290:176,1,45,8|0,0:0|0:0,0:0:0:0:
240,324,93113,6,0,L|172:316,1,45,2|0,1:0|0:0,0:0:0:0:
56,280,93275,2,0,L|124:272,1,45,8|0,0:0|0:0,0:0:0:0:
268,360,93438,2,0,L|200:352,1,45,2|0,1:0|0:0,0:0:0:0:
24,252,93600,2,0,L|92:244,1,45,8|0,0:0|0:0,0:0:0:0:
224,192,93762,6,0,L|232:120,1,45,2|0,1:0|0:0,0:0:0:0:
156,20,93924,2,0,L|160:64,1,45,8|2,0:0|0:0,0:0:0:0:
148,256,94086,2,0,P|203:288|291:265,1,150,2|0,1:0|0:0,0:0:0:0:
324,284,94411,6,0,L|340:232,1,30,8|0,1:2|0:0,0:0:0:0:
412,252,94519,2,0,L|399:198,1,30,8|0,1:2|0:0,0:0:0:0:
472,180,94627,2,0,L|434:140,1,30,8|0,1:2|0:0,0:0:0:0:
500,88,94735,2,0,L|437:68,3,45,2|0|2|0,1:2|0:0|0:2|0:0,0:0:0:0:
380,24,95059,6,0,P|364:65|372:109,1,90,2|2,1:0|0:0,0:0:0:0:
480,264,95302,2,0,P|488:220|472:178,1,90,8|2,0:0|0:0,0:0:0:0:
348,232,95545,2,0,L|392:228,1,45,8|0,0:0|0:0,0:0:0:0:
288,312,95708,6,0,L|198:302,1,90,2|8,1:0|0:0,0:0:0:0:
24,260,95951,2,0,L|113:250,1,90,2|2,0:0|0:0,0:0:0:0:
252,200,96194,2,0,L|207:195,1,45,8|0,0:0|0:0,0:0:0:0:
112,64,96356,6,0,P|103:107|119:149,1,90,2|2,1:0|0:0,0:0:0:0:
244,285,96600,2,0,P|260:243|252:200,1,90,8|0,0:0|0:0,0:0:0:0:
24,260,96843,2,0,L|68:255,1,45,0|0,0:0|0:0,0:0:0:0:
228,96,97005,6,0,L|236:56,7,22.5,8|0|0|0|8|8|8|8,1:0|0:0|1:0|0:0|0:3|0:3|0:3|1:3,0:0:0:0:
288,164,97329,2,0,L|296:228,1,45,8|0,1:0|1:0,0:0:0:0:
238,329,97492,2,0,L|243:284,1,45,2|0,1:0|1:0,0:0:0:0:
348,96,97654,6,0,P|400:68|480:104,1,144,8|8,1:2|0:0,0:0:0:0:
420,296,98140,1,8,0:0:0:0:
419,295,98302,2,0,L|412:152,1,144,8|8,0:0|0:0,0:0:0:0:
348,96,98789,1,0,0:0:0:0:
288,164,98951,6,0,L|244:159,1,45,2|0,1:0|0:0,0:0:0:0:
164,112,99113,2,0,L|120:117,1,45,8|0,1:2|0:0,0:0:0:0:
36,60,99275,2,0,L|24:128,2,60,2|2|2,1:2|1:2|1:2,0:0:0:0:
80,264,99600,1,8,1:2:0:0:
129,156,99924,6,0,P|60:169|92:232,1,161.999995056153,8|0,0:0|0:0,0:0:0:0:
80,264,100248,6,0,L|124:259,1,45,2|0,1:0|0:0,0:0:0:0:
204,212,100410,2,0,L|248:217,1,45,8|0,1:2|0:0,0:0:0:0:
332,160,100572,2,0,L|344:228,2,60,2|2|2,1:2|1:2|1:2,0:0:0:0:
288,364,100897,1,8,1:2:0:0:
239,256,101221,6,0,P|308:269|276:332,1,161.999995056153,8|0,1:0|0:0,0:0:0:0:
288,364,101546,6,0,L|232:356,1,45,0|0,1:0|0:0,0:0:0:0:
64,336,101708,2,0,L|120:328,1,45,10|0,0:1|0:0,0:0:0:0:
240,256,101870,6,0,L|252:204,5,30,10|0|0|0|0|0,1:2|1:0|1:0|1:0|1:0|1:0,0:0:0:0:
224,136,102194,6,0,L|168:128,1,45,2|0,1:0|0:0,0:0:0:0:
40,208,102356,2,0,L|96:200,1,45,8|0,1:2|0:0,0:0:0:0:
240,256,102519,6,0,L|288:272,5,30,0|0|0|0|0|0,1:0|1:0|1:0|1:0|1:0|1:0,0:0:0:0:
360,296,102843,6,0,L|368:240,1,45,2|0,1:0|1:0,0:0:0:0:
312,100,103005,2,0,L|318:144,1,45,2|0,1:2|1:0,0:0:0:0:
240,256,103167,6,0,L|212:258,7,22.5,10|0|0|0|10|0|0|0,1:0|0:0|0:0|0:0|1:0|0:0|0:0|0:0,0:0:0:0:
268,272,103492,5,14,1:0:0:0:
