osu file format v14

[General]
AudioFilename: [SDVX III] F.K.S. [EXH].mp3
AudioLeadIn: 0
PreviewTime: 66535
Countdown: 1
SampleSet: Normal
StackLeniency: 0.2
Mode: 0
LetterboxInBreaks: 1
WidescreenStoryboard: 1

[Editor]
Bookmarks: 30210,69129,74318,79508,84697,87291,92481,103508
DistanceSpacing: 1.4
BeatDivisor: 4
GridSize: 4
TimelineZoom: 1.7

[Metadata]
Title:F.K.S
TitleUnicode:F.K.S
Artist:Nizikawa
ArtistUnicode:Nizikawa
Creator:DT-sama
Version:pepotti did nothing wrong
Source:SOUND VOLTEX III GRAVITY WARS
Tags:sdvx pepotti i love you
BeatmapID:1218659
BeatmapSetID:575528

[Difficulty]
HPDrainRate:6
CircleSize:4
OverallDifficulty:9
ApproachRate:9
SliderMultiplier:2.4
SliderTickRate:1

[Events]
//Background and Video events
0,0,"tsumabuki1.png",0,0
//Break Periods
2,48734,55556
//Storyboard Layer 0 (Background)
//Storyboard Layer 1 (Fail)
//Storyboard Layer 2 (Pass)
//Storyboard Layer 3 (Foreground)
//Storyboard Sound Samples

[TimingPoints]
373,324.324324324324,4,1,0,55,1,0
4264,-66.6666666666667,4,1,0,55,0,0
4427,-133.333333333333,4,1,0,55,0,0
4913,-66.6666666666667,4,1,0,55,0,0
5075,-133.333333333333,4,1,0,55,0,0
5562,-66.6666666666667,4,1,0,55,0,0
5724,-133.333333333333,4,1,0,55,0,0
6210,-100,4,1,0,55,0,0
6859,-66.6666666666667,4,1,0,55,0,0
7021,-133.333333333333,4,1,0,55,0,0
7183,-83.3333333333333,4,1,0,55,0,0
7508,-66.6666666666667,4,1,0,55,0,0
7670,-133.333333333333,4,1,0,55,0,0
7832,-71.4285714285714,4,1,0,55,0,0
8156,-66.6666666666667,4,1,0,55,0,0
8318,-100,4,1,0,55,0,0
8805,-100,4,1,0,55,0,0
14156,-66.6666666666667,4,1,0,55,0,0
14643,-100,4,1,0,55,0,0
17237,-66.6666666666667,4,1,0,55,0,0
19183,-33.3333333333333,4,1,0,55,0,0
19345,-66.6666666666667,4,1,0,55,0,0
19508,-50,4,1,0,55,0,0
19832,-100,4,1,0,55,0,0
24048,-83.3333333333333,4,1,0,55,0,0
24372,-71.4285714285714,4,1,0,55,0,0
24697,-62.5,4,1,0,55,0,0
25345,-133.333333333333,4,1,0,55,0,0
25508,-66.6666666666667,4,1,0,55,0,0
25994,-133.333333333333,4,1,0,55,0,0
26156,-66.6666666666667,4,1,0,55,0,0
26318,-200,4,1,0,55,0,0
26967,-100,4,1,0,55,0,0
32156,-66.6666666666667,4,1,0,55,0,0
35400,-100,4,1,0,55,0,0
40264,-200,4,1,0,55,0,0
40589,-66.6666666666667,4,1,0,55,0,0
42859,-133.333333333333,4,1,0,55,0,0
43183,-66.6666666666667,4,1,0,55,0,0
46427,-100,4,1,0,55,0,0
47724,-133.333333333333,4,1,0,55,0,0
48372,-50,4,1,0,55,0,0
56156,-66.6666666666667,4,1,0,55,0,0
58102,-50,4,1,0,55,0,0
58751,-100,4,1,0,55,0,0
60372,-25,4,1,0,55,0,0
60697,-50,4,1,0,55,0,0
61345,-100,4,1,0,55,0,0
62156,-66.6666666666667,4,1,0,55,0,0
62643,-100,4,1,0,55,0,0
63616,-52.6315789473684,4,1,0,55,0,0
66535,-100,4,1,0,55,0,0
67832,-66.6666666666667,4,1,0,55,0,0
68805,-50,4,1,0,55,0,0
69129,-100,4,1,0,55,0,0
79183,-66.6666666666667,4,1,0,55,0,0
79508,-100,4,1,0,55,0,0
92156,-50,4,1,0,55,0,0
92481,-83.3333333333333,4,1,0,55,0,0
97021,-50,4,1,0,55,0,0
97670,-83.3333333333333,4,1,0,55,0,0
99940,-50,4,1,0,55,0,0
101562,-83.3333333333333,4,1,0,55,0,0
102859,-50,4,1,0,55,0,0

[HitObjects]
256,192,1021,12,0,2805,0:0:0:0:
144,256,2967,5,0,0:0:0:0:
200,192,3075,1,0,0:0:0:0:
120,176,3183,1,0,0:0:0:0:
181,249,3291,5,0,0:0:0:0:
175,164,3399,1,0,0:0:0:0:
107,209,3507,1,0,0:0:0:0:
141,268,3616,5,0,0:0:0:0:
211,188,3724,1,0,0:0:0:0:
111,168,3832,1,0,0:0:0:0:
194,270,3940,5,0,0:0:0:0:
185,142,4048,1,0,0:0:0:0:
296,80,4156,1,0,0:0:0:0:
392,160,4264,6,0,B|400:208|400:208|360:264,1,90.0000034332277
336,328,4427,2,0,B|256:272|304:192|304:192|296:160|256:144,1,225.000008583069
171,175,4913,6,0,B|163:127|163:127|203:71,1,90.0000034332277
227,7,5076,2,0,B|307:63|259:143|259:143|267:175|307:191,1,225.000008583069
471,133,5562,6,0,B|423:125|423:125|367:165,1,90.0000034332277
303,189,5725,2,0,B|359:269|439:221|439:221|471:229|487:269,1,225.000008583069
56,280,6210,6,0,L|139:159,1,120
56,280,6535,1,0,0:0:0:0:
124,180,6697,1,0,0:0:0:0:
292,236,6859,6,0,B|244:244|244:244|188:204,1,90.0000034332277
124,180,7022,2,0,P|140:156|172:128,1,45.0000017166138
236,140,7183,2,0,B|333:141|341:48|341:48|367:27|408:36,1,215.999993408203
445,152,7508,6,0,B|457:199|457:199|422:258,1,90.0000034332277
248,244,7671,2,0,P|222:230|192:200,1,45.0000017166138
236,140,7832,2,0,B|333:133|360:236|360:236|392:252|452:232,1,251.999992309571
445,152,8156,6,0,B|426:107|426:107|362:80,1,90.0000034332277
388,0,8318,2,0,B|304:32|312:125|312:125|291:150|230:138,1,240
184,56,8805,5,0,0:0:0:0:
172,68,8886,1,0,0:0:0:0:
160,80,8967,1,0,0:0:0:0:
148,92,9048,1,0,0:0:0:0:
96,156,9129,6,0,B|112:192|112:192|144:216,1,60
208,256,9291,5,0,0:0:0:0:
144,316,9372,1,0,0:0:0:0:
56,304,9454,2,0,B|48:272|48:272|64:196,1,60
93,97,9616,2,0,B|101:129|101:129|85:205,1,60
0,136,9778,5,0,0:0:0:0:
12,168,9859,1,0,0:0:0:0:
64,228,9940,5,0,0:0:0:0:
76,196,10021,1,0,0:0:0:0:
128,132,10102,5,0,0:0:0:0:
148,176,10183,1,0,0:0:0:0:
193,196,10264,1,0,0:0:0:0:
240,184,10345,1,0,0:0:0:0:
296,120,10427,5,0,0:0:0:0:
304,136,10508,1,0,0:0:0:0:
352,196,10589,2,0,B|336:232|336:232|304:256,1,60
208,96,10751,6,0,B|224:60|224:60|256:36,1,60
220,288,10913,2,0,B|183:302|183:302|143:296,1,60
352,196,11075,1,0,0:0:0:0:
384,248,11156,1,0,0:0:0:0:
376,308,11237,1,0,0:0:0:0:
328,344,11318,1,0,0:0:0:0:
256,352,11400,5,0,0:0:0:0:
20,16,11724,5,0,0:0:0:0:
512,248,12048,5,0,0:0:0:0:
468,228,12129,1,0,0:0:0:0:
432,144,12210,1,0,0:0:0:0:
392,168,12291,1,0,0:0:0:0:
360,252,12372,5,0,0:0:0:0:
312,240,12454,1,0,0:0:0:0:
280,204,12535,1,0,0:0:0:0:
268,160,12616,1,0,0:0:0:0:
260,72,12697,5,0,0:0:0:0:
264,52,12778,1,0,0:0:0:0:
188,40,12859,5,0,0:0:0:0:
192,20,12940,1,0,0:0:0:0:
108,4,13021,5,0,0:0:0:0:
112,24,13102,1,0,0:0:0:0:
156,88,13183,5,0,0:0:0:0:
152,108,13264,1,0,0:0:0:0:
80,136,13345,5,0,0:0:0:0:
96,196,13427,1,0,0:0:0:0:
144,232,13508,1,0,0:0:0:0:
204,232,13589,1,0,0:0:0:0:
280,192,13670,5,0,0:0:0:0:
352,180,13751,1,0,0:0:0:0:
412,220,13832,1,0,0:0:0:0:
436,288,13913,1,0,0:0:0:0:
408,368,13994,5,0,0:0:0:0:
208,96,14156,6,0,B|228:56|228:56|268:32,1,90.0000034332277
412,220,14318,2,0,B|392:260|392:260|352:284,1,90.0000034332277
320,148,14481,5,0,0:0:0:0:
304,168,14562,1,0,0:0:0:0:
248,228,14643,6,0,B|220:200|220:200|208:160,1,60
208,96,14805,5,0,0:0:0:0:
129,134,14886,1,0,0:0:0:0:
109,221,14968,2,0,B|136:239|136:239|212:252,1,60
357,191,15130,2,0,B|329:172|329:172|253:159,1,60
234,118,15292,5,0,0:0:0:0:
208,96,15373,1,0,0:0:0:0:
164,32,15454,5,0,0:0:0:0:
138,54,15535,1,0,0:0:0:0:
129,134,15616,6,0,B|101:152|101:152|25:165,1,60
0,96,15778,2,0,B|27:77|27:77|103:64,1,60
192,192,15940,5,0,0:0:0:0:
184,240,16021,1,0,0:0:0:0:
140,312,16102,1,0,0:0:0:0:
184,328,16183,1,0,0:0:0:0:
260,284,16264,5,0,0:0:0:0:
320,280,16345,1,0,0:0:0:0:
364,236,16427,1,0,0:0:0:0:
376,176,16508,1,0,0:0:0:0:
436,100,16589,5,0,0:0:0:0:
390,82,16670,1,0,0:0:0:0:
341,87,16751,1,0,0:0:0:0:
307,122,16832,1,0,0:0:0:0:
288,152,16913,5,0,0:0:0:0:
272,180,16994,1,0,0:0:0:0:
252,192,17075,1,0,0:0:0:0:
236,196,17156,1,0,0:0:0:0:
224,192,17237,6,0,B|180:148|180:148|116:120|116:120|48:60,1,180.000006866455
224,192,17562,6,0,B|268:236|268:236|332:264|332:264|399:324,1,180.000006866455
80,88,17886,5,0,0:0:0:0:
88,112,17967,1,0,0:0:0:0:
148,172,18048,5,0,0:0:0:0:
156,148,18129,1,0,0:0:0:0:
224,112,18210,5,0,0:0:0:0:
216,88,18291,1,0,0:0:0:0:
156,28,18372,5,0,0:0:0:0:
148,52,18453,1,0,0:0:0:0:
80,88,18535,6,0,B|48:128|48:128|56:184,1,90.0000034332277
226,246,18697,2,0,B|258:206|258:206|250:150,1,90.0000034332277
216,88,18859,6,0,B|264:164|264:164|216:264,1,180.000006866455
89,245,19183,2,0,B|41:169|41:169|89:69,1,180.000006866455
160,24,19345,6,0,B|175:63|175:63|263:115,1,90.0000034332277
376,72,19508,6,0,B|216:88|216:88|300:80,1,240
216,88,19832,6,0,L|228:160,1,60
224,244,19994,5,0,0:0:0:0:
284,240,20075,2,0,B|312:216|312:216|320:168,1,60
345,49,20318,6,0,L|288:84,1,60
148,144,20481,5,0,0:0:0:0:
164,164,20562,1,0,0:0:0:0:
180,184,20643,1,0,0:0:0:0:
196,204,20724,1,0,0:0:0:0:
224,244,20805,5,0,0:0:0:0:
220,48,20967,1,0,0:0:0:0:
148,144,21129,5,0,0:0:0:0:
164,164,21210,1,0,0:0:0:0:
180,184,21291,1,0,0:0:0:0:
196,204,21372,1,0,0:0:0:0:
224,244,21454,5,0,0:0:0:0:
224,280,21535,1,0,0:0:0:0:
188,328,21616,1,0,0:0:0:0:
216,348,21697,1,0,0:0:0:0:
300,336,21778,5,0,0:0:0:0:
372,304,21886,1,0,0:0:0:0:
308,256,21994,2,0,P|372:196|392:192,1,80
448,232,22210,2,0,P|440:132|400:96,1,80
376,116,22427,5,0,0:0:0:0:
352,108,22508,1,0,0:0:0:0:
328,100,22589,1,0,0:0:0:0:
304,92,22670,1,0,0:0:0:0:
232,52,22751,5,0,0:0:0:0:
216,84,22832,1,0,0:0:0:0:
196,116,22913,1,0,0:0:0:0:
176,144,22994,1,0,0:0:0:0:
128,224,23075,5,0,0:0:0:0:
140,164,23156,1,0,0:0:0:0:
112,112,23237,1,0,0:0:0:0:
56,92,23318,1,0,0:0:0:0:
0,40,23400,5,0,0:0:0:0:
28,108,23481,1,0,0:0:0:0:
100,124,23562,1,0,0:0:0:0:
168,96,23643,1,0,0:0:0:0:
228,28,23724,6,0,P|348:104|364:172,1,180
228,28,24048,6,0,P|348:104|364:160,1,143.999995605469
360,132,24291,1,0,0:0:0:0:
372,244,24372,6,0,P|252:168|236:100,1,180
444,91,24697,2,0,P|344:131|308:123,1,96
352,24,24859,5,0,0:0:0:0:
364,44,24940,1,0,0:0:0:0:
444,92,25021,5,0,0:0:0:0:
404,120,25102,1,0,0:0:0:0:
359,131,25183,1,0,0:0:0:0:
312,120,25264,1,0,0:0:0:0:
252,64,25345,6,0,B|224:64|224:64|176:84,1,45.0000017166138
136,136,25508,2,0,B|108:96|108:96|108:44,1,90.0000034332277
208,70,25670,5,0,0:0:0:0:
250,90,25751,1,0,0:0:0:0:
282,126,25832,1,0,0:0:0:0:
294,173,25913,1,0,0:0:0:0:
273,251,25994,6,0,B|285:274|285:274|326:308,1,45.0000017166138
390,321,26157,2,0,B|367:364|367:364|321:388,1,90.0000034332277
221,354,26318,6,0,L|151:243,1,120
156,252,26805,1,0,0:0:0:0:
267,170,26967,5,0,0:0:0:0:
243,210,27008,1,0,0:0:0:0:
204,239,27048,1,0,0:0:0:0:
156,252,27089,1,0,0:0:0:0:
165,163,27129,5,0,0:0:0:0:
200,102,27170,1,0,0:0:0:0:
260,58,27210,1,0,0:0:0:0:
331,39,27251,1,0,0:0:0:0:
419,50,27291,6,0,B|448:76|448:76|456:120,1,60
428,260,27454,2,0,B|399:234|399:234|391:190,1,60
360,128,27616,5,0,0:0:0:0:
340,104,27697,1,0,0:0:0:0:
280,34,27778,5,0,0:0:0:0:
260,58,27859,1,0,0:0:0:0:
260,148,27940,5,0,0:0:0:0:
211,146,28021,1,0,0:0:0:0:
176,114,28102,1,0,0:0:0:0:
168,65,28183,1,0,0:0:0:0:
260,58,28264,5,0,0:0:0:0:
272,80,28345,1,0,0:0:0:0:
284,100,28427,1,0,0:0:0:0:
296,120,28508,1,0,0:0:0:0:
336,192,28589,6,0,B|317:202|317:202|279:196,1,60
388,73,28752,2,0,B|406:62|406:62|444:68,1,60
448,160,28913,5,0,0:0:0:0:
440,184,28994,1,0,0:0:0:0:
404,216,29075,1,0,0:0:0:0:
412,240,29156,1,0,0:0:0:0:
456,264,29237,5,0,0:0:0:0:
448,288,29318,1,0,0:0:0:0:
412,320,29399,1,0,0:0:0:0:
420,344,29480,1,0,0:0:0:0:
492,364,29562,5,0,0:0:0:0:
452,336,29643,1,0,0:0:0:0:
404,332,29724,1,0,0:0:0:0:
356,340,29805,1,0,0:0:0:0:
284,384,29886,5,0,0:0:0:0:
256,372,29927,1,0,0:0:0:0:
236,348,29967,1,0,0:0:0:0:
224,320,30008,1,0,0:0:0:0:
260,252,30048,1,0,0:0:0:0:
238,230,30089,1,0,0:0:0:0:
211,214,30129,1,0,0:0:0:0:
182,212,30170,1,0,0:0:0:0:
112,240,30210,5,0,0:0:0:0:
76,192,30291,1,0,0:0:0:0:
104,140,30372,1,0,0:0:0:0:
164,148,30454,1,0,0:0:0:0:
182,212,30535,5,0,0:0:0:0:
136,252,30616,1,0,0:0:0:0:
84,224,30697,1,0,0:0:0:0:
88,164,30778,1,0,0:0:0:0:
148,148,30859,5,0,0:0:0:0:
208,148,30940,1,0,0:0:0:0:
248,84,31021,1,0,0:0:0:0:
284,132,31102,1,0,0:0:0:0:
360,144,31183,5,0,0:0:0:0:
336,199,31264,1,0,0:0:0:0:
262,211,31345,1,0,0:0:0:0:
292,262,31426,1,0,0:0:0:0:
380,280,31508,5,0,0:0:0:0:
448,244,31589,1,0,0:0:0:0:
448,168,31670,1,0,0:0:0:0:
380,132,31751,1,0,0:0:0:0:
308,164,31832,1,0,0:0:0:0:
308,240,31913,1,0,0:0:0:0:
248,292,31994,1,0,0:0:0:0:
172,272,32075,1,0,0:0:0:0:
116,216,32156,6,0,B|80:176|80:176|36:164,1,90.0000034332277
196,36,32318,2,0,B|232:76|232:76|266:85,1,90.0000034332277
308,240,32481,2,0,B|272:200|272:200|237:190,1,90.0000034332277
0,80,32643,6,0,B|-32:164|-32:164|8:312,1,180.000006866455
512,304,32967,2,0,B|544:220|544:220|504:72,1,180.000006866455
256,64,33291,6,0,L|256:236,1,90.0000034332277
256,344,33454,1,0,0:0:0:0:
116,216,33616,6,0,B|80:176|80:176|36:164,1,90.0000034332277
396,216,33778,2,0,B|432:176|432:176|476:164,1,90.0000034332277
256,48,33940,5,0,0:0:0:0:
256,344,34102,6,0,L|256:172,1,90.0000034332277
256,36,34264,1,0,0:0:0:0:
256,320,34427,6,0,L|256:148,1,90.0000034332277
256,20,34589,1,0,0:0:0:0:
256,296,34751,5,0,0:0:0:0:
192,232,34832,1,0,0:0:0:0:
256,172,34913,1,0,0:0:0:0:
328,116,34994,1,0,0:0:0:0:
256,64,35075,6,0,L|256:168,1,90.0000034332277
256,364,35237,2,0,L|256:260,1,90.0000034332277
256,4,35400,5,0,0:0:0:0:
256,192,35481,12,0,35967,0:0:0:0:
256,96,36048,5,0,0:0:0:0:
256,192,36129,12,0,36615,0:0:0:0:
256,192,36697,5,0,0:0:0:0:
180,264,36859,1,0,0:0:0:0:
332,120,37021,5,0,0:0:0:0:
180,264,37183,1,0,0:0:0:0:
332,120,37345,5,0,0:0:0:0:
354,160,37427,1,0,0:0:0:0:
354,209,37508,1,0,0:0:0:0:
323,246,37589,1,0,0:0:0:0:
244,231,37670,5,0,0:0:0:0:
235,277,37752,1,0,0:0:0:0:
216,348,37832,2,0,B|253:372|253:372|309:360,1,60
392,300,37994,5,0,0:0:0:0:
376,312,38075,1,0,0:0:0:0:
352,348,38156,2,0,B|384:348|384:348|408:328,1,60
464,196,38318,5,0,0:0:0:0:
448,208,38399,1,0,0:0:0:0:
424,244,38480,2,0,B|456:244|456:244|480:224,1,60
496,88,38643,5,0,0:0:0:0:
480,100,38724,1,0,0:0:0:0:
432,84,38805,1,0,0:0:0:0:
416,96,38886,1,0,0:0:0:0:
408,140,38967,5,0,0:0:0:0:
392,152,39048,1,0,0:0:0:0:
344,136,39129,1,0,0:0:0:0:
328,148,39210,1,0,0:0:0:0:
304,188,39291,6,0,B|156:260|156:260|256:212,2,240
304,188,40264,6,0,B|320:220|320:220|320:252|356:272,1,90
424,232,40589,5,0,0:0:0:0:
432,220,40670,1,0,0:0:0:0:
440,152,40751,2,0,L|472:252,1,90.0000034332277
464,336,40913,5,0,0:0:0:0:
424,356,40994,1,0,0:0:0:0:
360,312,41075,1,0,0:0:0:0:
320,292,41156,1,0,0:0:0:0:
240,264,41237,6,0,L|220:160,1,90.0000034332277
304,56,41400,6,0,L|215:72,1,90.0000034332277
88,8,41562,2,0,L|128:264,1,180.000006866455
360,160,41886,6,0,B|360:208|360:208|428:216,1,90.0000034332277
360,160,42048,2,0,B|408:160|408:160|416:92,1,90.0000034332277
360,160,42210,2,0,B|360:112|360:112|292:104,1,90.0000034332277
360,160,42372,2,0,B|312:160|312:160|304:228,1,90.0000034332277
368,176,42535,5,0,0:0:0:0:
376,192,42616,1,0,0:0:0:0:
384,208,42697,1,0,0:0:0:0:
392,224,42778,1,0,0:0:0:0:
400,240,42859,6,0,P|372:280|312:304,1,90.0000034332277
152,160,43183,6,0,B|152:208|152:208|84:216,1,90.0000034332277
152,160,43345,2,0,B|104:160|104:160|96:92,1,90.0000034332277
152,160,43507,2,0,B|152:112|152:112|220:104,1,90.0000034332277
152,160,43669,2,0,B|200:160|200:160|208:228,1,90.0000034332277
152,160,43832,6,0,B|125:200|125:200|178:244,1,90.0000034332277
152,160,43994,2,0,B|192:186|192:186|236:133,1,90.0000034332277
152,160,44156,2,0,B|178:119|178:119|125:75,1,90.0000034332277
152,160,44318,2,0,B|111:133|111:133|67:186,1,90.0000034332277
149,177,44481,5,0,0:0:0:0:
147,195,44562,1,0,0:0:0:0:
145,213,44643,1,0,0:0:0:0:
143,231,44724,1,0,0:0:0:0:
128,296,44805,6,0,B|164:324|164:324|240:320,1,90.0000034332277
344,144,45129,5,0,0:0:0:0:
420,52,45237,1,0,0:0:0:0:
464,164,45345,1,0,0:0:0:0:
344,144,45454,2,0,B|276:140|276:140|224:80,2,120.000004577637
388,280,45778,5,0,0:0:0:0:
312,372,45886,1,0,0:0:0:0:
268,260,45994,1,0,0:0:0:0:
388,280,46103,2,0,B|456:284|456:284|508:344,2,120.000004577637
312,372,46427,6,0,P|236:368|160:284,1,160
152,240,46751,5,0,0:0:0:0:
224,208,46859,1,0,0:0:0:0:
220,128,46967,1,0,0:0:0:0:
144,104,47075,1,0,0:0:0:0:
208,152,47183,1,0,0:0:0:0:
284,132,47291,1,0,0:0:0:0:
364,140,47400,6,0,P|448:224|456:272,1,160
252,276,47724,6,0,P|352:320|272:224,1,300.000011444092
313,269,48372,6,0,B|240:212|240:212|200:144|200:144|52:156,1,240
72,328,56156,6,0,L|136:228,1,90.0000034332277
440,56,56805,6,0,L|376:156,1,90.0000034332277
440,328,57454,6,0,L|376:228,1,90.0000034332277
72,56,57778,6,0,L|136:156,1,90.0000034332277
336,368,58102,6,0,B|296:308|312:224|312:224|360:184|360:184|376:72|312:16,1,360
176,42,58427,6,0,B|136:72|152:184|152:184|200:224|200:224|216:308|176:368,1,360
96,296,58751,5,0,0:0:0:0:
88,312,58913,1,0,0:0:0:0:
256,80,59075,5,0,0:0:0:0:
256,60,59237,1,0,0:0:0:0:
416,296,59400,5,0,0:0:0:0:
424,312,59562,1,0,0:0:0:0:
256,292,59724,5,0,0:0:0:0:
256,312,59805,1,0,0:0:0:0:
256,336,59886,1,0,0:0:0:0:
256,356,59967,1,0,0:0:0:0:
256,292,60048,6,0,L|256:160,1,120
72,60,60372,6,0,P|124:136|124:36,1,240
71,60,60535,2,0,P|128:135|140:41,1,240
440,60,60697,6,0,P|388:136|388:36,1,240
256,40,61021,5,0,0:0:0:0:
256,120,61129,1,0,0:0:0:0:
256,200,61237,1,0,0:0:0:0:
256,292,61345,6,0,L|256:116,1,120
180,44,61670,5,0,0:0:0:0:
212,80,61751,1,0,0:0:0:0:
300,80,61832,1,0,0:0:0:0:
332,44,61913,1,0,0:0:0:0:
256,40,61994,6,0,L|256:152,1,60
168,160,62156,6,0,B|168:196|168:196|244:268,1,90.0000034332277
344,160,62318,2,0,B|344:196|344:196|268:268,1,90.0000034332277
256,172,62481,2,0,L|256:300,1,90.0000034332277
256,372,62643,6,0,L|256:328,1,30
136,292,62805,2,0,L|108:264,1,30
376,292,62967,2,0,L|404:264,1,30
256,262,63129,6,0,L|256:218,1,30
256,204,63291,6,0,L|256:136,1,60
256,32,63454,2,0,L|256:92,1,60
256,260,63616,6,0,L|256:24,1,227.999993911743
256,0,63940,5,0,0:0:0:0:
127,128,64102,1,0,0:0:0:0:
256,260,64264,1,0,0:0:0:0:
384,131,64426,1,0,0:0:0:0:
164,44,64589,5,0,0:0:0:0:
164,226,64751,1,0,0:0:0:0:
346,226,64913,1,0,0:0:0:0:
346,176,64994,1,0,0:0:0:0:
346,131,65075,1,0,0:0:0:0:
346,88,65156,1,0,0:0:0:0:
346,43,65237,5,0,0:0:0:0:
346,271,65400,1,0,0:0:0:0:
454,94,65562,5,0,0:0:0:0:
237,219,65725,1,0,0:0:0:0:
474,231,65886,5,0,0:0:0:0:
215,81,66049,1,0,0:0:0:0:
346,321,66210,6,0,B|390:245|302:205|302:205|370:141|370:141|330:53|354:17,1,341.999990867615
444,44,66535,5,0,0:0:0:0:
432,88,66616,1,0,0:0:0:0:
392,116,66697,1,0,0:0:0:0:
344,120,66778,1,0,0:0:0:0:
260,96,66859,5,0,0:0:0:0:
208,128,66940,1,0,0:0:0:0:
197,186,67021,1,0,0:0:0:0:
229,238,67102,1,0,0:0:0:0:
272,304,67183,5,0,0:0:0:0:
204,324,67264,1,0,0:0:0:0:
136,304,67345,1,0,0:0:0:0:
108,236,67427,1,0,0:0:0:0:
132,168,67508,1,0,0:0:0:0:
200,148,67589,1,0,0:0:0:0:
268,168,67670,1,0,0:0:0:0:
296,236,67752,1,0,0:0:0:0:
356,292,67832,6,0,B|400:288|400:288|452:228,1,90.0000034332277
500,52,67994,2,0,B|456:56|456:56|404:116,1,90.0000034332277
268,168,68156,6,0,L|464:168,1,180.000006866455
492,168,68481,6,0,L|144:168,1,270.000010299683
184,308,68805,6,0,B|68:168|68:168|196:28,1,360
336,16,69129,6,0,B|312:38|312:38|238:63,1,60,0|0,3:0|3:0,3:0:0:0:
222,168,69291,2,0,B|245:145|245:145|319:120,1,60,0|0,3:0|3:0,3:0:0:0:
346,128,69453,5,0,0:0:0:0:
345,161,69534,1,0,0:0:0:0:
316,234,69615,5,0,0:0:0:0:
294,209,69696,1,0,0:0:0:0:
222,168,69777,5,0,0:0:0:0:
219,215,69858,1,0,0:0:0:0:
184,249,69939,1,0,0:0:0:0:
135,254,70020,1,0,0:0:0:0:
57,219,70102,5,0,0:0:0:0:
55,238,70183,1,0,0:0:0:0:
30,311,70264,2,0,B|57:339|57:339|95:350,1,60
136,160,70426,6,0,B|152:124|152:124|184:100,1,60
228,344,70588,2,0,B|191:358|191:358|151:352,1,60
56,124,70751,1,0,0:0:0:0:
34,181,70832,1,0,0:0:0:0:
55,238,70913,1,0,0:0:0:0:
109,263,70994,1,0,0:0:0:0:
184,249,71075,5,0,0:0:0:0:
484,352,71399,5,0,0:0:0:0:
0,136,71723,5,0,0:0:0:0:
44,156,71804,1,0,0:0:0:0:
80,240,71885,1,0,0:0:0:0:
120,216,71966,1,0,0:0:0:0:
152,132,72047,5,0,0:0:0:0:
200,144,72129,1,0,0:0:0:0:
232,180,72210,1,0,0:0:0:0:
244,224,72291,1,0,0:0:0:0:
252,312,72372,5,0,0:0:0:0:
248,332,72453,1,0,0:0:0:0:
324,344,72534,5,0,0:0:0:0:
320,364,72615,1,0,0:0:0:0:
404,380,72696,5,0,0:0:0:0:
400,360,72777,1,0,0:0:0:0:
356,296,72858,5,0,0:0:0:0:
360,276,72939,1,0,0:0:0:0:
432,248,73020,5,0,0:0:0:0:
416,188,73102,1,0,0:0:0:0:
368,152,73183,1,0,0:0:0:0:
308,152,73264,1,0,0:0:0:0:
232,192,73345,5,0,0:0:0:0:
160,204,73426,1,0,0:0:0:0:
100,164,73507,1,0,0:0:0:0:
76,96,73588,1,0,0:0:0:0:
104,16,73669,5,0,0:0:0:0:
400,48,73832,1,0,0:0:0:0:
400,48,73886,1,0,0:0:0:0:
400,48,73940,1,0,0:0:0:0:
400,48,73994,5,0,0:0:0:0:
333,92,74102,1,0,0:0:0:0:
264,52,74210,1,0,0:0:0:0:
193,87,74318,6,0,B|161:95|161:95|84:82,1,60,0|0,3:0|3:0,3:0:0:0:
16,8,74480,2,0,B|42:27|42:27|78:96,1,60,0|0,3:0|3:0,3:0:0:0:
32,144,74642,5,0,0:0:0:0:
33,177,74723,1,0,0:0:0:0:
36,264,74804,5,0,0:0:0:0:
63,246,74885,1,0,0:0:0:0:
112,188,74966,5,0,0:0:0:0:
154,172,75047,1,0,0:0:0:0:
200,193,75128,1,0,0:0:0:0:
223,235,75209,1,0,0:0:0:0:
220,321,75291,5,0,0:0:0:0:
238,316,75372,1,0,0:0:0:0:
315,312,75453,2,0,B|330:276|330:276|326:237,1,60
197,72,75616,6,0,B|181:107|181:107|185:146,1,60
464,120,75859,2,0,B|450:83|450:83|419:58,1,60
315,312,76102,2,0,B|351:298|351:298|376:267,1,60
316,68,76345,6,0,B|331:103|331:103|327:142,1,60
49,116,76588,2,0,B|62:79|62:79|93:54,1,60
198,308,76831,2,0,B|161:294|161:294|136:263,1,60
116,196,76994,5,0,0:0:0:0:
104,216,77075,1,0,0:0:0:0:
92,236,77156,1,0,0:0:0:0:
73,304,77237,6,0,B|36:290|36:290|11:259,1,60
79,66,77400,2,0,B|115:79|115:79|140:110,1,60
116,196,77562,5,0,0:0:0:0:
180,244,77670,1,0,0:0:0:0:
248,200,77778,1,0,0:0:0:0:
312,244,77886,6,0,B|360:240|360:240|404:224,2,80
248,200,78210,5,0,0:0:0:0:
240,224,78291,1,0,0:0:0:0:
216,248,78372,1,0,0:0:0:0:
208,272,78454,1,0,0:0:0:0:
184,344,78535,6,0,B|152:340|152:340|92:300,1,60
124,72,78697,5,0,0:0:0:0:
132,100,78778,1,0,0:0:0:0:
140,128,78859,1,0,0:0:0:0:
172,148,78940,1,0,0:0:0:0:
180,176,79021,1,0,0:0:0:0:
188,204,79102,1,0,0:0:0:0:
208,272,79183,6,0,B|248:264|248:264|328:220|328:220|396:208,1,180.000006866455
496,0,79508,6,0,B|504:32|504:32|488:108,1,60
352,120,79670,2,0,B|344:88|344:88|360:12,1,60
503,207,79832,5,0,0:0:0:0:
491,175,79913,1,0,0:0:0:0:
439,115,79994,5,0,0:0:0:0:
427,147,80075,1,0,0:0:0:0:
375,211,80156,5,0,0:0:0:0:
355,167,80237,1,0,0:0:0:0:
310,147,80318,1,0,0:0:0:0:
263,159,80399,1,0,0:0:0:0:
207,223,80481,5,0,0:0:0:0:
199,207,80562,1,0,0:0:0:0:
151,147,80643,2,0,B|167:111|167:111|199:87,1,60
84,308,80805,6,0,B|47:322|47:322|7:316,1,60
308,240,80967,2,0,B|344:256|344:256|368:288,1,60
151,147,81129,1,0,0:0:0:0:
166,88,81210,1,0,0:0:0:0:
214,51,81291,1,0,0:0:0:0:
273,59,81372,1,0,0:0:0:0:
330,105,81454,5,0,0:0:0:0:
492,368,81778,5,0,0:0:0:0:
0,136,82102,5,0,0:0:0:0:
44,156,82183,1,0,0:0:0:0:
80,240,82264,1,0,0:0:0:0:
120,216,82345,1,0,0:0:0:0:
152,132,82426,5,0,0:0:0:0:
200,144,82508,1,0,0:0:0:0:
232,180,82589,1,0,0:0:0:0:
244,224,82670,1,0,0:0:0:0:
252,312,82751,5,0,0:0:0:0:
248,332,82832,1,0,0:0:0:0:
324,344,82913,5,0,0:0:0:0:
320,364,82994,1,0,0:0:0:0:
404,308,83075,5,0,0:0:0:0:
400,328,83156,1,0,0:0:0:0:
476,340,83237,5,0,0:0:0:0:
472,360,83318,1,0,0:0:0:0:
392,384,83399,5,0,0:0:0:0:
332,368,83481,1,0,0:0:0:0:
296,320,83562,1,0,0:0:0:0:
295,260,83643,1,0,0:0:0:0:
335,184,83724,5,0,0:0:0:0:
348,112,83805,1,0,0:0:0:0:
308,52,83886,1,0,0:0:0:0:
240,28,83967,1,0,0:0:0:0:
160,56,84048,5,0,0:0:0:0:
200,216,84210,1,0,0:0:0:0:
212,196,84291,1,0,0:0:0:0:
236,144,84372,6,0,L|224:96,2,40
335,184,84535,5,0,0:0:0:0:
348,204,84616,1,0,0:0:0:0:
424,240,84697,6,0,B|432:208|432:208|416:132,1,60
387,33,84859,2,0,B|379:65|379:65|395:141,1,60
480,72,85021,5,0,0:0:0:0:
468,104,85102,1,0,0:0:0:0:
416,164,85183,5,0,0:0:0:0:
404,132,85264,1,0,0:0:0:0:
352,68,85345,5,0,0:0:0:0:
332,112,85426,1,0,0:0:0:0:
287,132,85507,1,0,0:0:0:0:
240,120,85588,1,0,0:0:0:0:
184,56,85670,5,0,0:0:0:0:
176,72,85751,1,0,0:0:0:0:
128,132,85832,2,0,B|144:168|144:168|176:192,1,60
184,56,85994,6,0,B|168:20|168:20|136:-4,1,60
172,248,86156,2,0,B|209:262|209:262|249:256,1,60
40,156,86318,1,0,0:0:0:0:
8,208,86399,1,0,0:0:0:0:
16,268,86480,1,0,0:0:0:0:
64,304,86561,1,0,0:0:0:0:
136,312,86643,6,0,L|184:328,1,30
252,292,86805,2,0,L|288:272,1,30
356,348,86967,2,0,L|392:364,1,30
436,256,87129,2,0,L|460:224,1,30
344,176,87454,6,0,B|292:156|292:156|196:164,1,120
111,146,87697,2,0,B|163:166|163:166|259:158,1,120
212,277,87940,2,0,B|232:225|232:225|224:129,1,120
242,44,88183,2,0,B|222:96|222:96|230:192,1,120
344,176,88427,6,0,B|338:111|338:111|358:59,1,120
343,176,88670,2,0,B|348:240|348:240|328:292,1,120
342,176,88913,2,0,B|277:181|277:181|225:161,1,120
343,177,89156,2,0,B|407:171|407:171|459:191,1,120
328,292,89400,6,0,B|263:297|263:297|211:277,1,120
225,161,89724,6,0,B|161:156|161:156|109:176,1,120
68,316,90210,5,0,0:0:0:0:
256,192,90291,12,0,91751,0:0:0:0:
444,68,91832,5,0,0:0:0:0:
60,136,92156,6,0,B|40:192|40:192|60:280,1,120
428,344,92481,6,0,B|440:312|440:312|416:228,1,71.9999978027344
320,64,92643,2,0,B|312:100|312:100|332:176,1,71.9999978027344
408,152,92805,5,0,0:0:0:0:
392,192,92886,1,0,0:0:0:0:
340,252,92967,5,0,0:0:0:0:
312,220,93048,1,0,0:0:0:0:
240,196,93129,5,0,0:0:0:0:
212,248,93210,1,0,0:0:0:0:
160,272,93291,1,0,0:0:0:0:
104,260,93372,1,0,0:0:0:0:
56,184,93454,5,0,0:0:0:0:
40,208,93535,1,0,0:0:0:0:
0,272,93616,2,0,B|16:308|16:308|56:336,1,71.9999978027344
184,104,93778,6,0,B|168:68|168:68|136:44,1,60
291,283,93940,2,0,B|327:267|327:267|351:235,1,60
240,196,94102,1,0,0:0:0:0:
204,260,94183,1,0,0:0:0:0:
216,332,94264,1,0,0:0:0:0:
284,360,94345,1,0,0:0:0:0:
368,340,94427,5,0,0:0:0:0:
472,288,94535,1,0,0:0:0:0:
376,224,94643,1,0,0:0:0:0:
388,320,94751,6,0,P|420:356|496:380,2,95.9999970703126
428,40,95075,6,0,B|440:72|440:72|416:156,1,71.9999978027344
320,320,95237,2,0,B|312:284|312:284|332:208,1,71.9999978027344
408,232,95399,5,0,0:0:0:0:
392,192,95480,1,0,0:0:0:0:
340,132,95561,5,0,0:0:0:0:
312,164,95642,1,0,0:0:0:0:
240,188,95723,5,0,0:0:0:0:
212,136,95804,1,0,0:0:0:0:
160,112,95885,1,0,0:0:0:0:
104,124,95966,1,0,0:0:0:0:
56,200,96048,5,0,0:0:0:0:
40,176,96129,1,0,0:0:0:0:
0,112,96210,2,0,B|16:76|16:76|56:48,1,71.9999978027344
184,280,96372,6,0,B|168:316|168:316|136:340,1,60
291,101,96534,2,0,B|327:116|327:116|351:148,1,60
240,188,96696,1,0,0:0:0:0:
204,124,96777,1,0,0:0:0:0:
216,52,96858,1,0,0:0:0:0:
284,24,96939,1,0,0:0:0:0:
368,44,97021,6,0,L|416:92,1,60
368,364,97345,6,0,L|320:300,1,60
0,136,97669,5,0,0:0:0:0:
12,168,97750,1,0,0:0:0:0:
24,200,97831,1,0,0:0:0:0:
36,232,97912,1,0,0:0:0:0:
64,304,97994,6,0,B|100:304|100:304|168:252,1,71.9999978027344
328,92,98156,2,0,B|292:92|292:92|224:144,1,71.9999978027344
272,244,98318,5,0,0:0:0:0:
280,272,98399,1,0,0:0:0:0:
356,296,98481,5,0,0:0:0:0:
364,324,98562,1,0,0:0:0:0:
492,328,98642,5,0,0:0:0:0:
432,372,98723,1,0,0:0:0:0:
428,300,98804,5,0,0:0:0:0:
432,280,98885,1,0,0:0:0:0:
500,244,98966,5,0,0:0:0:0:
477,186,99048,1,0,0:0:0:0:
426,155,99129,1,0,0:0:0:0:
368,160,99210,1,0,0:0:0:0:
295,209,99291,5,0,0:0:0:0:
224,228,99372,1,0,0:0:0:0:
161,195,99453,1,0,0:0:0:0:
130,130,99534,1,0,0:0:0:0:
149,47,99615,5,0,0:0:0:0:
472,28,99940,6,0,B|408:36|408:36|332:100,1,120
468,168,100264,5,0,0:0:0:0:
445,226,100346,1,0,0:0:0:0:
394,257,100427,1,0,0:0:0:0:
336,252,100508,1,0,0:0:0:0:
263,203,100589,5,0,0:0:0:0:
192,184,100670,1,0,0:0:0:0:
129,217,100751,1,0,0:0:0:0:
98,282,100832,1,0,0:0:0:0:
117,365,100913,5,0,0:0:0:0:
496,376,101237,6,0,B|432:368|432:368|356:304,1,120
232,288,101562,5,0,0:0:0:0:
236,244,101643,1,0,0:0:0:0:
316,204,101724,1,0,0:0:0:0:
292,168,101805,1,0,0:0:0:0:
208,128,101886,1,0,0:0:0:0:
232,100,101967,2,0,L|288:36,1,71.9999978027344
380,36,102129,5,0,0:0:0:0:
404,52,102210,1,0,0:0:0:0:
412,124,102291,1,0,0:0:0:0:
420,196,102372,2,0,B|424:237|424:237|412:292,1,71.9999978027344
344,368,102535,5,0,0:0:0:0:
296,368,102575,1,0,0:0:0:0:
248,344,102616,1,0,0:0:0:0:
208,316,102656,1,0,0:0:0:0:
176,272,102697,1,0,0:0:0:0:
164,224,102737,1,0,0:0:0:0:
156,172,102778,1,0,0:0:0:0:
168,124,102818,1,0,0:0:0:0:
192,76,102859,6,0,B|236:112|236:112|312:116,1,120
487,75,103183,6,0,B|443:39|443:39|367:35,1,120
310,227,103345,2,0,B|354:263|354:263|430:267,1,120
48,252,103508,5,0,0:0:0:0:
