osu file format v14

[General]
AudioFilename: audio.mp3
AudioLeadIn: 0
PreviewTime: 92692
Countdown: 0
SampleSet: Soft
StackLeniency: 0.7
Mode: 3
LetterboxInBreaks: 0
SpecialStyle: 0
WidescreenStoryboard: 1

[Editor]
DistanceSpacing: 0.6
BeatDivisor: 4
GridSize: 32
TimelineZoom: 1.3

[Metadata]
Title:Event Horizon
TitleUnicode:Event Horizon
Artist:Nizikawa
ArtistUnicode:Nizikawa
Creator:Ortlinde
Version:Easy
Source:VOEZ
Tags:Rayark
BeatmapID:1474934
BeatmapSetID:696261

[Difficulty]
HPDrainRate:6.5
CircleSize:4
OverallDifficulty:6
ApproachRate:5
SliderMultiplier:1.4
SliderTickRate:1

[Events]
//Background and Video events
0,0,"Event_Horizon.jpg",0,0
//Break Periods
//Storyboard Layer 0 (Background)
//Storyboard Layer 1 (Fail)
//Storyboard Layer 2 (Pass)
//Storyboard Layer 3 (Foreground)
//Storyboard Sound Samples

[TimingPoints]
204,292.682926829268,4,2,0,20,1,0
92691,-100,4,2,0,20,0,1
115228,-100,4,2,0,20,0,0

[HitObjects]
192,192,1374,5,0,0:0:0:0:
192,192,1960,1,0,0:0:0:0:
320,192,2545,1,0,0:0:0:0:
64,192,3130,1,0,0:0:0:0:
320,192,3716,1,0,0:0:0:0:
320,192,4301,1,0,0:0:0:0:
192,192,4886,1,0,0:0:0:0:
448,192,5472,1,0,0:0:0:0:
192,192,6057,1,0,0:0:0:0:
192,192,6643,1,0,0:0:0:0:
448,192,7228,1,0,0:0:0:0:
64,192,7813,1,0,0:0:0:0:
320,192,8399,128,0,10740:0:0:0:0:
448,192,11911,1,0,0:0:0:0:
448,192,12350,1,0,0:0:0:0:
64,192,13082,1,0,0:0:0:0:
64,192,13521,1,0,0:0:0:0:
320,192,14252,1,0,0:0:0:0:
320,192,14691,1,0,0:0:0:0:
192,192,15423,1,0,0:0:0:0:
192,192,15862,1,0,0:0:0:0:
448,192,16594,1,0,0:0:0:0:
64,192,17179,1,0,0:0:0:0:
320,192,17764,1,0,0:0:0:0:
192,192,18350,1,0,0:0:0:0:
448,192,18935,1,0,0:0:0:0:
64,192,19228,1,0,0:0:0:0:
320,192,19521,1,0,0:0:0:0:
192,192,19813,1,0,0:0:0:0:
448,192,20106,128,0,21277:0:0:0:0:
170,192,21277,1,0,0:0:0:0:
64,192,21569,1,0,0:0:0:0:
320,192,21862,1,0,0:0:0:0:
448,192,22155,1,0,0:0:0:0:
64,192,22447,1,0,0:0:0:0:
192,192,22740,1,0,0:0:0:0:
448,192,23033,1,0,0:0:0:0:
320,192,23325,1,0,0:0:0:0:
64,192,23618,1,0,0:0:0:0:
448,192,23911,1,0,0:0:0:0:
192,192,24203,1,0,0:0:0:0:
320,192,24496,1,0,0:0:0:0:
448,192,24789,1,0,0:0:0:0:
64,192,25082,1,0,0:0:0:0:
192,192,25228,1,0,0:0:0:0:
448,192,25521,1,0,0:0:0:0:
320,192,25667,128,0,25960:0:0:0:0:
192,192,25960,1,0,0:0:0:0:
192,192,26252,1,0,0:0:0:0:
448,192,26545,1,0,0:0:0:0:
448,192,26838,1,0,0:0:0:0:
64,192,27130,1,0,0:0:0:0:
64,192,27423,1,0,0:0:0:0:
320,192,27716,1,0,0:0:0:0:
320,192,28008,1,0,0:0:0:0:
192,192,28301,1,0,0:0:0:0:
192,192,28594,1,0,0:0:0:0:
448,192,28886,1,0,0:0:0:0:
64,192,29179,1,0,0:0:0:0:
320,192,29472,1,0,0:0:0:0:
192,192,30350,1,0,0:0:0:0:
448,192,30643,128,0,31813:0:0:0:0:
64,192,31813,1,0,0:0:0:0:
192,192,32106,1,0,0:0:0:0:
320,192,32399,1,0,0:0:0:0:
448,192,32691,1,0,0:0:0:0:
64,192,32984,128,0,34155:0:0:0:0:
448,192,34155,1,0,0:0:0:0:
320,192,34447,1,0,0:0:0:0:
192,192,34740,1,0,0:0:0:0:
64,192,35033,1,0,0:0:0:0:
448,192,35325,128,0,36496:0:0:0:0:
64,192,36496,1,0,0:0:0:0:
192,192,36789,1,0,0:0:0:0:
320,192,37082,1,0,0:0:0:0:
448,192,37374,1,0,0:0:0:0:
64,192,37667,1,0,0:0:0:0:
320,192,37960,1,0,0:0:0:0:
192,192,38252,1,0,0:0:0:0:
448,192,38545,1,0,0:0:0:0:
64,192,38838,128,0,40008:0:0:0:0:
448,192,40008,1,0,0:0:0:0:
192,192,40594,1,0,0:0:0:0:
320,192,40886,128,0,41179:0:0:0:0:
64,192,41179,1,0,0:0:0:0:
448,192,41764,1,0,0:0:0:0:
192,192,42057,1,0,0:0:0:0:
64,192,42350,1,0,0:0:0:0:
320,192,42935,1,0,0:0:0:0:
448,192,43521,128,0,44106:0:0:0:0:
64,192,44106,128,0,44691:0:0:0:0:
320,192,44691,1,0,0:0:0:0:
192,192,45277,1,0,0:0:0:0:
320,192,45423,1,0,0:0:0:0:
448,192,45569,1,0,0:0:0:0:
64,192,45862,1,0,0:0:0:0:
192,192,46447,1,0,0:0:0:0:
448,192,46740,1,0,0:0:0:0:
64,192,47179,1,0,0:0:0:0:
192,192,47618,1,0,0:0:0:0:
320,192,48057,1,0,0:0:0:0:
64,192,48203,128,0,48789:0:0:0:0:
448,192,48789,128,0,49374:0:0:0:0:
320,192,49374,1,0,0:0:0:0:
192,192,49960,1,0,0:0:0:0:
64,192,50545,128,0,54643:0:0:0:0:
448,192,54643,128,0,55228:0:0:0:0:
320,192,55228,128,0,57569:0:0:0:0:
192,192,57569,128,0,59911:0:0:0:0:
64,192,59911,128,0,61667:0:0:0:0:
448,192,61667,1,0,0:0:0:0:
320,192,62252,128,0,63423:0:0:0:0:
192,192,63423,128,0,64594:0:0:0:0:
448,192,64594,128,0,66935:0:0:0:0:
64,192,66935,1,0,0:0:0:0:
192,192,67374,1,0,0:0:0:0:
320,192,67813,1,0,0:0:0:0:
448,192,68106,1,0,0:0:0:0:
64,192,68691,1,0,0:0:0:0:
448,192,68984,1,0,0:0:0:0:
192,192,69277,128,0,70447:0:0:0:0:
320,192,70447,128,0,71618:0:0:0:0:
64,192,71618,128,0,72789:0:0:0:0:
448,192,72789,128,0,73960:0:0:0:0:
192,192,73960,128,0,75130:0:0:0:0:
320,192,75130,128,0,76301:0:0:0:0:
448,192,76301,128,0,77472:0:0:0:0:
320,192,77472,1,0,0:0:0:0:
192,192,77764,1,0,0:0:0:0:
64,192,77911,1,0,0:0:0:0:
320,192,78203,1,0,0:0:0:0:
448,192,78350,1,0,0:0:0:0:
64,192,78643,1,0,0:0:0:0:
64,192,79228,1,0,0:0:0:0:
192,192,79813,1,0,0:0:0:0:
192,192,80399,1,0,0:0:0:0:
320,192,80984,1,0,0:0:0:0:
320,192,81569,1,0,0:0:0:0:
448,192,82155,1,0,0:0:0:0:
448,192,82740,1,0,0:0:0:0:
64,192,83325,1,0,0:0:0:0:
192,192,83911,1,0,0:0:0:0:
448,192,84496,1,0,0:0:0:0:
320,192,85082,1,0,0:0:0:0:
192,192,85667,1,0,0:0:0:0:
64,192,86252,1,0,0:0:0:0:
320,192,86838,1,0,0:0:0:0:
448,192,87423,1,0,0:0:0:0:
64,192,88008,1,0,0:0:0:0:
192,192,88301,1,0,0:0:0:0:
320,192,88594,1,0,0:0:0:0:
448,192,88886,1,0,0:0:0:0:
64,192,89179,1,0,0:0:0:0:
192,192,89472,1,0,0:0:0:0:
320,192,89764,1,0,0:0:0:0:
448,192,90057,1,0,0:0:0:0:
64,192,90350,128,0,91521:0:0:0:0:
448,192,91667,1,0,0:0:0:0:
320,192,91960,1,0,0:0:0:0:
192,192,92106,1,0,0:0:0:0:
64,192,92399,1,0,0:0:0:0:
448,192,92691,1,0,0:0:0:0:
192,192,92984,1,0,0:0:0:0:
448,192,93277,1,0,0:0:0:0:
64,192,93569,1,0,0:0:0:0:
320,192,93862,1,0,0:0:0:0:
320,192,94155,1,0,0:0:0:0:
192,192,94447,1,0,0:0:0:0:
320,192,94740,1,0,0:0:0:0:
448,192,95033,1,0,0:0:0:0:
64,192,95325,1,0,0:0:0:0:
448,192,95618,1,0,0:0:0:0:
192,192,95911,1,0,0:0:0:0:
320,192,96203,1,0,0:0:0:0:
320,192,96496,1,0,0:0:0:0:
448,192,96789,1,0,0:0:0:0:
192,192,97082,1,0,0:0:0:0:
64,192,97374,1,0,0:0:0:0:
320,192,97667,1,0,0:0:0:0:
64,192,97960,1,0,0:0:0:0:
448,192,98252,1,0,0:0:0:0:
192,192,98545,128,0,99716:0:0:0:0:
448,192,99716,1,0,0:0:0:0:
320,192,100008,1,0,0:0:0:0:
192,192,100301,1,0,0:0:0:0:
64,192,100521,1,0,0:0:0:0:
320,192,100740,1,0,0:0:0:0:
320,192,101033,1,0,0:0:0:0:
192,192,101179,1,0,0:0:0:0:
64,192,101472,1,0,0:0:0:0:
448,192,101764,1,0,0:0:0:0:
192,192,102057,1,0,0:0:0:0:
64,192,102350,1,0,0:0:0:0:
64,192,102643,1,0,0:0:0:0:
320,192,102935,1,0,0:0:0:0:
448,192,103228,1,0,0:0:0:0:
448,192,103521,1,0,0:0:0:0:
192,192,103813,1,0,0:0:0:0:
320,192,104106,1,0,0:0:0:0:
64,192,104399,1,0,0:0:0:0:
448,192,104984,1,0,0:0:0:0:
192,192,105423,1,0,0:0:0:0:
448,192,105716,1,0,0:0:0:0:
320,192,105935,1,0,0:0:0:0:
192,192,106155,1,0,0:0:0:0:
64,192,106374,1,0,0:0:0:0:
448,192,106740,128,0,107911:0:0:0:0:
64,192,107911,128,0,109082:0:0:0:0:
320,192,109082,1,0,0:0:0:0:
192,192,109667,1,0,0:0:0:0:
448,192,110106,128,0,110764:0:0:0:0:
320,192,110764,128,0,111423:0:0:0:0:
192,192,111423,128,0,112082:0:0:0:0:
64,192,112082,128,0,112740:0:0:0:0:
448,192,112740,128,0,113399:0:0:0:0:
320,192,113399,1,0,0:0:0:0:
64,192,113618,128,0,114057:0:0:0:0:
192,192,114057,128,0,114350:0:0:0:0:
448,192,114350,128,0,114935:0:0:0:0:
64,192,114496,1,0,0:0:0:0:
320,192,115228,1,0,0:0:0:0:
