osu file format v14

[General]
AudioFilename: Nizikawa - 401.mp3
AudioLeadIn: 0
PreviewTime: 133244
Countdown: 0
SampleSet: Soft
StackLeniency: 0.7
Mode: 3
LetterboxInBreaks: 0
SpecialStyle: 0
WidescreenStoryboard: 0

[Editor]
DistanceSpacing: 1
BeatDivisor: 4
GridSize: 4
TimelineZoom: 1.4

[Metadata]
Title:401
TitleUnicode:401
Artist:Nizikawa
ArtistUnicode:Nizikawa
Creator:Frim4503
Version:Mogucchau yo!
Source:
Tags:yon maru ichi shioi Kantai Collection marathon kancolle hardcore Electronic Instrumental remix vocal sample bass
BeatmapID:1569750
BeatmapSetID:744508

[Difficulty]
HPDrainRate:8.5
CircleSize:5
OverallDifficulty:8.5
ApproachRate:5
SliderMultiplier:1.8
SliderTickRate:1

[Events]
//Background and Video events
0,0,"401.jpg",0,0
//Break Periods
//Storyboard Layer 0 (Background)
//Storyboard Layer 1 (Fail)
//Storyboard Layer 2 (Pass)
//Storyboard Layer 3 (Foreground)
//Storyboard Layer 4 (Overlay)
//Storyboard Sound Samples

[TimingPoints]
444,400,4,2,3,55,1,0
51644,-100,4,2,4,55,0,1
77244,-100,4,2,3,55,0,0
78044,-166.666666666667,4,2,3,55,0,0
78244,-71.4285714285714,4,2,3,55,0,0
78444,-166.666666666667,4,2,3,55,0,0
78644,-71.4285714285714,4,2,3,55,0,0
78844,-166.666666666667,4,2,3,55,0,0
79044,-71.4285714285714,4,2,3,55,0,0
79244,-166.666666666667,4,2,3,55,0,0
79444,-71.4285714285714,4,2,3,55,0,0
79644,-166.666666666667,4,2,3,55,0,0
79844,-71.4285714285714,4,2,3,55,0,0
80044,-166.666666666667,4,2,3,55,0,0
80244,-71.4285714285714,4,2,3,55,0,0
80444,-166.666666666667,4,2,3,55,0,0
80644,-71.4285714285714,4,2,3,55,0,0
80844,-166.666666666667,4,2,3,55,0,0
81044,-71.4285714285714,4,2,3,55,0,0
81244,-166.666666666667,4,2,3,55,0,0
81444,-71.4285714285714,4,2,3,55,0,0
81644,-166.666666666667,4,2,3,55,0,0
81844,-71.4285714285714,4,2,3,55,0,0
82044,-166.666666666667,4,2,3,55,0,0
82244,-71.4285714285714,4,2,3,55,0,0
82444,-166.666666666667,4,2,3,55,0,0
82644,-71.4285714285714,4,2,3,55,0,0
82844,-166.666666666667,4,2,3,55,0,0
83244,-71.4285714285714,4,2,3,55,0,0
83344,-166.666666666667,4,2,3,55,0,0
83444,-62.5,4,2,3,55,0,0
83644,-125,4,2,3,55,0,0
109244,-111.111111111111,4,2,3,55,0,0
122044,-100,4,2,3,55,0,0
147644,-100,4,2,4,55,0,0
153244,-100,4,2,3,55,0,0
154044,-100,4,2,4,55,0,0
172344,-100,4,2,3,55,0,0
173244,-100,4,2,4,55,0,0
186044,-100,4,2,4,55,0,1
211644,-100,4,2,3,55,0,0
212444,-166.666666666667,4,2,3,55,0,0
212644,-71.4285714285714,4,2,3,55,0,0
212844,-166.666666666667,4,2,3,55,0,0
213044,-71.4285714285714,4,2,3,55,0,0
213244,-166.666666666667,4,2,3,55,0,0
213444,-71.4285714285714,4,2,3,55,0,0
213644,-166.666666666667,4,2,3,55,0,0
213844,-71.4285714285714,4,2,3,55,0,0
214044,-166.666666666667,4,2,3,55,0,0
214244,-71.4285714285714,4,2,3,55,0,0
214444,-166.666666666667,4,2,3,55,0,0
214644,-71.4285714285714,4,2,3,55,0,0
214844,-166.666666666667,4,2,3,55,0,0
215044,-71.4285714285714,4,2,3,55,0,0
215244,-166.666666666667,4,2,3,55,0,0
215444,-71.4285714285714,4,2,3,55,0,0
215644,-166.666666666667,4,2,3,55,0,0
215844,-71.4285714285714,4,2,3,55,0,0
216044,-166.666666666667,4,2,3,55,0,0
216244,-71.4285714285714,4,2,3,55,0,0
216444,-166.666666666667,4,2,3,55,0,0
216644,-71.4285714285714,4,2,3,55,0,0
216844,-166.666666666667,4,2,3,55,0,0
217044,-71.4285714285714,4,2,3,55,0,0
217244,-166.666666666667,4,2,3,55,0,0
217644,-71.4285714285714,4,2,3,55,0,0
217744,-166.666666666667,4,2,3,55,0,0
217844,-62.5,4,2,3,55,0,0
218044,-125,4,2,3,55,0,0
243644,-111.111111111111,4,2,3,55,0,0
256444,-100,4,2,4,55,0,0
269244,-100,4,2,4,55,0,1
294844,-100,4,2,3,55,0,0
295244,-100,4,2,3,55,0,1
320444,-100,4,2,4,55,0,0

[HitObjects]
460,192,444,5,2,0:0:0:0:
51,192,444,128,4,744:0:0:0:0:
153,192,444,1,0,0:0:0:0:
256,192,744,1,0,0:0:0:0:
51,192,844,128,0,944:0:0:0:0:
358,192,844,1,0,0:0:0:0:
51,192,1044,128,0,1144:0:0:0:0:
460,192,1044,1,0,0:0:0:0:
153,192,1244,1,0,0:0:0:0:
51,192,1444,128,0,1544:0:0:0:0:
358,192,1444,1,0,0:0:0:0:
256,192,1544,1,0,0:0:0:0:
153,192,1644,1,0,0:0:0:0:
460,192,1844,1,0,0:0:0:0:
51,192,2044,1,0,0:0:0:0:
358,192,2044,1,2,0:0:0:0:
460,192,2344,1,0,0:0:0:0:
153,192,2444,1,0,0:0:0:0:
256,192,2644,1,0,0:0:0:0:
51,192,2844,1,0,0:0:0:0:
460,192,3044,1,0,0:0:0:0:
358,192,3144,1,0,0:0:0:0:
256,192,3244,1,0,0:0:0:0:
153,192,3444,1,0,0:0:0:0:
460,192,3644,128,0,3944:0:0:0:0:
51,192,3644,1,2,0:0:0:0:
358,192,3944,1,0,0:0:0:0:
460,192,4044,128,0,4144:0:0:0:0:
153,192,4044,1,0,0:0:0:0:
460,192,4244,128,0,4344:0:0:0:0:
51,192,4244,1,0,0:0:0:0:
256,192,4444,1,0,0:0:0:0:
460,192,4644,128,0,4744:0:0:0:0:
51,192,4644,1,0,0:0:0:0:
153,192,4744,1,0,0:0:0:0:
358,192,4844,1,0,0:0:0:0:
256,192,5044,1,0,0:0:0:0:
460,192,5244,1,0,0:0:0:0:
153,192,5244,1,2,0:0:0:0:
256,192,5544,1,0,0:0:0:0:
51,192,5644,1,0,0:0:0:0:
460,192,5844,1,0,0:0:0:0:
153,192,6044,5,0,0:0:0:0:
256,192,6044,1,2,0:0:0:0:
460,192,6344,1,0,0:0:0:0:
358,192,6444,1,0,0:0:0:0:
51,192,6644,1,0,0:0:0:0:
153,192,6844,128,0,7144:0:0:0:0:
256,192,6844,1,2,0:0:0:0:
460,192,7144,1,0,0:0:0:0:
153,192,7244,128,0,7344:0:0:0:0:
358,192,7244,1,0,0:0:0:0:
153,192,7444,128,0,7544:0:0:0:0:
256,192,7444,1,0,0:0:0:0:
460,192,7644,1,0,0:0:0:0:
153,192,7844,128,0,7944:0:0:0:0:
51,192,7844,1,0,0:0:0:0:
256,192,7944,1,0,0:0:0:0:
460,192,8044,1,0,0:0:0:0:
358,192,8244,1,0,0:0:0:0:
51,192,8444,1,2,0:0:0:0:
153,192,8444,1,0,0:0:0:0:
460,192,8744,1,0,0:0:0:0:
358,192,8844,1,0,0:0:0:0:
51,192,9044,1,0,0:0:0:0:
256,192,9244,1,0,0:0:0:0:
460,192,9444,1,0,0:0:0:0:
153,192,9544,1,0,0:0:0:0:
51,192,9644,1,0,0:0:0:0:
256,192,9844,1,0,0:0:0:0:
358,192,10044,128,0,10344:0:0:0:0:
51,192,10044,1,2,0:0:0:0:
460,192,10344,1,0,0:0:0:0:
358,192,10444,128,0,10544:0:0:0:0:
256,192,10444,1,0,0:0:0:0:
358,192,10644,128,0,10744:0:0:0:0:
51,192,10644,1,0,0:0:0:0:
153,192,10844,1,0,0:0:0:0:
358,192,11044,128,0,11144:0:0:0:0:
460,192,11044,1,0,0:0:0:0:
256,192,11144,1,0,0:0:0:0:
51,192,11244,1,0,0:0:0:0:
358,192,11444,1,0,0:0:0:0:
460,192,11644,5,2,0:0:0:0:
51,192,11644,1,0,0:0:0:0:
153,192,11694,1,0,0:0:0:0:
256,192,11744,1,0,0:0:0:0:
358,192,11794,1,0,0:0:0:0:
460,192,11844,1,0,0:0:0:0:
51,192,11844,1,0,0:0:0:0:
153,192,11894,1,0,0:0:0:0:
256,192,11944,1,0,0:0:0:0:
358,192,11994,1,0,0:0:0:0:
51,192,12044,1,0,0:0:0:0:
460,192,12044,1,0,0:0:0:0:
153,192,12144,1,0,0:0:0:0:
358,192,12244,1,0,0:0:0:0:
460,192,12344,1,0,0:0:0:0:
51,192,12444,1,0,0:0:0:0:
256,192,12544,1,0,0:0:0:0:
460,192,12644,1,0,0:0:0:0:
153,192,12744,1,0,0:0:0:0:
358,192,12844,1,0,0:0:0:0:
51,192,12944,1,0,0:0:0:0:
256,192,13044,1,0,0:0:0:0:
51,192,13144,1,0,0:0:0:0:
358,192,13244,1,8,0:0:0:0:
460,192,13244,1,4,0:0:0:0:
256,192,13244,128,0,13544:0:0:0:0:
153,192,13644,128,0,13744:0:0:0:0:
51,192,13644,1,8,0:0:0:0:
358,192,13644,1,0,0:0:0:0:
153,192,13844,128,0,13944:0:0:0:0:
256,192,14044,1,0,0:0:0:0:
460,192,14044,1,0,0:0:0:0:
358,192,14044,1,8,0:0:0:0:
460,192,14244,128,0,14344:0:0:0:0:
358,192,14444,1,0,0:0:0:0:
51,192,14444,1,0,0:0:0:0:
153,192,14444,1,8,0:0:0:0:
256,192,14644,128,0,14744:0:0:0:0:
153,192,14844,1,0,0:0:0:0:
460,192,14844,1,8,0:0:0:0:
358,192,14844,1,0,0:0:0:0:
51,192,15044,128,0,15144:0:0:0:0:
358,192,15144,128,0,15244:0:0:0:0:
153,192,15244,1,0,0:0:0:0:
256,192,15244,1,8,0:0:0:0:
460,192,15244,1,0,0:0:0:0:
153,192,15444,128,0,15544:0:0:0:0:
460,192,15644,128,0,16044:0:0:0:0:
358,192,15644,1,0,0:0:0:0:
51,192,15644,1,8,0:0:0:0:
358,192,16044,128,0,16444:0:0:0:0:
153,192,16044,1,8,0:0:0:0:
256,192,16044,1,0,0:0:0:0:
256,192,16444,128,0,16744:0:0:0:0:
460,192,16444,1,8,0:0:0:0:
51,192,16444,1,0,0:0:0:0:
51,192,16844,128,0,16944:0:0:0:0:
358,192,16844,1,0,0:0:0:0:
153,192,16844,1,8,0:0:0:0:
51,192,17044,128,0,17144:0:0:0:0:
460,192,17244,1,0,0:0:0:0:
256,192,17244,1,0,0:0:0:0:
358,192,17244,1,8,0:0:0:0:
153,192,17444,128,0,17544:0:0:0:0:
51,192,17644,1,8,0:0:0:0:
256,192,17644,1,0,0:0:0:0:
460,192,17644,1,0,0:0:0:0:
358,192,17844,128,0,17944:0:0:0:0:
153,192,18044,1,8,0:0:0:0:
51,192,18044,1,0,0:0:0:0:
256,192,18044,1,0,0:0:0:0:
460,192,18244,128,0,18344:0:0:0:0:
256,192,18344,128,0,18444:0:0:0:0:
153,192,18444,1,0,0:0:0:0:
358,192,18444,1,8,0:0:0:0:
51,192,18444,1,0,0:0:0:0:
51,192,18644,128,0,18744:0:0:0:0:
153,192,18844,128,0,19244:0:0:0:0:
358,192,18844,1,0,0:0:0:0:
256,192,18844,1,8,0:0:0:0:
358,192,19244,128,0,19644:0:0:0:0:
460,192,19244,1,8,0:0:0:0:
51,192,19244,1,0,0:0:0:0:
256,192,19644,128,0,19944:0:0:0:0:
153,192,19644,1,0,0:0:0:0:
51,192,19644,1,8,0:0:0:0:
460,192,19844,1,8,0:0:0:0:
358,192,19844,1,0,0:0:0:0:
460,192,20044,128,0,20144:0:0:0:0:
51,192,20044,1,0,0:0:0:0:
153,192,20044,1,8,0:0:0:0:
460,192,20244,128,0,20344:0:0:0:0:
358,192,20244,1,0,0:0:0:0:
256,192,20244,1,8,0:0:0:0:
51,192,20344,1,8,0:0:0:0:
358,192,20444,1,2,0:0:0:0:
256,192,20444,1,0,0:0:0:0:
153,192,20644,128,0,20744:0:0:0:0:
51,192,20644,1,8,0:0:0:0:
460,192,20644,1,0,0:0:0:0:
358,192,20844,1,0,0:0:0:0:
256,192,20844,1,8,0:0:0:0:
358,192,21044,128,0,21144:0:0:0:0:
51,192,21044,1,0,0:0:0:0:
153,192,21044,1,8,0:0:0:0:
256,192,21144,1,8,0:0:0:0:
460,192,21244,1,2,0:0:0:0:
51,192,21244,1,0,0:0:0:0:
256,192,21444,128,0,21544:0:0:0:0:
358,192,21444,1,8,0:0:0:0:
153,192,21444,1,0,0:0:0:0:
51,192,21544,128,0,21644:0:0:0:0:
358,192,21644,1,0,0:0:0:0:
460,192,21644,1,8,0:0:0:0:
153,192,21844,128,0,21944:0:0:0:0:
256,192,21844,1,0,0:0:0:0:
460,192,21844,1,8,0:0:0:0:
358,192,21944,1,8,0:0:0:0:
460,192,22044,128,0,22444:0:0:0:0:
256,192,22044,1,2,0:0:0:0:
51,192,22044,1,0,0:0:0:0:
51,192,22244,1,8,0:0:0:0:
153,192,22244,1,0,0:0:0:0:
358,192,22444,128,0,22844:0:0:0:0:
153,192,22444,1,8,0:0:0:0:
256,192,22444,1,0,0:0:0:0:
256,192,22644,1,8,0:0:0:0:
51,192,22644,1,0,0:0:0:0:
153,192,22744,1,8,0:0:0:0:
51,192,22844,1,2,0:0:0:0:
460,192,22844,1,0,0:0:0:0:
256,192,22944,1,0,0:0:0:0:
153,192,23044,1,0,0:0:0:0:
358,192,23044,1,2,0:0:0:0:
460,192,23144,1,0,0:0:0:0:
51,192,23244,1,2,0:0:0:0:
256,192,23244,1,0,0:0:0:0:
153,192,23344,1,0,0:0:0:0:
460,192,23444,1,2,0:0:0:0:
358,192,23444,1,0,0:0:0:0:
256,192,23544,1,0,0:0:0:0:
51,192,23644,1,0,0:0:0:0:
153,192,23644,1,2,0:0:0:0:
460,192,23744,1,0,0:0:0:0:
358,192,23744,1,2,0:0:0:0:
153,192,23844,1,0,0:0:0:0:
51,192,23844,1,2,0:0:0:0:
358,192,23944,1,0,0:0:0:0:
256,192,23944,1,2,0:0:0:0:
153,192,24044,1,2,0:0:0:0:
51,192,24044,1,0,0:0:0:0:
358,192,24144,1,2,0:0:0:0:
460,192,24144,1,0,0:0:0:0:
51,192,24244,1,2,0:0:0:0:
153,192,24244,1,0,0:0:0:0:
358,192,24344,1,0,0:0:0:0:
256,192,24344,1,2,0:0:0:0:
460,192,24444,1,2,0:0:0:0:
153,192,24444,1,4,0:0:0:0:
51,192,24444,1,0,0:0:0:0:
358,192,24644,128,0,24744:0:0:0:0:
256,192,24744,128,0,24844:0:0:0:0:
153,192,24844,1,0,0:0:0:0:
51,192,25044,128,0,25144:0:0:0:0:
153,192,25244,1,0,0:0:0:0:
358,192,25444,128,0,25844:0:0:0:0:
460,192,25444,1,0,0:0:0:0:
256,192,25544,1,0,0:0:0:0:
153,192,25644,128,0,25844:0:0:0:0:
51,192,25644,1,0,0:0:0:0:
51,192,26044,1,4,0:0:0:0:
460,192,26044,1,0,0:0:0:0:
256,192,26044,1,2,0:0:0:0:
358,192,26244,128,0,26344:0:0:0:0:
51,192,26444,1,0,0:0:0:0:
153,192,26444,1,2,0:0:0:0:
256,192,26544,1,0,0:0:0:0:
460,192,26644,128,0,26744:0:0:0:0:
153,192,26844,1,0,0:0:0:0:
358,192,26844,1,2,0:0:0:0:
256,192,26944,1,0,0:0:0:0:
51,192,27044,128,0,27144:0:0:0:0:
153,192,27144,1,0,0:0:0:0:
460,192,27244,1,2,0:0:0:0:
358,192,27244,1,0,0:0:0:0:
256,192,27444,128,0,27544:0:0:0:0:
51,192,27644,1,2,0:0:0:0:
153,192,27644,1,0,0:0:0:0:
358,192,27844,128,0,27944:0:0:0:0:
460,192,28044,1,0,0:0:0:0:
256,192,28044,1,2,0:0:0:0:
153,192,28244,128,0,28344:0:0:0:0:
460,192,28344,1,0,0:0:0:0:
256,192,28444,1,0,0:0:0:0:
358,192,28444,1,2,0:0:0:0:
51,192,28544,1,0,0:0:0:0:
358,192,28644,128,0,28744:0:0:0:0:
460,192,28744,1,0,0:0:0:0:
256,192,28844,1,0,0:0:0:0:
153,192,28844,1,2,0:0:0:0:
51,192,29044,128,0,29144:0:0:0:0:
460,192,29244,1,2,0:0:0:0:
153,192,29244,1,0,0:0:0:0:
256,192,29444,128,0,29544:0:0:0:0:
358,192,29644,1,0,0:0:0:0:
51,192,29644,1,2,0:0:0:0:
153,192,29744,1,0,0:0:0:0:
460,192,29744,128,0,29844:0:0:0:0:
256,192,30044,1,2,0:0:0:0:
51,192,30044,1,0,0:0:0:0:
460,192,30144,1,0,0:0:0:0:
358,192,30244,128,0,30344:0:0:0:0:
256,192,30344,1,0,0:0:0:0:
51,192,30444,1,0,0:0:0:0:
153,192,30444,1,2,0:0:0:0:
153,192,30644,128,0,30744:0:0:0:0:
358,192,30844,1,0,0:0:0:0:
460,192,30844,1,2,0:0:0:0:
51,192,31044,128,0,31144:0:0:0:0:
153,192,31244,1,2,0:0:0:0:
460,192,31244,1,0,0:0:0:0:
358,192,31344,1,0,0:0:0:0:
256,192,31444,128,0,31544:0:0:0:0:
51,192,31644,1,2,0:0:0:0:
153,192,31644,1,0,0:0:0:0:
460,192,31744,1,0,0:0:0:0:
358,192,31844,128,0,31944:0:0:0:0:
256,192,31944,1,0,0:0:0:0:
153,192,32044,1,2,0:0:0:0:
51,192,32044,1,0,0:0:0:0:
153,192,32244,128,0,32344:0:0:0:0:
256,192,32444,1,2,0:0:0:0:
358,192,32444,1,0,0:0:0:0:
460,192,32644,128,0,32744:0:0:0:0:
153,192,32844,1,0,0:0:0:0:
51,192,32844,1,2,0:0:0:0:
358,192,32944,1,0,0:0:0:0:
256,192,33044,128,0,33144:0:0:0:0:
460,192,33244,1,2,0:0:0:0:
153,192,33244,1,0,0:0:0:0:
358,192,33344,1,0,0:0:0:0:
51,192,33444,128,0,33544:0:0:0:0:
256,192,33544,1,0,0:0:0:0:
153,192,33644,1,2,0:0:0:0:
460,192,33644,1,0,0:0:0:0:
153,192,33844,128,0,33944:0:0:0:0:
51,192,34044,1,0,0:0:0:0:
256,192,34044,1,2,0:0:0:0:
358,192,34244,128,0,34344:0:0:0:0:
153,192,34444,1,0,0:0:0:0:
460,192,34444,1,2,0:0:0:0:
256,192,34644,128,0,34744:0:0:0:0:
358,192,34744,1,0,0:0:0:0:
153,192,34844,1,0,0:0:0:0:
51,192,34844,1,2,0:0:0:0:
256,192,34944,1,0,0:0:0:0:
460,192,35044,128,0,35144:0:0:0:0:
358,192,35144,1,0,0:0:0:0:
153,192,35244,1,0,0:0:0:0:
256,192,35244,1,2,0:0:0:0:
51,192,35444,128,0,35544:0:0:0:0:
460,192,35644,1,0,0:0:0:0:
358,192,35644,1,2,0:0:0:0:
358,192,35844,128,0,35944:0:0:0:0:
153,192,36044,1,0,0:0:0:0:
51,192,36044,1,2,0:0:0:0:
256,192,36144,1,0,0:0:0:0:
153,192,36244,128,0,36344:0:0:0:0:
51,192,36444,1,0,0:0:0:0:
358,192,36444,1,2,0:0:0:0:
460,192,36544,1,0,0:0:0:0:
256,192,36644,128,0,36744:0:0:0:0:
153,192,36744,1,0,0:0:0:0:
51,192,36844,1,2,0:0:0:0:
358,192,36844,1,0,0:0:0:0:
460,192,37044,128,0,37144:0:0:0:0:
256,192,37244,1,0,0:0:0:0:
153,192,37244,1,2,0:0:0:0:
51,192,37444,128,0,37544:0:0:0:0:
460,192,37644,1,0,0:0:0:0:
256,192,37644,1,8,0:0:0:0:
358,192,37844,128,0,37944:0:0:0:0:
51,192,38044,1,0,0:0:0:0:
460,192,38044,1,8,0:0:0:0:
153,192,38144,128,0,38444:0:0:0:0:
358,192,38144,1,0,0:0:0:0:
256,192,38244,128,0,38444:0:0:0:0:
358,192,38344,1,0,0:0:0:0:
51,192,38444,128,8,38744:0:0:0:0:
460,192,38444,128,0,38744:0:0:0:0:
358,192,38844,1,0,0:0:0:0:
256,192,38844,1,4,0:0:0:0:
153,192,38844,1,2,0:0:0:0:
460,192,39044,1,0,0:0:0:0:
153,192,39244,1,0,0:0:0:0:
256,192,39244,1,0,0:0:0:0:
51,192,39244,1,8,0:0:0:0:
358,192,39444,1,0,0:0:0:0:
460,192,39644,1,0,0:0:0:0:
256,192,39644,1,2,0:0:0:0:
51,192,39844,1,0,0:0:0:0:
153,192,40044,1,0,0:0:0:0:
358,192,40044,1,8,0:0:0:0:
460,192,40044,1,0,0:0:0:0:
256,192,40244,1,0,0:0:0:0:
358,192,40444,1,0,0:0:0:0:
51,192,40444,1,2,0:0:0:0:
460,192,40644,1,0,0:0:0:0:
51,192,40844,1,0,0:0:0:0:
256,192,40844,1,0,0:0:0:0:
153,192,40844,1,8,0:0:0:0:
460,192,41044,1,0,0:0:0:0:
358,192,41144,1,0,0:0:0:0:
153,192,41244,1,0,0:0:0:0:
256,192,41244,1,2,0:0:0:0:
460,192,41444,1,0,0:0:0:0:
358,192,41644,1,0,0:0:0:0:
153,192,41644,1,0,0:0:0:0:
51,192,41644,1,8,0:0:0:0:
460,192,41844,1,0,0:0:0:0:
358,192,42044,1,2,0:0:0:0:
256,192,42044,1,0,0:0:0:0:
51,192,42244,1,0,0:0:0:0:
153,192,42444,1,0,0:0:0:0:
256,192,42444,1,0,0:0:0:0:
460,192,42444,1,8,0:0:0:0:
358,192,42644,1,0,0:0:0:0:
51,192,42744,1,0,0:0:0:0:
460,192,42844,1,0,0:0:0:0:
153,192,42844,1,2,0:0:0:0:
256,192,43044,1,0,0:0:0:0:
153,192,43244,1,0,0:0:0:0:
51,192,43244,1,8,0:0:0:0:
358,192,43244,1,0,0:0:0:0:
460,192,43444,1,0,0:0:0:0:
256,192,43644,1,2,0:0:0:0:
51,192,43644,1,0,0:0:0:0:
460,192,43844,1,0,0:0:0:0:
358,192,44044,1,8,0:0:0:0:
256,192,44044,1,0,0:0:0:0:
153,192,44044,1,0,0:0:0:0:
51,192,44244,1,0,0:0:0:0:
358,192,44344,1,0,0:0:0:0:
153,192,44444,1,0,0:0:0:0:
460,192,44444,1,2,0:0:0:0:
256,192,44644,1,0,0:0:0:0:
153,192,44844,1,8,0:0:0:0:
51,192,44844,1,0,0:0:0:0:
358,192,44844,1,0,0:0:0:0:
460,192,45044,1,0,0:0:0:0:
256,192,45044,1,8,0:0:0:0:
153,192,45244,5,0,0:0:0:0:
358,192,45244,1,2,0:0:0:0:
51,192,45444,1,2,0:0:0:0:
460,192,45444,1,0,0:0:0:0:
256,192,45644,1,8,0:0:0:0:
153,192,45644,1,0,0:0:0:0:
358,192,45644,1,0,0:0:0:0:
358,192,45844,1,0,0:0:0:0:
460,192,45844,1,2,0:0:0:0:
153,192,45944,1,2,0:0:0:0:
51,192,45944,1,0,0:0:0:0:
358,192,46044,1,2,0:0:0:0:
256,192,46044,1,0,0:0:0:0:
460,192,46244,1,0,0:0:0:0:
51,192,46244,1,2,0:0:0:0:
256,192,46444,1,8,0:0:0:0:
358,192,46444,1,0,0:0:0:0:
153,192,46444,1,0,0:0:0:0:
153,192,46644,1,2,0:0:0:0:
51,192,46644,1,0,0:0:0:0:
358,192,46744,1,2,0:0:0:0:
460,192,46744,1,0,0:0:0:0:
153,192,46844,1,0,0:0:0:0:
256,192,46844,1,2,0:0:0:0:
460,192,47044,1,2,0:0:0:0:
358,192,47044,1,0,0:0:0:0:
51,192,47244,5,8,0:0:0:0:
153,192,47244,1,0,0:0:0:0:
256,192,47244,1,0,0:0:0:0:
358,192,47444,1,2,0:0:0:0:
460,192,47444,1,0,0:0:0:0:
256,192,47544,1,2,0:0:0:0:
153,192,47544,1,0,0:0:0:0:
51,192,47644,1,2,0:0:0:0:
460,192,47644,1,0,0:0:0:0:
256,192,47844,1,0,0:0:0:0:
358,192,47844,1,2,0:0:0:0:
153,192,48044,1,8,0:0:0:0:
460,192,48044,1,0,0:0:0:0:
51,192,48044,1,0,0:0:0:0:
460,192,48244,5,0,0:0:0:0:
358,192,48244,1,2,0:0:0:0:
256,192,48344,1,2,0:0:0:0:
153,192,48344,1,0,0:0:0:0:
51,192,48444,1,2,0:0:0:0:
460,192,48444,1,0,0:0:0:0:
256,192,48544,1,0,0:0:0:0:
358,192,48544,1,2,0:0:0:0:
153,192,48644,1,2,0:0:0:0:
51,192,48644,1,0,0:0:0:0:
460,192,48844,1,2,0:0:0:0:
51,192,48844,1,0,0:0:0:0:
256,192,48944,1,2,0:0:0:0:
153,192,48944,1,0,0:0:0:0:
358,192,49044,1,2,0:0:0:0:
460,192,49044,1,0,0:0:0:0:
153,192,49244,1,2,0:0:0:0:
51,192,49244,1,0,0:0:0:0:
256,192,49344,1,2,0:0:0:0:
358,192,49344,1,0,0:0:0:0:
51,192,49444,1,2,0:0:0:0:
153,192,49444,1,0,0:0:0:0:
460,192,49544,1,0,0:0:0:0:
358,192,49544,1,2,0:0:0:0:
153,192,49644,1,2,0:0:0:0:
256,192,49644,1,0,0:0:0:0:
358,192,49744,1,0,0:0:0:0:
460,192,49744,1,2,0:0:0:0:
51,192,49844,1,2,0:0:0:0:
153,192,49844,1,0,0:0:0:0:
358,192,49944,1,0,0:0:0:0:
256,192,49944,1,2,0:0:0:0:
460,192,50044,1,0,0:0:0:0:
153,192,50044,1,0,0:0:0:50:soft-hitclap2.wav
51,192,50044,1,4,0:0:0:0:
256,192,50144,5,0,0:0:0:0:
358,192,50144,1,0,0:0:0:50:soft-hitclap2.wav
460,192,50244,1,0,0:0:0:50:soft-hitclap2.wav
51,192,50244,1,0,0:0:0:0:
256,192,50344,1,0,0:0:0:50:soft-hitclap2.wav
153,192,50344,1,0,0:0:0:0:
460,192,50444,1,0,0:0:0:0:
358,192,50444,1,0,0:0:0:50:soft-hitclap2.wav
51,192,50544,1,0,0:0:0:0:
153,192,50544,1,0,0:0:0:50:soft-hitclap2.wav
256,192,50644,1,0,0:0:0:50:soft-hitclap2.wav
358,192,50644,1,0,0:0:0:0:
51,192,50744,1,0,0:0:0:0:
460,192,50744,1,0,0:0:0:50:soft-hitclap2.wav
256,192,50844,1,0,0:0:0:0:
153,192,50844,1,0,0:0:0:50:soft-hitclap2.wav
358,192,50944,1,0,0:0:0:50:soft-hitclap2.wav
460,192,50944,1,0,0:0:0:0:
153,192,51044,1,0,0:0:0:50:soft-hitclap2.wav
51,192,51044,1,0,0:0:0:0:
256,192,51144,1,0,0:0:0:0:
358,192,51144,1,0,0:0:0:50:soft-hitclap2.wav
51,192,51244,128,2,51644:0:0:0:0:
153,192,51244,128,0,51544:0:0:0:0:
460,192,51244,128,0,51444:0:0:0:0:
358,192,51644,1,4,0:0:0:0:
256,192,51644,1,2,0:0:0:0:
460,192,51644,128,0,51744:0:0:0:0:
358,192,51844,128,0,51944:0:0:0:0:
51,192,51844,1,0,0:0:0:0:
153,192,51944,1,2,0:0:0:0:
256,192,51944,1,0,0:0:0:0:
51,192,52044,1,8,0:0:0:0:
460,192,52044,1,0,0:0:0:0:
256,192,52244,1,0,0:0:0:0:
358,192,52344,1,2,0:0:0:0:
153,192,52344,1,0,0:0:0:0:
460,192,52444,128,0,52544:0:0:0:0:
51,192,52444,1,2,0:0:0:0:
358,192,52644,1,0,0:0:0:0:
256,192,52744,128,0,52844:0:0:0:0:
153,192,52744,1,2,0:0:0:0:
51,192,52844,1,0,0:0:0:0:
460,192,52844,1,8,0:0:0:0:
358,192,52944,1,0,0:0:0:0:
51,192,53044,128,0,53144:0:0:0:0:
153,192,53044,1,0,0:0:0:0:
256,192,53144,1,0,0:0:0:0:
460,192,53144,1,2,0:0:0:0:
153,192,53244,128,0,53344:0:0:0:0:
358,192,53244,1,2,0:0:0:0:
256,192,53444,128,0,53544:0:0:0:0:
460,192,53444,1,0,0:0:0:0:
358,192,53544,1,0,0:0:0:0:
51,192,53544,1,2,0:0:0:0:
153,192,53644,1,8,0:0:0:0:
460,192,53644,1,0,0:0:0:0:
256,192,53844,1,0,0:0:0:0:
358,192,53944,1,2,0:0:0:0:
51,192,53944,1,0,0:0:0:0:
460,192,54044,128,0,54144:0:0:0:0:
153,192,54044,1,2,0:0:0:0:
358,192,54244,128,0,54344:0:0:0:0:
51,192,54244,1,0,0:0:0:0:
256,192,54344,128,0,54444:0:0:0:0:
460,192,54344,1,2,0:0:0:0:
51,192,54444,128,0,54544:0:0:0:0:
153,192,54444,1,8,0:0:0:0:
153,192,54644,128,0,54744:0:0:0:0:
460,192,54644,1,0,0:0:0:0:
256,192,54744,128,0,54844:0:0:0:0:
358,192,54744,1,2,0:0:0:0:
460,192,54844,128,0,54944:0:0:0:0:
51,192,54844,1,2,0:0:0:0:
51,192,55044,128,0,55144:0:0:0:0:
153,192,55044,1,0,0:0:0:0:
358,192,55144,1,0,0:0:0:0:
256,192,55144,1,2,0:0:0:0:
460,192,55244,1,8,0:0:0:0:
153,192,55244,1,0,0:0:0:0:
358,192,55444,1,0,0:0:0:0:
256,192,55544,1,0,0:0:0:0:
51,192,55544,1,2,0:0:0:0:
460,192,55644,128,0,55744:0:0:0:0:
153,192,55644,1,2,0:0:0:0:
358,192,55844,1,0,0:0:0:0:
256,192,55944,128,0,56044:0:0:0:0:
153,192,55944,1,2,0:0:0:0:
51,192,56044,1,8,0:0:0:0:
460,192,56044,1,0,0:0:0:0:
358,192,56144,1,0,0:0:0:0:
51,192,56244,128,0,56344:0:0:0:0:
153,192,56244,1,0,0:0:0:0:
460,192,56344,1,2,0:0:0:0:
256,192,56344,1,0,0:0:0:0:
153,192,56444,128,0,56544:0:0:0:0:
358,192,56444,1,2,0:0:0:0:
358,192,56644,128,0,56744:0:0:0:0:
51,192,56644,1,0,0:0:0:0:
256,192,56744,1,2,0:0:0:0:
460,192,56744,1,0,0:0:0:0:
51,192,56844,1,0,0:0:0:0:
153,192,56844,1,8,0:0:0:0:
358,192,57044,1,0,0:0:0:0:
460,192,57244,128,0,57344:0:0:0:0:
256,192,57244,1,2,0:0:0:0:
51,192,57344,1,0,0:0:0:0:
153,192,57444,1,0,0:0:0:0:
358,192,57544,128,0,57644:0:0:0:0:
256,192,57544,1,8,0:0:0:0:
51,192,57644,1,0,0:0:0:0:
460,192,57644,1,8,0:0:0:0:
153,192,57744,128,0,57844:0:0:0:0:
256,192,57844,1,0,0:0:0:0:
51,192,58044,128,0,58144:0:0:0:0:
358,192,58044,1,2,0:0:0:0:
153,192,58244,128,0,58344:0:0:0:0:
256,192,58244,1,0,0:0:0:0:
358,192,58344,1,2,0:0:0:0:
460,192,58344,1,0,0:0:0:0:
51,192,58444,1,8,0:0:0:0:
256,192,58444,1,0,0:0:0:0:
153,192,58644,1,0,0:0:0:0:
256,192,58744,1,0,0:0:0:0:
358,192,58744,1,2,0:0:0:0:
460,192,58844,128,0,58944:0:0:0:0:
51,192,58844,1,2,0:0:0:0:
358,192,59044,1,0,0:0:0:0:
256,192,59144,128,0,59244:0:0:0:0:
153,192,59144,1,2,0:0:0:0:
51,192,59244,1,0,0:0:0:0:
460,192,59244,1,8,0:0:0:0:
358,192,59344,1,0,0:0:0:0:
51,192,59444,128,0,59544:0:0:0:0:
153,192,59444,1,0,0:0:0:0:
256,192,59544,1,0,0:0:0:0:
460,192,59544,1,2,0:0:0:0:
358,192,59644,128,0,59744:0:0:0:0:
153,192,59644,1,2,0:0:0:0:
153,192,59844,128,0,59944:0:0:0:0:
51,192,59844,1,0,0:0:0:0:
256,192,59944,1,2,0:0:0:0:
460,192,59944,1,0,0:0:0:0:
51,192,60044,1,8,0:0:0:0:
358,192,60044,1,0,0:0:0:0:
153,192,60244,1,0,0:0:0:0:
256,192,60344,1,0,0:0:0:0:
460,192,60344,1,2,0:0:0:0:
51,192,60444,128,0,60544:0:0:0:0:
358,192,60444,1,2,0:0:0:0:
153,192,60644,128,0,60744:0:0:0:0:
460,192,60644,1,0,0:0:0:0:
256,192,60744,128,0,60844:0:0:0:0:
358,192,60744,1,2,0:0:0:0:
460,192,60844,128,0,60944:0:0:0:0:
51,192,60844,1,8,0:0:0:0:
358,192,61044,128,0,61144:0:0:0:0:
51,192,61044,1,0,0:0:0:0:
256,192,61144,128,0,61244:0:0:0:0:
460,192,61144,1,2,0:0:0:0:
51,192,61244,128,0,61344:0:0:0:0:
153,192,61244,1,2,0:0:0:0:
460,192,61444,128,0,61544:0:0:0:0:
358,192,61444,1,0,0:0:0:0:
153,192,61544,1,0,0:0:0:0:
256,192,61544,1,2,0:0:0:0:
460,192,61644,1,0,0:0:0:0:
51,192,61644,1,8,0:0:0:0:
358,192,61844,1,0,0:0:0:0:
256,192,61944,1,0,0:0:0:0:
153,192,61944,1,2,0:0:0:0:
460,192,62044,128,0,62144:0:0:0:0:
51,192,62044,1,2,0:0:0:0:
358,192,62244,1,0,0:0:0:0:
153,192,62244,1,0,0:0:0:0:
256,192,62344,128,0,62444:0:0:0:0:
51,192,62344,1,2,0:0:0:0:
358,192,62444,1,8,0:0:0:0:
460,192,62444,1,0,0:0:0:0:
153,192,62544,1,0,0:0:0:0:
51,192,62644,128,0,62744:0:0:0:0:
460,192,62644,1,0,0:0:0:0:
358,192,62744,1,0,0:0:0:0:
256,192,62744,1,2,0:0:0:0:
153,192,62844,128,0,62944:0:0:0:0:
460,192,62844,1,2,0:0:0:0:
51,192,62844,1,4,0:0:0:0:
256,192,62944,128,0,63044:0:0:0:0:
358,192,63044,128,0,63144:0:0:0:0:
51,192,63044,1,0,0:0:0:0:
460,192,63144,128,0,63244:0:0:0:0:
153,192,63144,1,2,0:0:0:0:
51,192,63244,1,8,0:0:0:0:
256,192,63244,1,0,0:0:0:0:
358,192,63444,1,0,0:0:0:0:
256,192,63544,1,2,0:0:0:0:
153,192,63544,1,0,0:0:0:0:
460,192,63644,1,2,0:0:0:0:
51,192,63644,1,0,0:0:0:0:
358,192,63744,1,0,0:0:0:0:
153,192,63844,1,0,0:0:0:0:
460,192,63944,1,2,0:0:0:0:
256,192,63944,1,0,0:0:0:0:
51,192,64044,1,8,0:0:0:0:
153,192,64044,1,0,0:0:0:0:
358,192,64144,1,0,0:0:0:0:
51,192,64244,1,0,0:0:0:0:
256,192,64344,1,0,0:0:0:0:
153,192,64344,1,2,0:0:0:0:
460,192,64444,128,0,64544:0:0:0:0:
358,192,64444,1,2,0:0:0:0:
51,192,64444,1,4,0:0:0:0:
153,192,64644,128,0,64744:0:0:0:0:
256,192,64644,1,0,0:0:0:0:
358,192,64744,1,0,0:0:0:0:
460,192,64744,1,2,0:0:0:0:
51,192,64844,1,8,0:0:0:0:
256,192,64844,1,0,0:0:0:0:
153,192,65044,1,0,0:0:0:0:
256,192,65144,1,2,0:0:0:0:
460,192,65144,1,0,0:0:0:0:
51,192,65244,128,0,65344:0:0:0:0:
358,192,65244,1,2,0:0:0:0:
460,192,65444,1,0,0:0:0:0:
256,192,65544,128,0,65644:0:0:0:0:
153,192,65544,1,2,0:0:0:0:
51,192,65644,1,8,0:0:0:0:
460,192,65644,1,0,0:0:0:0:
358,192,65744,1,0,0:0:0:0:
460,192,65844,128,0,65944:0:0:0:0:
153,192,65844,1,0,0:0:0:0:
51,192,65944,1,0,0:0:0:0:
256,192,65944,1,2,0:0:0:0:
358,192,66044,128,0,66144:0:0:0:0:
153,192,66044,1,2,0:0:0:0:
153,192,66244,128,0,66344:0:0:0:0:
460,192,66244,1,0,0:0:0:0:
256,192,66344,1,0,0:0:0:0:
358,192,66344,1,2,0:0:0:0:
460,192,66444,1,8,0:0:0:0:
51,192,66444,1,0,0:0:0:0:
256,192,66644,1,0,0:0:0:0:
358,192,66744,1,0,0:0:0:0:
51,192,66744,1,2,0:0:0:0:
460,192,66844,128,0,66944:0:0:0:0:
153,192,66844,1,2,0:0:0:0:
256,192,67044,128,0,67144:0:0:0:0:
51,192,67044,1,0,0:0:0:0:
153,192,67144,128,0,67244:0:0:0:0:
460,192,67144,1,2,0:0:0:0:
51,192,67244,128,0,67344:0:0:0:0:
358,192,67244,1,8,0:0:0:0:
256,192,67444,128,0,67544:0:0:0:0:
460,192,67444,1,0,0:0:0:0:
358,192,67544,128,0,67644:0:0:0:0:
51,192,67544,1,2,0:0:0:0:
153,192,67644,128,0,67744:0:0:0:0:
460,192,67644,1,2,0:0:0:0:
460,192,67844,128,0,67944:0:0:0:0:
256,192,67844,1,0,0:0:0:0:
153,192,67944,1,0,0:0:0:0:
358,192,67944,1,2,0:0:0:0:
256,192,68044,1,8,0:0:0:0:
51,192,68044,1,0,0:0:0:0:
153,192,68244,1,0,0:0:0:0:
256,192,68344,1,0,0:0:0:0:
460,192,68344,1,2,0:0:0:0:
51,192,68444,128,0,68544:0:0:0:0:
358,192,68444,1,2,0:0:0:0:
153,192,68644,1,0,0:0:0:0:
256,192,68744,128,0,68844:0:0:0:0:
358,192,68744,1,2,0:0:0:0:
51,192,68844,1,8,0:0:0:0:
460,192,68844,1,0,0:0:0:0:
153,192,68944,1,0,0:0:0:0:
460,192,69044,128,0,69144:0:0:0:0:
358,192,69044,1,0,0:0:0:0:
256,192,69144,1,0,0:0:0:0:
153,192,69144,1,2,0:0:0:0:
51,192,69244,128,4,69344:0:0:0:0:
358,192,69244,1,2,0:0:0:0:
153,192,69344,128,0,69444:0:0:0:0:
358,192,69444,128,0,69544:0:0:0:0:
460,192,69444,1,0,0:0:0:0:
256,192,69544,128,0,69644:0:0:0:0:
51,192,69544,1,2,0:0:0:0:
460,192,69644,1,0,0:0:0:0:
153,192,69644,1,8,0:0:0:0:
51,192,69844,1,0,0:0:0:0:
256,192,70044,1,0,0:0:0:0:
358,192,70044,1,2,0:0:0:0:
460,192,70144,1,0,0:0:0:0:
51,192,70244,1,0,0:0:0:0:
153,192,70344,1,0,0:0:0:0:
460,192,70444,1,0,0:0:0:60:soft-hitclap3.wav
358,192,70510,1,0,0:0:0:0:
256,192,70577,1,0,0:0:0:0:
51,192,70644,1,0,0:0:0:0:
460,192,70644,1,2,0:0:0:0:
358,192,70844,128,0,70944:0:0:0:0:
256,192,70844,1,2,0:0:0:0:
153,192,71044,128,0,71144:0:0:0:0:
51,192,71044,1,2,0:0:0:0:
460,192,71144,1,0,0:0:0:0:
256,192,71144,1,2,0:0:0:0:
358,192,71244,1,8,0:0:0:0:
51,192,71244,1,0,0:0:0:0:
358,192,71444,1,2,0:0:0:0:
153,192,71444,1,0,0:0:0:0:
51,192,71544,1,0,0:0:0:0:
256,192,71544,1,2,0:0:0:0:
460,192,71644,128,0,71744:0:0:0:0:
153,192,71644,1,2,0:0:0:0:
358,192,71844,1,2,0:0:0:0:
51,192,71944,128,0,72044:0:0:0:0:
460,192,71944,1,2,0:0:0:0:
256,192,72044,1,8,0:0:0:0:
153,192,72044,1,0,0:0:0:0:
460,192,72144,1,0,0:0:0:0:
256,192,72244,128,0,72344:0:0:0:0:
358,192,72244,1,2,0:0:0:0:
51,192,72344,1,2,0:0:0:0:
358,192,72444,128,0,72544:0:0:0:0:
153,192,72444,1,2,0:0:0:0:
153,192,72644,128,0,72744:0:0:0:0:
460,192,72644,1,2,0:0:0:0:
51,192,72744,1,0,0:0:0:0:
256,192,72744,1,2,0:0:0:0:
358,192,72844,1,8,0:0:0:0:
460,192,72844,1,0,0:0:0:0:
51,192,73044,1,2,0:0:0:0:
256,192,73044,1,0,0:0:0:0:
153,192,73144,1,2,0:0:0:0:
358,192,73144,1,0,0:0:0:0:
460,192,73244,128,0,73344:0:0:0:0:
51,192,73244,1,2,0:0:0:0:
256,192,73444,128,0,73544:0:0:0:0:
153,192,73444,1,2,0:0:0:0:
51,192,73544,128,0,73644:0:0:0:0:
460,192,73544,1,2,0:0:0:0:
358,192,73644,128,0,73744:0:0:0:0:
153,192,73644,1,8,0:0:0:0:
153,192,73844,128,0,73944:0:0:0:0:
256,192,73844,1,2,0:0:0:0:
460,192,73944,128,0,74044:0:0:0:0:
51,192,73944,1,2,0:0:0:0:
358,192,74044,1,0,0:0:0:0:
256,192,74044,1,2,0:0:0:0:
153,192,74144,1,0,0:0:0:0:
51,192,74144,1,0,0:0:0:60:soft-hitclap2.wav
460,192,74244,1,0,0:0:0:60:soft-hitclap2.wav
358,192,74244,1,0,0:0:0:0:
256,192,74344,1,2,0:0:0:0:
51,192,74444,1,8,0:0:0:0:
153,192,74444,1,0,0:0:0:0:
358,192,74544,1,0,0:0:0:60:soft-hitclap2.wav
460,192,74544,1,0,0:0:0:0:
256,192,74644,1,0,0:0:0:60:soft-hitclap2.wav
153,192,74644,1,0,0:0:0:0:
51,192,74744,1,2,0:0:0:0:
358,192,74844,1,2,0:0:0:0:
460,192,74844,1,0,0:0:0:0:
153,192,74944,1,0,0:0:0:60:soft-hitclap2.wav
51,192,74944,1,0,0:0:0:0:
256,192,75044,1,0,0:0:0:0:
460,192,75044,1,0,0:0:0:60:soft-hitclap2.wav
358,192,75144,1,2,0:0:0:0:
51,192,75244,1,8,0:0:0:0:
153,192,75244,1,0,0:0:0:0:
358,192,75344,1,0,0:0:0:60:soft-hitclap2.wav
460,192,75344,1,0,0:0:0:0:
256,192,75444,1,0,0:0:0:60:soft-hitclap2.wav
153,192,75444,1,0,0:0:0:0:
51,192,75544,1,2,0:0:0:0:
460,192,75644,1,2,0:0:0:0:
358,192,75644,1,4,0:0:0:0:
256,192,75644,1,0,0:0:0:0:
153,192,75744,1,0,0:0:0:0:
51,192,75744,1,0,0:0:0:50:soft-hitclap2.wav
358,192,75844,1,0,0:0:0:50:soft-hitclap2.wav
460,192,75844,1,0,0:0:0:0:
153,192,75944,1,0,0:0:0:50:soft-hitclap2.wav
256,192,75944,1,0,0:0:0:0:
460,192,76044,1,0,0:0:0:50:soft-hitclap2.wav
51,192,76044,1,0,0:0:0:0:
358,192,76144,1,0,0:0:0:0:
256,192,76144,1,0,0:0:0:50:soft-hitclap2.wav
153,192,76244,1,0,0:0:0:0:
51,192,76244,1,0,0:0:0:50:soft-hitclap2.wav
460,192,76344,1,0,0:0:0:0:
358,192,76344,1,0,0:0:0:50:soft-hitclap2.wav
153,192,76444,1,0,0:0:0:50:soft-hitclap2.wav
256,192,76444,1,0,0:0:0:0:
460,192,76544,1,0,0:0:0:0:
51,192,76544,1,0,0:0:0:50:soft-hitclap2.wav
256,192,76644,1,0,0:0:0:50:soft-hitclap2.wav
358,192,76644,1,0,0:0:0:0:
153,192,76744,1,0,0:0:0:50:soft-hitclap2.wav
51,192,76744,1,0,0:0:0:0:
460,192,76844,1,0,0:0:0:0:
358,192,76844,1,0,0:0:0:50:soft-hitclap2.wav
256,192,76944,1,0,0:0:0:50:soft-hitclap2.wav
153,192,76944,1,0,0:0:0:0:
460,192,77044,1,0,0:0:0:50:soft-hitclap2.wav
51,192,77044,1,0,0:0:0:0:
256,192,77144,1,0,0:0:0:50:soft-hitclap2.wav
358,192,77144,1,0,0:0:0:0:
460,192,77244,1,0,0:0:0:0:
51,192,77244,1,2,0:0:0:0:
153,192,77244,1,4,0:0:0:0:
358,192,77644,1,0,0:0:0:0:
256,192,77744,1,0,0:0:0:0:
153,192,78044,1,0,0:0:0:0:
51,192,78044,1,0,0:0:0:0:
153,192,78444,1,0,0:0:0:0:
51,192,78444,1,0,0:0:0:0:
153,192,78844,1,0,0:0:0:0:
256,192,78844,1,0,0:0:0:0:
256,192,79244,1,0,0:0:0:0:
153,192,79244,1,0,0:0:0:0:
256,192,79644,1,0,0:0:0:0:
358,192,79644,1,0,0:0:0:0:
358,192,80044,1,0,0:0:0:0:
256,192,80044,1,0,0:0:0:0:
460,192,80444,1,0,0:0:0:0:
358,192,80444,1,0,0:0:0:0:
460,192,80844,1,0,0:0:0:0:
358,192,80844,1,0,0:0:0:0:
256,192,81244,1,0,0:0:0:0:
51,192,81244,1,0,0:0:0:0:
153,192,81644,1,0,0:0:0:0:
358,192,81644,1,0,0:0:0:0:
51,192,82044,128,0,83244:0:0:0:0:
256,192,82044,1,0,0:0:0:0:
153,192,82444,128,0,83244:0:0:0:0:
358,192,82444,1,0,0:0:0:0:
256,192,82844,128,0,83244:0:0:0:0:
460,192,82844,1,0,0:0:0:0:
358,192,83244,1,0,0:0:0:0:
153,192,83644,5,2,0:0:0:0:
256,192,83644,1,0,0:0:0:0:
460,192,83644,1,4,0:0:0:0:
358,192,83844,1,0,0:0:0:0:
51,192,84044,1,0,0:0:0:0:
256,192,84244,1,0,0:0:0:0:
51,192,85044,1,0,0:0:0:0:
153,192,85144,1,0,0:0:0:0:
256,192,85244,1,0,0:0:0:0:
460,192,86044,1,0,0:0:0:0:
51,192,86444,1,0,0:0:0:0:
256,192,86844,1,0,0:0:0:0:
256,192,87444,1,0,0:0:0:0:
358,192,87844,1,0,0:0:0:0:
460,192,88044,1,0,0:0:0:0:
153,192,88244,1,0,0:0:0:0:
51,192,89244,1,0,0:0:0:0:
460,192,90044,1,2,1:0:0:0:
153,192,90044,1,0,0:0:0:0:
51,192,90444,1,2,1:0:0:0:
358,192,90444,1,0,0:0:0:0:
256,192,90644,1,0,0:0:0:0:
153,192,90844,1,0,0:0:0:0:
460,192,90844,1,2,1:0:0:0:
358,192,91044,1,0,0:0:0:0:
256,192,91244,1,2,1:0:0:0:
51,192,91244,1,0,0:0:0:0:
153,192,91444,1,2,1:0:0:0:
460,192,91444,1,0,0:0:0:0:
460,192,91844,1,0,0:0:0:0:
256,192,91844,1,2,1:0:0:0:
358,192,92044,1,2,1:0:0:0:
51,192,92044,1,0,0:0:0:0:
256,192,92444,1,0,0:0:0:0:
153,192,92444,1,2,1:0:0:0:
358,192,92844,1,0,0:0:0:0:
460,192,92844,1,2,1:0:0:0:
51,192,93244,1,2,1:0:0:0:
153,192,93244,1,0,0:0:0:0:
256,192,93644,1,2,1:0:0:0:
358,192,93644,1,0,0:0:0:0:
460,192,93844,1,0,0:0:0:0:
358,192,93944,1,0,0:0:0:0:
153,192,94044,1,2,1:0:0:0:
256,192,94044,1,0,0:0:0:0:
51,192,94244,1,0,0:0:0:0:
460,192,94244,1,0,0:0:0:0:
256,192,94444,1,2,1:0:0:0:
153,192,94444,1,0,0:0:0:0:
460,192,94644,1,2,1:0:0:0:
358,192,94644,1,0,0:0:0:0:
51,192,94844,1,2,1:0:0:0:
153,192,94844,1,0,0:0:0:0:
460,192,95244,1,0,0:0:0:0:
358,192,95244,1,2,1:0:0:0:
256,192,95444,1,2,1:0:0:0:
51,192,95444,1,0,0:0:0:0:
153,192,95544,1,2,1:0:0:0:
358,192,95544,1,0,0:0:0:0:
460,192,95644,1,2,1:0:0:0:
256,192,95644,1,0,0:0:0:0:
51,192,95844,1,2,1:0:0:0:
153,192,95844,1,0,0:0:0:0:
256,192,96044,1,0,0:0:0:0:
358,192,96044,1,2,1:0:0:0:
51,192,96244,1,0,0:0:0:0:
460,192,96244,1,2,1:0:0:0:
153,192,96444,1,0,0:0:0:0:
256,192,96444,1,2,1:0:0:0:
460,192,96644,1,0,0:0:0:0:
256,192,96844,1,0,0:0:0:0:
358,192,96844,1,2,1:0:0:0:
153,192,97044,1,0,0:0:0:0:
51,192,97244,1,2,1:0:0:0:
358,192,97244,1,0,0:0:0:0:
256,192,97644,1,2,1:0:0:0:
460,192,97644,1,0,0:0:0:0:
51,192,97844,1,0,0:0:0:0:
358,192,97844,1,0,0:0:0:0:
153,192,97944,1,0,0:0:0:0:
256,192,98044,1,0,0:0:0:0:
51,192,98244,1,2,1:0:0:0:
460,192,98244,1,0,0:0:0:0:
153,192,98444,1,2,1:0:0:0:
358,192,98444,1,0,0:0:0:0:
460,192,98844,1,2,1:0:0:0:
256,192,98844,1,0,0:0:0:0:
358,192,99244,1,2,1:0:0:0:
51,192,99244,1,0,0:0:0:0:
153,192,99644,1,0,0:0:0:0:
256,192,99644,1,2,1:0:0:0:
460,192,100044,1,0,0:0:0:0:
358,192,100044,1,2,1:0:0:0:
51,192,100244,1,0,0:0:0:0:
153,192,100444,1,0,0:0:0:0:
460,192,100444,1,2,1:0:0:0:
358,192,100644,1,0,0:0:0:0:
256,192,100844,1,2,1:0:0:0:
460,192,100844,1,0,0:0:0:0:
51,192,101044,1,2,1:0:0:0:
153,192,101044,1,0,0:0:0:0:
460,192,101444,1,0,0:0:0:0:
358,192,101444,1,2,1:0:0:0:
51,192,101644,1,0,0:0:0:0:
256,192,101644,1,2,1:0:0:0:
460,192,102044,1,0,0:0:0:0:
153,192,102044,1,2,1:0:0:0:
358,192,102444,1,2,1:0:0:0:
256,192,102444,1,0,0:0:0:0:
51,192,102844,1,0,0:0:0:0:
460,192,102844,1,2,1:0:0:0:
358,192,103244,5,0,0:0:0:0:
153,192,103244,1,2,1:0:0:0:
256,192,103444,1,0,0:0:0:0:
358,192,103644,1,0,0:0:0:0:
51,192,103644,1,2,1:0:0:0:
460,192,103844,1,0,0:0:0:0:
256,192,104044,5,2,1:0:0:0:
153,192,104044,1,0,0:0:0:0:
51,192,104244,1,0,0:0:0:0:
358,192,104244,1,2,1:0:0:0:
460,192,104644,1,2,1:0:0:0:
256,192,104644,1,0,0:0:0:0:
358,192,104844,1,0,0:0:0:0:
153,192,104844,1,2,1:0:0:0:
51,192,105244,1,2,1:0:0:0:
256,192,105244,1,0,0:0:0:0:
153,192,105644,1,0,0:0:0:0:
460,192,105644,1,2,1:0:0:0:
358,192,106044,1,0,0:0:0:0:
256,192,106044,1,2,1:0:0:0:
51,192,106444,1,0,0:0:0:0:
153,192,106444,1,2,1:0:0:0:
256,192,106644,1,0,0:0:0:0:
460,192,106844,1,0,0:0:0:0:
358,192,106844,1,2,1:0:0:0:
51,192,107044,1,2,1:0:0:0:
153,192,107044,1,0,0:0:0:0:
460,192,107244,1,2,1:0:0:0:
358,192,107244,1,0,0:0:0:0:
51,192,107444,1,0,0:0:0:0:
153,192,107444,1,2,1:0:0:0:
358,192,107644,1,2,1:0:0:0:
460,192,107644,1,0,0:0:0:0:
51,192,107844,1,2,1:0:0:0:
256,192,107844,1,0,0:0:0:0:
358,192,107944,1,0,0:0:0:0:
153,192,107944,1,2,1:0:0:0:
460,192,108044,1,0,0:0:0:0:
256,192,108044,1,2,1:0:0:0:
51,192,108244,5,2,1:0:0:0:
153,192,108244,1,0,0:0:0:0:
358,192,108444,1,2,1:0:0:0:
460,192,108444,1,0,0:0:0:0:
153,192,108644,1,2,1:0:0:0:
51,192,108644,1,0,0:0:0:0:
358,192,108844,1,0,0:0:0:0:
460,192,108844,1,2,1:0:0:0:
153,192,109044,1,0,0:0:0:0:
256,192,109044,1,2,1:0:0:0:
460,192,109244,5,0,0:0:0:0:
358,192,109244,1,8,0:0:0:0:
256,192,109244,1,4,0:0:0:0:
51,192,109244,1,0,0:0:0:0:
256,192,109644,1,8,0:0:0:0:
358,192,109644,1,0,0:0:0:0:
153,192,109644,1,0,0:0:0:0:
256,192,110044,1,0,0:0:0:0:
153,192,110044,1,8,0:0:0:0:
51,192,110044,1,0,0:0:0:0:
51,192,110444,1,8,0:0:0:0:
153,192,110444,1,0,0:0:0:0:
460,192,110444,1,0,0:0:0:0:
358,192,110644,1,0,0:0:0:0:
460,192,110844,1,8,0:0:0:0:
358,192,110844,1,0,0:0:0:0:
256,192,110844,1,0,0:0:0:0:
51,192,111044,1,0,0:0:0:0:
358,192,111244,1,0,0:0:0:0:
256,192,111244,1,8,0:0:0:0:
153,192,111244,1,0,0:0:0:0:
460,192,111544,1,0,0:0:0:0:
153,192,111644,1,8,0:0:0:0:
256,192,111644,1,0,0:0:0:0:
51,192,111644,1,0,0:0:0:0:
358,192,111844,1,0,0:0:0:0:
51,192,112044,1,8,0:0:0:0:
153,192,112044,1,0,0:0:0:0:
460,192,112044,1,0,0:0:0:0:
358,192,112244,1,0,0:0:0:0:
153,192,112444,1,8,0:0:0:0:
51,192,112444,1,0,0:0:0:0:
256,192,112444,1,0,0:0:0:0:
460,192,112644,1,0,0:0:0:0:
256,192,112844,1,8,0:0:0:0:
153,192,112844,1,0,0:0:0:0:
358,192,112844,1,0,0:0:0:0:
51,192,113144,1,0,0:0:0:0:
358,192,113244,1,8,0:0:0:0:
256,192,113244,1,0,0:0:0:0:
460,192,113244,1,0,0:0:0:0:
153,192,113444,1,0,0:0:0:0:
460,192,113644,1,8,0:0:0:0:
358,192,113644,1,0,0:0:0:0:
51,192,113644,1,0,0:0:0:0:
256,192,113844,1,0,0:0:0:0:
51,192,114044,1,8,0:0:0:0:
153,192,114044,1,0,0:0:0:0:
358,192,114044,1,0,0:0:0:0:
460,192,114244,1,0,0:0:0:0:
153,192,114444,1,8,0:0:0:0:
256,192,114444,1,0,0:0:0:0:
460,192,114444,1,0,0:0:0:0:
153,192,114744,1,0,0:0:0:0:
358,192,114844,1,0,0:0:0:0:
256,192,114844,1,8,0:0:0:0:
51,192,114844,1,0,0:0:0:0:
153,192,115044,1,0,0:0:0:0:
460,192,115244,1,0,0:0:0:0:
358,192,115244,1,8,0:0:0:0:
51,192,115244,1,0,0:0:0:0:
153,192,115444,1,0,0:0:0:0:
256,192,115644,1,0,0:0:0:0:
460,192,115644,1,8,0:0:0:0:
51,192,115644,1,0,0:0:0:0:
358,192,115844,1,0,0:0:0:0:
153,192,115844,1,0,0:0:0:0:
256,192,116044,1,0,0:0:0:0:
51,192,116044,1,8,0:0:0:0:
460,192,116044,1,0,0:0:0:0:
460,192,116344,1,0,0:0:0:0:
51,192,116344,1,0,0:0:0:0:
358,192,116444,1,8,0:0:0:0:
153,192,116444,1,0,0:0:0:0:
256,192,116444,1,0,0:0:0:0:
460,192,116644,1,0,0:0:0:0:
256,192,116644,1,0,0:0:0:0:
153,192,116844,1,8,0:0:0:0:
51,192,116844,1,0,0:0:0:0:
358,192,116844,1,0,0:0:0:0:
460,192,117044,1,0,0:0:0:0:
256,192,117044,1,0,0:0:0:0:
153,192,117244,1,0,0:0:0:0:
51,192,117244,1,8,0:0:0:0:
358,192,117244,1,0,0:0:0:0:
460,192,117444,1,0,0:0:0:0:
256,192,117444,1,0,0:0:0:0:
153,192,117644,1,8,0:0:0:0:
51,192,117644,1,0,0:0:0:0:
256,192,117644,1,0,0:0:0:0:
460,192,117944,1,0,0:0:0:0:
358,192,117944,1,0,0:0:0:0:
153,192,118044,1,0,0:0:0:0:
256,192,118044,1,8,0:0:0:0:
51,192,118044,1,0,0:0:0:0:
460,192,118244,1,0,0:0:0:0:
51,192,118244,1,0,0:0:0:0:
358,192,118444,1,8,0:0:0:0:
153,192,118444,1,0,0:0:0:0:
256,192,118444,1,0,0:0:0:0:
256,192,118644,1,0,0:0:0:0:
51,192,118644,1,0,0:0:0:0:
460,192,118844,1,8,0:0:0:0:
358,192,118844,1,0,0:0:0:0:
153,192,118844,1,0,0:0:0:0:
153,192,119044,1,0,0:0:0:0:
256,192,119044,1,0,0:0:0:0:
51,192,119244,1,8,0:0:0:0:
460,192,119244,1,0,0:0:0:0:
358,192,119244,1,0,0:0:0:0:
153,192,119544,1,0,0:0:0:0:
358,192,119544,1,0,0:0:0:0:
460,192,119644,1,8,0:0:0:0:
51,192,119644,1,0,0:0:0:0:
256,192,119644,1,0,0:0:0:0:
153,192,119844,1,0,0:0:0:0:
358,192,119844,1,0,0:0:0:0:
51,192,120044,1,0,0:0:0:0:
153,192,120044,1,8,0:0:0:0:
358,192,120044,1,0,0:0:0:0:
460,192,120244,1,0,0:0:0:0:
256,192,120244,1,0,0:0:0:0:
51,192,120444,128,8,120844:0:0:0:0:
358,192,120444,1,0,0:0:0:0:
358,192,120844,1,0,0:0:0:0:
460,192,120844,1,8,0:0:0:0:
153,192,120844,1,0,0:0:0:0:
256,192,120944,1,0,0:0:0:0:
460,192,121044,1,0,0:0:0:0:
153,192,121144,1,0,0:0:0:0:
460,192,121244,128,0,122044:0:0:0:0:
358,192,121244,1,8,0:0:0:0:
256,192,121244,1,0,0:0:0:0:
51,192,121344,1,0,0:0:0:0:
256,192,121444,1,0,0:0:0:0:
153,192,121544,1,0,0:0:0:0:
51,192,121644,128,8,122044:0:0:0:0:
358,192,121644,1,0,0:0:0:0:
256,192,121644,1,0,0:0:0:0:
153,192,121844,1,0,0:0:0:50:soft-hitclap2.wav
256,192,121944,1,0,0:0:0:50:soft-hitclap2.wav
358,192,122044,5,4,0:0:0:0:
153,192,122044,1,2,0:0:0:0:
256,192,122044,1,0,0:0:0:0:
358,192,122244,1,0,0:0:0:0:
153,192,122244,1,0,0:0:0:0:
460,192,122444,1,0,0:0:0:0:
256,192,122444,1,0,0:0:0:0:
51,192,122444,1,8,0:0:0:0:
460,192,122644,1,0,0:0:0:0:
358,192,122644,1,0,0:0:0:0:
256,192,122744,1,0,0:0:0:0:
153,192,122744,1,0,0:0:0:0:
51,192,122844,1,0,0:0:0:0:
460,192,122844,1,0,0:0:0:0:
358,192,122844,1,8,0:0:0:0:
153,192,123044,1,0,0:0:0:0:
256,192,123044,1,0,0:0:0:0:
358,192,123244,1,0,0:0:0:0:
460,192,123244,1,8,0:0:0:0:
51,192,123244,1,0,0:0:0:0:
256,192,123444,1,0,0:0:0:0:
153,192,123444,1,0,0:0:0:0:
460,192,123644,1,0,0:0:0:0:
358,192,123644,1,0,0:0:0:0:
51,192,123644,1,8,0:0:0:0:
358,192,123844,1,0,0:0:0:0:
51,192,123844,1,0,0:0:0:0:
153,192,124044,1,8,0:0:0:0:
256,192,124044,1,0,0:0:0:0:
460,192,124044,1,0,0:0:0:0:
51,192,124244,1,0,0:0:0:0:
358,192,124244,1,0,0:0:0:0:
256,192,124344,1,0,0:0:0:0:
460,192,124344,1,0,0:0:0:0:
153,192,124444,1,0,0:0:0:0:
51,192,124444,1,0,0:0:0:0:
358,192,124444,1,8,0:0:0:0:
460,192,124644,1,0,0:0:0:0:
256,192,124644,1,0,0:0:0:0:
358,192,124844,1,0,0:0:0:0:
51,192,124844,1,8,0:0:0:0:
153,192,124844,1,0,0:0:0:0:
256,192,125044,1,0,0:0:0:0:
460,192,125044,1,0,0:0:0:0:
358,192,125244,1,0,0:0:0:0:
51,192,125244,1,0,0:0:0:0:
153,192,125244,1,8,0:0:0:0:
358,192,125444,1,0,0:0:0:0:
51,192,125444,1,0,0:0:0:0:
153,192,125644,1,0,0:0:0:0:
256,192,125644,1,0,0:0:0:0:
460,192,125644,1,8,0:0:0:0:
460,192,125844,1,0,0:0:0:0:
358,192,125844,1,0,0:0:0:0:
256,192,125944,1,0,0:0:0:0:
153,192,125944,1,0,0:0:0:0:
51,192,126044,1,0,0:0:0:0:
460,192,126044,1,0,0:0:0:0:
358,192,126044,1,8,0:0:0:0:
153,192,126244,1,0,0:0:0:0:
256,192,126244,1,0,0:0:0:0:
358,192,126444,1,0,0:0:0:0:
460,192,126444,1,0,0:0:0:0:
51,192,126444,1,8,0:0:0:0:
256,192,126644,1,0,0:0:0:0:
153,192,126644,1,0,0:0:0:0:
460,192,126844,1,0,0:0:0:0:
358,192,126844,1,8,0:0:0:0:
51,192,126844,1,0,0:0:0:0:
358,192,127044,1,0,0:0:0:0:
460,192,127044,1,0,0:0:0:0:
153,192,127244,1,0,0:0:0:0:
256,192,127244,1,8,0:0:0:0:
51,192,127244,1,0,0:0:0:0:
460,192,127444,1,0,0:0:0:0:
358,192,127444,1,0,0:0:0:0:
153,192,127544,5,0,0:0:0:0:
51,192,127544,1,0,0:0:0:0:
460,192,127644,1,0,0:0:0:0:
358,192,127644,1,8,0:0:0:0:
256,192,127644,1,0,0:0:0:0:
51,192,127844,1,0,0:0:0:0:
153,192,127844,1,0,0:0:0:0:
358,192,128044,1,0,0:0:0:0:
256,192,128044,1,0,0:0:0:0:
460,192,128044,1,8,0:0:0:0:
51,192,128244,1,0,0:0:0:0:
153,192,128244,1,0,0:0:0:0:
256,192,128444,5,0,0:0:0:0:
153,192,128444,1,0,0:0:0:0:
51,192,128444,1,8,0:0:0:0:
358,192,128544,1,0,0:0:0:0:
51,192,128644,1,0,0:0:0:0:
460,192,128644,1,2,0:0:0:0:
153,192,128744,1,0,0:0:0:0:
256,192,128844,1,8,0:0:0:0:
358,192,128844,1,0,0:0:0:0:
460,192,128844,1,0,0:0:0:0:
51,192,128944,1,2,0:0:0:0:
153,192,128944,1,0,0:0:0:0:
460,192,129044,1,2,0:0:0:0:
358,192,129044,1,0,0:0:0:0:
51,192,129144,1,0,0:0:0:0:
153,192,129144,1,2,0:0:0:0:
460,192,129244,1,0,0:0:0:0:
358,192,129244,1,8,0:0:0:0:
256,192,129244,1,0,0:0:0:0:
153,192,129344,1,0,0:0:0:0:
51,192,129344,1,2,0:0:0:0:
460,192,129444,1,0,0:0:0:0:
256,192,129444,1,2,0:0:0:0:
460,192,129644,1,0,0:0:0:0:
153,192,129644,1,0,0:0:0:0:
51,192,129644,1,8,0:0:0:0:
256,192,129744,1,0,0:0:0:0:
358,192,129744,1,2,0:0:0:0:
51,192,129844,1,0,0:0:0:0:
153,192,129844,1,2,0:0:0:0:
256,192,129944,1,2,0:0:0:0:
358,192,129944,1,0,0:0:0:0:
51,192,130044,1,0,0:0:0:0:
153,192,130044,1,0,0:0:0:0:
460,192,130044,1,8,0:0:0:0:
256,192,130144,1,0,0:0:0:0:
358,192,130144,1,2,0:0:0:0:
51,192,130244,1,2,0:0:0:0:
460,192,130244,1,0,0:0:0:0:
256,192,130444,1,8,0:0:0:0:
358,192,130444,1,0,0:0:0:0:
460,192,130444,1,0,0:0:0:0:
51,192,130544,1,2,0:0:0:0:
153,192,130544,1,0,0:0:0:0:
358,192,130644,1,2,0:0:0:0:
460,192,130644,1,0,0:0:0:0:
153,192,130744,1,2,0:0:0:0:
51,192,130744,1,0,0:0:0:0:
256,192,130844,1,0,0:0:0:0:
358,192,130844,1,8,0:0:0:0:
460,192,130844,1,0,0:0:0:0:
153,192,130944,1,0,0:0:0:0:
51,192,130944,1,2,0:0:0:0:
256,192,131044,1,2,0:0:0:0:
460,192,131044,1,0,0:0:0:0:
358,192,131244,1,0,0:0:0:0:
460,192,131244,1,0,0:0:0:0:
51,192,131244,1,8,0:0:0:0:
256,192,131344,1,0,0:0:0:0:
153,192,131344,1,2,0:0:0:0:
358,192,131444,1,2,0:0:0:0:
460,192,131444,1,0,0:0:0:0:
153,192,131544,1,0,0:0:0:0:
256,192,131544,1,2,0:0:0:0:
51,192,131644,1,8,0:0:0:0:
358,192,131644,1,0,0:0:0:0:
460,192,131644,1,0,0:0:0:0:
256,192,131744,1,2,0:0:0:0:
153,192,131744,1,0,0:0:0:0:
460,192,131844,1,2,0:0:0:0:
51,192,131844,1,0,0:0:0:0:
256,192,131944,1,0,0:0:0:0:
358,192,131944,1,2,0:0:0:0:
51,192,132044,1,2,0:0:0:0:
460,192,132044,1,0,0:0:0:0:
153,192,132044,1,8,0:0:0:0:
358,192,132144,1,0,0:0:0:0:
256,192,132144,1,2,0:0:0:0:
153,192,132244,1,2,0:0:0:0:
51,192,132244,1,0,0:0:0:0:
358,192,132344,1,2,0:0:0:0:
460,192,132344,1,0,0:0:0:0:
153,192,132444,1,8,0:0:0:0:
51,192,132444,1,0,0:0:0:0:
256,192,132444,1,0,0:0:0:0:
358,192,132544,1,0,0:0:0:0:
460,192,132544,1,2,0:0:0:0:
153,192,132644,1,0,0:0:0:0:
51,192,132644,1,2,0:0:0:0:
256,192,132744,1,2,0:0:0:0:
460,192,132744,1,0,0:0:0:0:
153,192,132844,1,2,0:0:0:0:
51,192,132844,1,0,0:0:0:0:
358,192,132844,1,8,0:0:0:0:
460,192,132944,1,0,0:0:0:0:
256,192,132944,1,2,0:0:0:0:
358,192,133044,1,0,0:0:0:0:
51,192,133044,1,2,0:0:0:0:
153,192,133144,1,2,0:0:0:0:
256,192,133144,1,0,0:0:0:0:
460,192,133244,1,2,0:0:0:0:
358,192,133244,1,0,0:0:0:0:
51,192,133244,1,4,0:0:0:0:
153,192,134844,1,4,0:0:0:0:
358,192,134844,1,0,0:0:0:0:
256,192,134844,128,2,135044:0:0:0:0:
256,192,135244,128,0,135444:0:0:0:0:
51,192,135244,1,2,0:0:0:0:
460,192,135644,128,0,135844:0:0:0:0:
153,192,135644,1,2,0:0:0:0:
358,192,135844,1,0,0:0:0:0:
256,192,135944,1,0,0:0:0:0:
153,192,136044,1,0,0:0:0:0:
51,192,136044,1,2,0:0:0:0:
51,192,136244,128,0,136444:0:0:0:0:
460,192,136444,1,2,0:0:0:0:
358,192,136444,1,0,0:0:0:0:
256,192,136544,1,0,0:0:0:0:
153,192,136644,1,0,0:0:0:0:
51,192,136744,1,0,0:0:0:0:
460,192,136844,1,2,0:0:0:0:
358,192,136844,128,0,137244:0:0:0:0:
153,192,137244,128,0,137644:0:0:0:0:
256,192,137244,1,2,0:0:0:0:
256,192,137644,128,0,138044:0:0:0:0:
51,192,137644,1,2,0:0:0:0:
460,192,138044,128,0,138244:0:0:0:0:
358,192,138044,1,2,0:0:0:0:
460,192,138444,128,0,138644:0:0:0:0:
153,192,138444,1,2,0:0:0:0:
51,192,138844,128,0,139044:0:0:0:0:
256,192,138844,1,2,0:0:0:0:
460,192,139044,1,0,0:0:0:0:
358,192,139144,1,0,0:0:0:0:
153,192,139244,1,2,0:0:0:0:
256,192,139244,1,0,0:0:0:0:
51,192,139444,1,0,0:0:0:0:
153,192,139544,1,0,0:0:0:0:
460,192,139644,1,4,0:0:0:0:
358,192,139644,1,2,0:0:0:0:
256,192,139644,1,0,0:0:0:0:
51,192,139744,1,0,0:0:0:0:
153,192,139844,1,0,0:0:0:0:
256,192,139944,1,0,0:0:0:0:
358,192,140044,1,2,0:0:0:0:
460,192,140044,1,0,0:0:0:0:
358,192,140244,128,0,140444:0:0:0:0:
153,192,140444,1,0,0:0:0:0:
51,192,140444,1,2,0:0:0:0:
256,192,140544,1,2,0:0:0:0:
358,192,140544,1,0,0:0:0:0:
153,192,140644,1,2,0:0:0:0:
51,192,140644,1,0,0:0:0:0:
460,192,140744,1,0,0:0:0:0:
358,192,140744,1,2,0:0:0:0:
153,192,140844,1,4,0:0:0:0:
256,192,140844,1,0,0:0:0:0:
51,192,140844,1,2,0:0:0:0:
460,192,141044,128,0,141244:0:0:0:0:
256,192,141244,1,4,0:0:0:0:
51,192,141244,1,2,0:0:0:0:
153,192,141244,128,0,141444:0:0:0:0:
153,192,141644,128,0,141844:0:0:0:0:
358,192,141644,1,2,0:0:0:0:
460,192,142044,128,0,142244:0:0:0:0:
256,192,142044,1,2,0:0:0:0:
51,192,142244,1,0,0:0:0:0:
153,192,142344,1,0,0:0:0:0:
460,192,142444,1,2,0:0:0:0:
358,192,142444,1,0,0:0:0:0:
256,192,142644,128,0,142844:0:0:0:0:
153,192,142844,1,0,0:0:0:0:
51,192,142844,1,2,0:0:0:0:
460,192,142944,1,0,0:0:0:0:
358,192,143044,1,0,0:0:0:0:
256,192,143144,1,0,0:0:0:0:
153,192,143244,1,2,0:0:0:0:
51,192,143244,128,0,143644:0:0:0:0:
153,192,143644,128,0,144044:0:0:0:0:
358,192,143644,1,2,0:0:0:0:
256,192,144044,128,0,144444:0:0:0:0:
460,192,144044,1,2,0:0:0:0:
460,192,144444,128,0,144644:0:0:0:0:
51,192,144444,1,2,0:0:0:0:
460,192,144844,128,0,145044:0:0:0:0:
358,192,144844,1,2,0:0:0:0:
358,192,145244,128,0,145444:0:0:0:0:
153,192,145244,1,2,0:0:0:0:
51,192,145444,1,0,0:0:0:0:
153,192,145544,1,0,0:0:0:0:
256,192,145644,1,2,0:0:0:0:
460,192,145644,1,0,0:0:0:0:
153,192,145844,128,0,146044:0:0:0:0:
358,192,145844,1,0,0:0:0:0:
256,192,145944,1,0,0:0:0:0:
51,192,146044,1,0,0:0:0:0:
358,192,146044,1,2,0:0:0:0:
460,192,146044,1,4,0:0:0:0:
256,192,146244,128,0,146444:0:0:0:0:
51,192,146444,1,2,0:0:0:0:
153,192,146444,1,0,0:0:0:0:
256,192,146644,128,0,146844:0:0:0:0:
460,192,146844,1,2,0:0:0:0:
358,192,146844,1,0,0:0:0:0:
256,192,147044,128,0,147244:0:0:0:0:
460,192,147244,1,0,0:0:0:0:
153,192,147244,1,8,0:0:0:0:
51,192,147244,1,0,0:0:0:0:
256,192,147644,1,4,0:0:0:0:
51,192,147644,1,2,0:0:0:0:
153,192,147644,128,0,147844:0:0:0:0:
153,192,148044,128,0,148244:0:0:0:0:
460,192,148044,1,0,0:0:0:0:
358,192,148044,1,8,0:0:0:0:
256,192,148444,128,0,148644:0:0:0:0:
51,192,148444,1,2,0:0:0:0:
460,192,148644,1,0,0:0:0:0:
358,192,148744,128,0,148844:0:0:0:0:
51,192,148844,1,0,0:0:0:0:
153,192,148844,1,0,0:0:0:0:
256,192,148844,1,8,0:0:0:0:
460,192,149044,128,0,149144:0:0:0:0:
153,192,149244,1,2,0:0:0:0:
51,192,149244,1,0,0:0:0:0:
358,192,149344,1,0,0:0:0:0:
256,192,149444,1,0,0:0:0:0:
460,192,149544,1,0,0:0:0:0:
51,192,149644,128,0,150044:0:0:0:0:
153,192,149644,1,0,0:0:0:0:
358,192,149644,1,8,0:0:0:0:
256,192,149844,128,0,150044:0:0:0:0:
153,192,150044,128,0,150444:0:0:0:0:
358,192,150044,1,2,0:0:0:0:
460,192,150144,1,0,0:0:0:0:
358,192,150244,128,0,150444:0:0:0:0:
256,192,150444,128,0,150844:0:0:0:0:
51,192,150444,1,0,0:0:0:0:
460,192,150444,1,8,0:0:0:0:
460,192,150644,128,0,150844:0:0:0:0:
51,192,150844,128,0,151044:0:0:0:0:
153,192,150844,1,2,0:0:0:0:
51,192,151244,128,0,151444:0:0:0:0:
358,192,151244,1,0,0:0:0:0:
256,192,151244,1,8,0:0:0:0:
153,192,151644,128,0,151844:0:0:0:0:
460,192,151644,1,2,0:0:0:0:
358,192,151844,1,0,0:0:0:0:
256,192,151944,128,0,152044:0:0:0:0:
51,192,152044,1,8,0:0:0:0:
153,192,152044,1,0,0:0:0:0:
460,192,152044,1,0,0:0:0:0:
358,192,152244,128,0,152344:0:0:0:0:
51,192,152444,128,0,152644:0:0:0:0:
256,192,152444,1,2,0:0:0:0:
153,192,152444,1,4,0:0:0:0:
358,192,152544,1,0,0:0:0:0:
153,192,152644,128,0,152844:0:0:0:0:
460,192,152644,1,0,0:0:0:0:
460,192,152844,128,0,153044:0:0:0:0:
51,192,152844,1,0,0:0:0:0:
358,192,152844,1,8,0:0:0:0:
358,192,153044,128,0,153244:0:0:0:0:
153,192,153044,1,0,0:0:0:0:
256,192,153244,1,8,0:0:0:0:
51,192,153244,128,0,153444:0:0:0:0:
358,192,153344,1,8,0:0:0:0:
153,192,153444,128,0,153644:0:0:0:0:
460,192,153444,1,8,0:0:0:0:
256,192,153544,1,8,0:0:0:0:
51,192,153644,1,8,0:0:0:0:
358,192,153644,1,4,0:0:0:0:
460,192,153644,1,0,0:0:0:0:
153,192,153844,1,0,0:0:0:0:
460,192,154044,128,0,154244:0:0:0:0:
256,192,154044,1,4,0:0:0:0:
358,192,154044,1,2,0:0:0:0:
460,192,154444,128,0,154644:0:0:0:0:
51,192,154444,1,8,0:0:0:0:
153,192,154444,1,0,0:0:0:0:
358,192,154844,128,0,155044:0:0:0:0:
256,192,154844,1,2,0:0:0:0:
153,192,155044,1,0,0:0:0:0:
256,192,155144,128,0,155244:0:0:0:0:
51,192,155244,1,0,0:0:0:0:
460,192,155244,1,8,0:0:0:0:
358,192,155244,1,0,0:0:0:0:
153,192,155444,128,0,155544:0:0:0:0:
256,192,155644,1,2,0:0:0:0:
460,192,155644,1,0,0:0:0:0:
153,192,155744,1,0,0:0:0:0:
51,192,155844,1,0,0:0:0:0:
256,192,155944,1,0,0:0:0:0:
460,192,156044,128,0,156444:0:0:0:0:
153,192,156044,1,8,0:0:0:0:
358,192,156044,1,0,0:0:0:0:
256,192,156244,128,0,156444:0:0:0:0:
358,192,156444,128,0,156844:0:0:0:0:
153,192,156444,1,2,0:0:0:0:
51,192,156544,1,0,0:0:0:0:
153,192,156644,128,0,156844:0:0:0:0:
256,192,156844,128,0,157244:0:0:0:0:
460,192,156844,1,8,0:0:0:0:
51,192,156844,1,0,0:0:0:0:
51,192,157044,128,0,157244:0:0:0:0:
460,192,157244,128,0,157444:0:0:0:0:
153,192,157244,1,2,0:0:0:0:
460,192,157644,128,0,157844:0:0:0:0:
358,192,157644,1,8,0:0:0:0:
256,192,157644,1,0,0:0:0:0:
153,192,158044,128,0,158244:0:0:0:0:
51,192,158044,1,2,0:0:0:0:
358,192,158244,1,0,0:0:0:0:
256,192,158344,128,0,158444:0:0:0:0:
51,192,158444,1,0,0:0:0:0:
153,192,158444,1,8,0:0:0:0:
460,192,158444,1,0,0:0:0:0:
358,192,158644,128,0,158744:0:0:0:0:
51,192,158844,128,0,159444:0:0:0:0:
256,192,158844,1,2,0:0:0:0:
153,192,158844,1,4,0:0:0:0:
358,192,159244,1,0,0:0:0:0:
153,192,159244,1,0,0:0:0:0:
460,192,159244,1,8,0:0:0:0:
256,192,159444,1,0,0:0:0:0:
358,192,159644,1,2,0:0:0:0:
460,192,159644,1,0,0:0:0:0:
256,192,159744,1,0,0:0:0:0:
153,192,159844,1,0,0:0:0:0:
460,192,159944,1,0,0:0:0:0:
51,192,159944,1,2,0:0:0:0:
153,192,160044,128,0,160344:0:0:0:0:
358,192,160044,128,2,160144:0:0:0:0:
256,192,160044,128,0,160244:0:0:0:0:
256,192,160444,1,4,0:0:0:0:
460,192,160444,1,0,0:0:0:0:
51,192,160444,1,2,0:0:0:0:
256,192,160644,1,0,0:0:0:0:
153,192,160744,1,0,0:0:0:0:
358,192,160744,1,2,0:0:0:0:
51,192,160844,1,0,0:0:0:0:
460,192,160844,1,8,0:0:0:0:
153,192,161044,1,0,0:0:0:0:
460,192,161144,1,0,0:0:0:0:
256,192,161144,1,2,0:0:0:0:
51,192,161244,128,0,161444:0:0:0:0:
358,192,161244,1,2,0:0:0:0:
256,192,161444,1,0,0:0:0:0:
153,192,161544,128,0,161644:0:0:0:0:
358,192,161544,1,2,0:0:0:0:
460,192,161644,1,8,0:0:0:0:
51,192,161644,1,0,0:0:0:0:
358,192,161844,128,0,161944:0:0:0:0:
256,192,161844,1,0,0:0:0:0:
51,192,161944,1,2,0:0:0:0:
460,192,161944,1,0,0:0:0:0:
256,192,162044,1,0,0:0:0:0:
153,192,162044,1,2,0:0:0:0:
358,192,162144,1,0,0:0:0:0:
153,192,162244,1,0,0:0:0:0:
51,192,162344,1,2,0:0:0:0:
460,192,162444,128,0,162844:0:0:0:0:
358,192,162444,1,8,0:0:0:0:
256,192,162644,128,0,162844:0:0:0:0:
153,192,162744,1,2,0:0:0:0:
358,192,162844,128,0,163244:0:0:0:0:
51,192,162844,1,2,0:0:0:0:
153,192,163044,128,0,163244:0:0:0:0:
460,192,163144,1,2,0:0:0:0:
256,192,163244,128,0,163644:0:0:0:0:
51,192,163244,1,8,0:0:0:0:
51,192,163444,128,0,163644:0:0:0:0:
460,192,163544,1,2,0:0:0:0:
153,192,163644,1,2,0:0:0:0:
358,192,163644,1,0,0:0:0:0:
51,192,163844,1,0,0:0:0:0:
460,192,163944,1,0,0:0:0:0:
358,192,163944,1,2,0:0:0:0:
256,192,164044,1,8,0:0:0:0:
153,192,164044,1,0,0:0:0:0:
460,192,164244,1,0,0:0:0:0:
256,192,164344,1,0,0:0:0:0:
51,192,164344,1,2,0:0:0:0:
153,192,164444,128,0,164644:0:0:0:0:
358,192,164444,1,2,0:0:0:0:
460,192,164644,1,0,0:0:0:0:
358,192,164744,128,0,164844:0:0:0:0:
51,192,164744,1,2,0:0:0:0:
256,192,164844,1,0,0:0:0:0:
153,192,164844,1,8,0:0:0:0:
256,192,165044,128,0,165144:0:0:0:0:
460,192,165144,1,2,0:0:0:0:
153,192,165144,1,0,0:0:0:0:
51,192,165244,128,0,165444:0:0:0:0:
358,192,165244,1,2,0:0:0:0:
256,192,165244,1,0,0:0:0:0:
153,192,165444,128,0,165644:0:0:0:0:
358,192,165444,1,0,0:0:0:0:
460,192,165544,1,2,0:0:0:0:
358,192,165644,128,0,165844:0:0:0:0:
256,192,165644,1,8,0:0:0:0:
460,192,165844,128,0,166044:0:0:0:0:
51,192,165844,1,0,0:0:0:0:
153,192,165944,1,2,0:0:0:0:
51,192,166044,128,0,166244:0:0:0:0:
256,192,166044,1,2,0:0:0:0:
460,192,166144,1,2,0:0:0:0:
358,192,166244,1,2,0:0:0:0:
153,192,166244,128,0,166444:0:0:0:0:
256,192,166344,1,2,0:0:0:0:
358,192,166444,128,0,166644:0:0:0:0:
51,192,166444,1,0,0:0:0:60:soft-hitclap3.wav
460,192,166444,1,4,0:0:0:0:
460,192,166644,128,0,166844:0:0:0:0:
256,192,166844,1,2,0:0:0:0:
358,192,166844,1,0,0:0:0:0:
51,192,166844,1,4,0:0:0:0:
153,192,167044,1,0,0:0:0:0:
460,192,167144,1,0,0:0:0:0:
358,192,167144,1,2,0:0:0:0:
256,192,167244,1,2,0:0:0:0:
51,192,167244,1,0,0:0:0:0:
460,192,167444,1,0,0:0:0:0:
358,192,167544,1,2,0:0:0:0:
51,192,167544,1,0,0:0:0:0:
256,192,167644,128,0,167844:0:0:0:0:
153,192,167644,1,2,0:0:0:0:
460,192,167844,1,0,0:0:0:0:
51,192,167944,128,0,168044:0:0:0:0:
358,192,167944,1,2,0:0:0:0:
153,192,168044,1,0,0:0:0:0:
256,192,168044,1,8,0:0:0:0:
460,192,168244,128,0,168344:0:0:0:0:
358,192,168344,1,0,0:0:0:0:
51,192,168344,1,2,0:0:0:0:
153,192,168444,1,2,0:0:0:0:
256,192,168444,1,0,0:0:0:0:
51,192,168544,1,0,0:0:0:0:
460,192,168644,1,0,0:0:0:0:
256,192,168744,1,0,0:0:0:0:
358,192,168744,1,2,0:0:0:0:
51,192,168844,128,0,169244:0:0:0:0:
153,192,168844,1,8,0:0:0:0:
256,192,169044,128,0,169244:0:0:0:0:
358,192,169144,1,2,0:0:0:0:
153,192,169244,128,0,169644:0:0:0:0:
460,192,169244,1,2,0:0:0:0:
358,192,169444,128,0,169644:0:0:0:0:
460,192,169544,1,2,0:0:0:0:
256,192,169644,128,0,170044:0:0:0:0:
51,192,169644,1,8,0:0:0:0:
460,192,169844,128,0,170044:0:0:0:0:
51,192,169944,1,2,0:0:0:0:
153,192,170044,1,2,0:0:0:0:
358,192,170044,1,0,0:0:0:0:
51,192,170244,1,0,0:0:0:0:
460,192,170344,1,0,0:0:0:0:
256,192,170344,1,2,0:0:0:0:
153,192,170444,1,0,0:0:0:0:
358,192,170444,1,8,0:0:0:0:
256,192,170644,1,0,0:0:0:0:
460,192,170744,1,2,0:0:0:0:
51,192,170744,1,0,0:0:0:0:
153,192,170844,128,0,171044:0:0:0:0:
358,192,170844,1,2,0:0:0:0:
256,192,171044,1,0,0:0:0:0:
358,192,171144,128,0,171244:0:0:0:0:
51,192,171144,1,2,0:0:0:0:
153,192,171244,1,8,0:0:0:0:
460,192,171244,1,0,0:0:0:0:
51,192,171444,128,0,171544:0:0:0:0:
358,192,171544,1,0,0:0:0:0:
256,192,171544,1,2,0:0:0:0:
460,192,171644,128,0,172144:0:0:0:0:
153,192,171644,1,4,0:0:0:0:
51,192,171644,1,2,0:0:0:0:
358,192,171844,1,0,0:0:0:0:
51,192,171944,1,0,0:0:0:0:
153,192,171944,1,2,0:0:0:0:
358,192,172044,1,8,0:0:0:0:
256,192,172044,1,0,0:0:0:0:
51,192,172244,1,0,0:0:0:0:
358,192,172344,1,0,0:0:0:0:
256,192,172344,1,2,0:0:0:0:
51,192,172444,1,8,0:0:0:0:
153,192,172444,1,0,0:0:0:0:
460,192,172544,1,0,0:0:0:0:
358,192,172544,1,2,0:0:0:0:
153,192,172644,1,2,0:0:0:0:
256,192,172644,1,0,0:0:0:0:
51,192,172744,1,0,0:0:0:0:
460,192,172744,1,2,0:0:0:0:
358,192,172844,1,0,0:0:0:0:
256,192,172844,1,8,0:0:0:0:
51,192,172944,1,2,0:0:0:0:
153,192,172944,1,0,0:0:0:0:
358,192,173044,1,2,0:0:0:0:
460,192,173044,1,0,0:0:0:0:
153,192,173144,1,2,0:0:0:0:
256,192,173144,1,0,0:0:0:0:
358,192,173244,1,2,0:0:0:0:
460,192,173244,1,4,0:0:0:0:
51,192,173244,1,0,0:0:0:0:
153,192,173444,1,0,0:0:0:0:
256,192,173544,1,2,0:0:0:0:
358,192,173544,1,0,0:0:0:0:
51,192,173644,1,8,0:0:0:0:
460,192,173644,1,0,0:0:0:0:
358,192,173844,1,0,0:0:0:0:
256,192,173944,1,0,0:0:0:0:
460,192,173944,1,2,0:0:0:0:
153,192,174044,128,0,174244:0:0:0:0:
51,192,174044,1,2,0:0:0:0:
256,192,174244,1,0,0:0:0:0:
358,192,174344,128,0,174444:0:0:0:0:
460,192,174344,1,2,0:0:0:0:
51,192,174444,1,0,0:0:0:0:
153,192,174444,1,8,0:0:0:0:
460,192,174644,128,0,174744:0:0:0:0:
358,192,174744,1,0,0:0:0:0:
256,192,174744,1,2,0:0:0:0:
51,192,174844,1,2,0:0:0:0:
153,192,174844,1,0,0:0:0:0:
460,192,174944,1,0,0:0:0:0:
256,192,175044,1,0,0:0:0:0:
153,192,175144,1,0,0:0:0:0:
358,192,175144,1,2,0:0:0:0:
51,192,175244,128,0,175644:0:0:0:0:
460,192,175244,1,8,0:0:0:0:
358,192,175444,128,0,175644:0:0:0:0:
153,192,175544,1,2,0:0:0:0:
256,192,175644,128,0,176044:0:0:0:0:
460,192,175644,1,2,0:0:0:0:
153,192,175844,128,0,176044:0:0:0:0:
358,192,175944,1,2,0:0:0:0:
460,192,176044,128,0,176444:0:0:0:0:
51,192,176044,1,8,0:0:0:0:
358,192,176244,128,0,176444:0:0:0:0:
51,192,176344,1,2,0:0:0:0:
153,192,176444,1,2,0:0:0:0:
256,192,176444,1,0,0:0:0:0:
51,192,176644,1,0,0:0:0:0:
153,192,176744,1,0,0:0:0:0:
256,192,176744,1,2,0:0:0:0:
460,192,176844,1,0,0:0:0:0:
358,192,176844,1,8,0:0:0:0:
153,192,177044,1,0,0:0:0:0:
358,192,177144,1,0,0:0:0:0:
460,192,177144,1,2,0:0:0:0:
256,192,177244,128,0,177444:0:0:0:0:
51,192,177244,1,2,0:0:0:0:
153,192,177444,1,0,0:0:0:0:
51,192,177544,128,0,177644:0:0:0:0:
460,192,177544,1,2,0:0:0:0:
256,192,177644,1,8,0:0:0:0:
358,192,177644,1,0,0:0:0:0:
358,192,177844,128,0,177944:0:0:0:0:
153,192,177944,1,2,0:0:0:0:
51,192,178044,128,0,178244:0:0:0:0:
460,192,178044,1,2,0:0:0:0:
256,192,178244,128,0,178444:0:0:0:0:
358,192,178344,1,2,0:0:0:0:
460,192,178444,128,0,178644:0:0:0:0:
51,192,178444,1,8,0:0:0:0:
153,192,178644,128,0,178844:0:0:0:0:
256,192,178744,1,2,0:0:0:0:
358,192,178844,128,0,179044:0:0:0:0:
460,192,178844,1,2,0:0:0:0:
51,192,179044,128,0,179244:0:0:0:0:
153,192,179144,1,2,0:0:0:0:
256,192,179244,128,8,179444:0:0:0:0:
358,192,179244,1,0,0:0:0:0:
460,192,179444,128,0,179644:0:0:0:0:
51,192,179444,1,8,0:0:0:0:
153,192,179544,1,8,0:0:0:0:
358,192,179644,5,2,0:0:0:0:
51,192,179644,1,0,0:0:0:0:
256,192,179644,1,4,0:0:0:0:
153,192,179844,1,2,0:0:0:0:
358,192,179844,1,0,0:0:0:0:
256,192,180044,1,0,0:0:0:0:
460,192,180044,1,8,0:0:0:0:
153,192,180244,1,0,0:0:0:0:
51,192,180244,1,2,0:0:0:0:
358,192,180344,1,2,0:0:0:0:
256,192,180344,1,0,0:0:0:0:
460,192,180444,1,2,0:0:0:0:
51,192,180444,1,0,0:0:0:0:
256,192,180644,1,0,0:0:0:0:
153,192,180644,1,2,0:0:0:0:
358,192,180844,1,8,0:0:0:0:
460,192,180844,1,0,0:0:0:0:
51,192,181044,1,2,0:0:0:0:
256,192,181044,1,0,0:0:0:0:
153,192,181144,1,2,0:0:0:0:
358,192,181144,1,0,0:0:0:0:
460,192,181244,1,0,0:0:0:0:
256,192,181244,1,2,0:0:0:0:
51,192,181444,1,2,0:0:0:0:
153,192,181444,1,0,0:0:0:0:
460,192,181644,1,8,0:0:0:0:
358,192,181644,1,0,0:0:0:0:
460,192,181844,1,0,0:0:0:0:
256,192,181844,1,2,0:0:0:0:
153,192,181944,1,2,0:0:0:0:
358,192,181944,1,0,0:0:0:0:
51,192,182044,1,2,0:0:0:0:
256,192,182044,1,0,0:0:0:0:
358,192,182244,1,2,0:0:0:0:
460,192,182244,1,0,0:0:0:0:
256,192,182444,1,0,0:0:0:0:
153,192,182444,1,8,0:0:0:0:
51,192,182644,1,0,0:0:0:0:
460,192,182644,1,2,0:0:0:0:
153,192,182744,1,0,0:0:0:0:
256,192,182744,1,2,0:0:0:0:
460,192,182844,1,0,0:0:0:0:
358,192,182844,1,2,0:0:0:0:
256,192,182944,1,0,0:0:0:0:
153,192,182944,1,2,0:0:0:0:
460,192,183044,1,2,0:0:0:0:
358,192,183044,1,0,0:0:0:0:
153,192,183244,1,0,0:0:0:0:
51,192,183244,1,8,0:0:0:0:
256,192,183344,1,2,0:0:0:0:
358,192,183344,1,0,0:0:0:0:
153,192,183444,1,2,0:0:0:0:
51,192,183444,1,0,0:0:0:0:
460,192,183644,1,2,0:0:0:0:
358,192,183644,1,0,0:0:0:0:
51,192,183744,1,2,0:0:0:0:
153,192,183744,1,0,0:0:0:0:
460,192,183844,1,0,0:0:0:0:
358,192,183844,1,2,0:0:0:0:
51,192,184044,1,0,0:0:0:0:
153,192,184044,1,8,0:0:0:0:
358,192,184144,1,0,0:0:0:0:
460,192,184144,1,2,0:0:0:0:
153,192,184244,1,0,0:0:0:0:
51,192,184244,1,2,0:0:0:0:
358,192,184444,1,2,0:0:0:0:
256,192,184444,1,8,0:0:0:0:
153,192,184544,1,0,0:0:0:0:
51,192,184544,1,0,0:0:0:50:soft-hitclap2.wav
358,192,184644,1,0,0:0:0:0:
460,192,184644,1,0,0:0:0:50:soft-hitclap2.wav
256,192,184744,1,0,0:0:0:50:soft-hitclap2.wav
153,192,184744,1,0,0:0:0:0:
460,192,184844,1,0,0:0:0:0:
51,192,184844,1,0,0:0:0:50:soft-hitclap2.wav
358,192,184944,1,0,0:0:0:50:soft-hitclap2.wav
256,192,184944,1,0,0:0:0:0:
51,192,185044,1,0,0:0:0:0:
153,192,185044,1,0,0:0:0:50:soft-hitclap2.wav
460,192,185144,1,0,0:0:0:50:soft-hitclap2.wav
358,192,185144,1,0,0:0:0:0:
153,192,185244,1,0,0:0:0:0:
256,192,185244,1,0,0:0:0:50:soft-hitclap2.wav
51,192,185344,1,0,0:0:0:50:soft-hitclap2.wav
460,192,185344,1,0,0:0:0:0:
256,192,185444,1,0,0:0:0:0:
358,192,185444,1,0,0:0:0:50:soft-hitclap2.wav
51,192,185544,1,0,0:0:0:0:
153,192,185544,1,0,0:0:0:50:soft-hitclap2.wav
460,192,185644,128,2,186044:0:0:0:0:
256,192,185644,128,0,185844:0:0:0:0:
358,192,185644,128,0,185944:0:0:0:0:
256,192,186044,1,0,0:0:0:0:
51,192,186044,1,2,0:0:0:0:
153,192,186044,128,4,186144:0:0:0:0:
358,192,186244,128,0,186344:0:0:0:0:
460,192,186244,1,0,0:0:0:0:
256,192,186344,1,0,0:0:0:0:
51,192,186344,1,2,0:0:0:0:
153,192,186444,1,0,0:0:0:0:
460,192,186444,1,8,0:0:0:0:
358,192,186644,1,0,0:0:0:0:
256,192,186744,1,0,0:0:0:0:
153,192,186744,1,2,0:0:0:0:
51,192,186844,128,0,186944:0:0:0:0:
460,192,186844,1,2,0:0:0:0:
358,192,187044,1,0,0:0:0:0:
460,192,187144,128,0,187244:0:0:0:0:
153,192,187144,1,2,0:0:0:0:
51,192,187244,1,8,0:0:0:0:
256,192,187244,1,0,0:0:0:0:
256,192,187444,128,0,187544:0:0:0:0:
358,192,187444,1,0,0:0:0:0:
51,192,187544,1,0,0:0:0:0:
460,192,187544,1,2,0:0:0:0:
358,192,187644,128,0,187744:0:0:0:0:
153,192,187644,1,2,0:0:0:0:
153,192,187844,128,0,187944:0:0:0:0:
256,192,187844,1,0,0:0:0:0:
358,192,187944,1,2,0:0:0:0:
460,192,187944,1,0,0:0:0:0:
256,192,188044,1,0,0:0:0:0:
51,192,188044,1,8,0:0:0:0:
153,192,188244,1,0,0:0:0:0:
358,192,188344,1,0,0:0:0:0:
256,192,188344,1,2,0:0:0:0:
460,192,188444,128,0,188544:0:0:0:0:
51,192,188444,1,2,0:0:0:0:
51,192,188644,128,0,188744:0:0:0:0:
153,192,188644,1,0,0:0:0:0:
153,192,188744,128,0,188844:0:0:0:0:
256,192,188744,1,2,0:0:0:0:
460,192,188844,128,0,188944:0:0:0:0:
358,192,188844,1,8,0:0:0:0:
256,192,189044,128,0,189144:0:0:0:0:
51,192,189044,1,0,0:0:0:0:
358,192,189144,128,0,189244:0:0:0:0:
153,192,189144,1,2,0:0:0:0:
51,192,189244,128,0,189344:0:0:0:0:
460,192,189244,1,2,0:0:0:0:
460,192,189444,128,0,189544:0:0:0:0:
256,192,189444,1,0,0:0:0:0:
153,192,189544,1,0,0:0:0:0:
358,192,189544,1,2,0:0:0:0:
256,192,189644,1,0,0:0:0:0:
51,192,189644,1,8,0:0:0:0:
153,192,189844,1,0,0:0:0:0:
358,192,189944,1,0,0:0:0:0:
256,192,189944,1,2,0:0:0:0:
460,192,190044,128,0,190144:0:0:0:0:
51,192,190044,1,2,0:0:0:0:
153,192,190244,1,0,0:0:0:0:
256,192,190344,128,0,190444:0:0:0:0:
358,192,190344,1,2,0:0:0:0:
460,192,190444,1,8,0:0:0:0:
51,192,190444,1,0,0:0:0:0:
51,192,190644,128,0,190744:0:0:0:0:
256,192,190644,1,0,0:0:0:0:
358,192,190744,1,0,0:0:0:0:
153,192,190744,1,2,0:0:0:0:
153,192,190844,128,0,190944:0:0:0:0:
460,192,190844,1,4,0:0:0:0:
256,192,190844,1,2,0:0:0:0:
358,192,191044,128,0,191144:0:0:0:0:
460,192,191044,1,0,0:0:0:0:
256,192,191144,1,2,0:0:0:0:
153,192,191144,1,0,0:0:0:0:
460,192,191244,1,8,0:0:0:0:
51,192,191244,1,0,0:0:0:0:
256,192,191444,1,0,0:0:0:0:
358,192,191544,1,0,0:0:0:0:
460,192,191644,128,0,191744:0:0:0:0:
153,192,191644,1,2,0:0:0:0:
256,192,191744,1,0,0:0:0:0:
51,192,191844,1,0,0:0:0:0:
358,192,191944,128,0,192044:0:0:0:0:
153,192,191944,1,0,0:0:0:0:
460,192,192044,1,8,0:0:0:0:
256,192,192044,1,0,0:0:0:0:
153,192,192144,128,0,192244:0:0:0:0:
358,192,192244,1,0,0:0:0:0:
51,192,192444,128,0,192544:0:0:0:0:
256,192,192444,1,2,0:0:0:0:
256,192,192644,128,0,192744:0:0:0:0:
460,192,192644,1,0,0:0:0:0:
358,192,192744,1,2,0:0:0:0:
153,192,192744,1,0,0:0:0:0:
51,192,192844,1,0,0:0:0:0:
460,192,192844,1,8,0:0:0:0:
358,192,193044,1,0,0:0:0:0:
256,192,193144,1,0,0:0:0:0:
51,192,193144,1,2,0:0:0:0:
460,192,193244,128,0,193344:0:0:0:0:
153,192,193244,1,2,0:0:0:0:
256,192,193444,1,0,0:0:0:0:
153,192,193544,128,0,193644:0:0:0:0:
358,192,193544,1,2,0:0:0:0:
460,192,193644,1,8,0:0:0:0:
51,192,193644,1,0,0:0:0:0:
358,192,193844,128,0,193944:0:0:0:0:
256,192,193844,1,0,0:0:0:0:
153,192,193944,1,0,0:0:0:0:
51,192,193944,1,2,0:0:0:0:
256,192,194044,128,0,194144:0:0:0:0:
460,192,194044,1,2,0:0:0:0:
51,192,194244,128,0,194344:0:0:0:0:
358,192,194244,1,0,0:0:0:0:
460,192,194344,1,0,0:0:0:0:
153,192,194344,1,2,0:0:0:0:
256,192,194444,1,8,0:0:0:0:
358,192,194444,1,0,0:0:0:0:
51,192,194644,1,0,0:0:0:0:
153,192,194744,1,0,0:0:0:0:
358,192,194744,1,2,0:0:0:0:
51,192,194844,128,0,194944:0:0:0:0:
256,192,194844,1,2,0:0:0:0:
153,192,195044,128,0,195144:0:0:0:0:
460,192,195044,1,0,0:0:0:0:
256,192,195144,128,0,195244:0:0:0:0:
358,192,195144,1,2,0:0:0:0:
460,192,195244,128,0,195344:0:0:0:0:
51,192,195244,1,8,0:0:0:0:
358,192,195444,128,0,195544:0:0:0:0:
153,192,195444,1,0,0:0:0:0:
256,192,195544,128,0,195644:0:0:0:0:
460,192,195544,1,2,0:0:0:0:
51,192,195644,128,0,195744:0:0:0:0:
153,192,195644,1,2,0:0:0:0:
460,192,195844,128,0,195944:0:0:0:0:
256,192,195844,1,0,0:0:0:0:
358,192,195944,1,0,0:0:0:0:
51,192,195944,1,2,0:0:0:0:
256,192,196044,1,8,0:0:0:0:
153,192,196044,1,0,0:0:0:0:
460,192,196244,1,0,0:0:0:0:
358,192,196344,1,2,0:0:0:0:
256,192,196344,1,0,0:0:0:0:
153,192,196444,128,0,196544:0:0:0:0:
51,192,196444,1,2,0:0:0:0:
256,192,196644,1,0,0:0:0:0:
358,192,196744,128,0,196844:0:0:0:0:
460,192,196744,1,2,0:0:0:0:
51,192,196844,1,0,0:0:0:0:
153,192,196844,1,8,0:0:0:0:
256,192,197044,128,0,197144:0:0:0:0:
460,192,197044,1,0,0:0:0:0:
153,192,197144,1,2,0:0:0:0:
51,192,197144,1,0,0:0:0:0:
51,192,197244,128,0,197344:0:0:0:0:
460,192,197244,1,2,0:0:0:0:
358,192,197244,1,4,0:0:0:0:
153,192,197344,128,0,197444:0:0:0:0:
460,192,197444,128,0,197544:0:0:0:0:
256,192,197444,1,0,0:0:0:0:
358,192,197544,128,0,197644:0:0:0:0:
51,192,197544,1,2,0:0:0:0:
153,192,197644,1,8,0:0:0:0:
256,192,197644,1,0,0:0:0:0:
460,192,197744,1,0,0:0:0:0:
256,192,197844,1,0,0:0:0:0:
153,192,197944,1,0,0:0:0:0:
358,192,197944,1,2,0:0:0:0:
51,192,198044,1,0,0:0:0:0:
460,192,198044,1,2,0:0:0:0:
256,192,198144,1,0,0:0:0:0:
51,192,198244,1,0,0:0:0:0:
358,192,198344,1,2,0:0:0:0:
460,192,198344,1,0,0:0:0:0:
153,192,198444,1,8,0:0:0:0:
256,192,198444,1,0,0:0:0:0:
51,192,198544,1,0,0:0:0:0:
256,192,198644,1,0,0:0:0:0:
358,192,198744,1,0,0:0:0:0:
460,192,198744,1,2,0:0:0:0:
256,192,198844,128,0,198944:0:0:0:0:
153,192,198844,1,4,0:0:0:0:
51,192,198844,1,2,0:0:0:0:
51,192,199044,128,0,199144:0:0:0:0:
460,192,199044,1,0,0:0:0:0:
358,192,199144,1,2,0:0:0:0:
153,192,199144,1,0,0:0:0:0:
460,192,199244,1,8,0:0:0:0:
256,192,199244,1,0,0:0:0:0:
358,192,199444,1,0,0:0:0:0:
256,192,199544,1,0,0:0:0:0:
51,192,199544,1,2,0:0:0:0:
460,192,199644,128,0,199744:0:0:0:0:
153,192,199644,1,2,0:0:0:0:
51,192,199844,1,0,0:0:0:0:
358,192,199944,128,0,200044:0:0:0:0:
256,192,199944,1,2,0:0:0:0:
460,192,200044,1,8,0:0:0:0:
153,192,200044,1,0,0:0:0:0:
256,192,200244,128,0,200344:0:0:0:0:
51,192,200244,1,0,0:0:0:0:
153,192,200344,1,0,0:0:0:0:
460,192,200344,1,2,0:0:0:0:
51,192,200444,128,0,200544:0:0:0:0:
358,192,200444,1,2,0:0:0:0:
153,192,200644,128,0,200744:0:0:0:0:
256,192,200644,1,0,0:0:0:0:
358,192,200744,1,0,0:0:0:0:
460,192,200744,1,2,0:0:0:0:
51,192,200844,1,8,0:0:0:0:
256,192,200844,1,0,0:0:0:0:
51,192,201044,1,0,0:0:0:0:
256,192,201144,1,2,0:0:0:0:
153,192,201144,1,0,0:0:0:0:
460,192,201244,128,0,201344:0:0:0:0:
358,192,201244,1,2,0:0:0:0:
51,192,201444,128,0,201544:0:0:0:0:
153,192,201444,1,0,0:0:0:0:
153,192,201544,128,0,201644:0:0:0:0:
460,192,201544,1,2,0:0:0:0:
358,192,201644,128,0,201744:0:0:0:0:
256,192,201644,1,8,0:0:0:0:
256,192,201844,128,0,201944:0:0:0:0:
153,192,201844,1,0,0:0:0:0:
460,192,201944,128,0,202044:0:0:0:0:
51,192,201944,1,2,0:0:0:0:
153,192,202044,128,0,202144:0:0:0:0:
358,192,202044,1,2,0:0:0:0:
358,192,202244,128,0,202344:0:0:0:0:
256,192,202244,1,0,0:0:0:0:
153,192,202344,1,2,0:0:0:0:
51,192,202344,1,0,0:0:0:0:
256,192,202444,1,8,0:0:0:0:
460,192,202444,1,0,0:0:0:0:
358,192,202644,1,0,0:0:0:0:
153,192,202744,1,2,0:0:0:0:
256,192,202744,1,0,0:0:0:0:
51,192,202844,128,0,202944:0:0:0:0:
460,192,202844,1,2,0:0:0:0:
358,192,203044,1,0,0:0:0:0:
256,192,203144,128,0,203244:0:0:0:0:
153,192,203144,1,2,0:0:0:0:
51,192,203244,1,8,0:0:0:0:
460,192,203244,1,0,0:0:0:0:
460,192,203444,128,0,203544:0:0:0:0:
256,192,203444,1,0,0:0:0:0:
358,192,203544,1,2,0:0:0:0:
153,192,203544,1,0,0:0:0:0:
256,192,203644,128,4,203744:0:0:0:0:
51,192,203644,1,2,0:0:0:0:
51,192,203744,128,0,203844:0:0:0:0:
358,192,203844,128,0,203944:0:0:0:0:
460,192,203844,1,0,0:0:0:0:
153,192,203944,128,0,204044:0:0:0:0:
256,192,203944,1,2,0:0:0:0:
460,192,204044,1,0,0:0:0:0:
51,192,204044,1,8,0:0:0:0:
358,192,204244,1,0,0:0:0:0:
153,192,204444,1,2,0:0:0:0:
51,192,204444,1,0,0:0:0:0:
460,192,204544,1,0,0:0:0:0:
358,192,204644,1,0,0:0:0:0:
51,192,204744,1,0,0:0:0:0:
153,192,204844,1,8,0:0:0:0:
256,192,204910,1,0,0:0:0:0:
358,192,204977,1,0,0:0:0:0:
51,192,205044,1,0,0:0:0:0:
460,192,205044,1,0,0:0:0:0:
460,192,205244,128,0,205344:0:0:0:0:
153,192,205244,1,2,0:0:0:0:
153,192,205444,128,0,205544:0:0:0:0:
256,192,205444,1,2,0:0:0:0:
358,192,205544,1,2,0:0:0:0:
460,192,205544,1,0,0:0:0:0:
51,192,205644,1,8,0:0:0:0:
256,192,205644,1,0,0:0:0:0:
358,192,205844,1,2,0:0:0:0:
153,192,205844,1,0,0:0:0:0:
256,192,205944,1,0,0:0:0:0:
460,192,205944,1,2,0:0:0:0:
358,192,206044,128,0,206144:0:0:0:0:
51,192,206044,1,2,0:0:0:0:
460,192,206244,1,2,0:0:0:0:
51,192,206344,128,0,206444:0:0:0:0:
153,192,206344,1,2,0:0:0:0:
256,192,206344,1,0,0:0:0:0:
460,192,206444,1,8,0:0:0:0:
358,192,206444,1,0,0:0:0:0:
153,192,206644,128,0,206744:0:0:0:0:
256,192,206644,1,2,0:0:0:0:
358,192,206744,1,2,0:0:0:0:
51,192,206744,1,0,0:0:0:0:
460,192,206844,128,0,206944:0:0:0:0:
256,192,206844,1,2,0:0:0:0:
256,192,207044,128,0,207144:0:0:0:0:
153,192,207044,1,2,0:0:0:0:
51,192,207144,1,2,0:0:0:0:
358,192,207144,1,0,0:0:0:0:
153,192,207244,1,8,0:0:0:0:
460,192,207244,1,0,0:0:0:0:
256,192,207444,1,0,0:0:0:0:
358,192,207444,1,2,0:0:0:0:
153,192,207544,1,2,0:0:0:0:
460,192,207544,1,0,0:0:0:0:
51,192,207644,128,0,207744:0:0:0:0:
256,192,207644,1,2,0:0:0:0:
460,192,207844,128,0,207944:0:0:0:0:
153,192,207844,1,2,0:0:0:0:
358,192,207944,128,0,208044:0:0:0:0:
256,192,207944,1,2,0:0:0:0:
51,192,208044,128,0,208144:0:0:0:0:
153,192,208044,1,8,0:0:0:0:
256,192,208244,128,0,208344:0:0:0:0:
460,192,208244,1,2,0:0:0:0:
153,192,208344,128,0,208444:0:0:0:0:
358,192,208344,1,2,0:0:0:0:
460,192,208444,1,0,0:0:0:0:
51,192,208444,1,2,0:0:0:0:
358,192,208544,1,0,0:0:0:60:soft-hitclap2.wav
256,192,208544,1,0,0:0:0:0:
153,192,208644,1,0,0:0:0:60:soft-hitclap2.wav
51,192,208644,1,0,0:0:0:0:
256,192,208744,1,2,0:0:0:0:
51,192,208844,1,8,0:0:0:0:
153,192,208844,1,0,0:0:0:0:
460,192,208944,1,0,0:0:0:60:soft-hitclap2.wav
358,192,208944,1,0,0:0:0:0:
256,192,209044,1,0,0:0:0:60:soft-hitclap2.wav
153,192,209044,1,0,0:0:0:0:
51,192,209144,1,2,0:0:0:0:
460,192,209244,1,0,0:0:0:0:
358,192,209244,1,2,0:0:0:0:
51,192,209344,1,0,0:0:0:60:soft-hitclap2.wav
153,192,209344,1,0,0:0:0:0:
358,192,209444,1,0,0:0:0:60:soft-hitclap2.wav
256,192,209444,1,0,0:0:0:0:
460,192,209544,1,2,0:0:0:0:
51,192,209644,1,8,0:0:0:0:
153,192,209644,1,0,0:0:0:0:
358,192,209744,1,0,0:0:0:0:
460,192,209744,1,0,0:0:0:60:soft-hitclap2.wav
256,192,209844,1,0,0:0:0:0:
153,192,209844,1,0,0:0:0:60:soft-hitclap2.wav
460,192,209944,1,2,0:0:0:0:
153,192,210044,1,0,0:0:0:0:
51,192,210044,1,2,0:0:0:0:
256,192,210044,1,4,0:0:0:0:
358,192,210144,1,0,0:0:0:50:soft-hitclap2.wav
460,192,210144,1,0,0:0:0:0:
153,192,210244,1,0,0:0:0:50:soft-hitclap2.wav
51,192,210244,1,0,0:0:0:0:
358,192,210344,1,0,0:0:0:0:
256,192,210344,1,0,0:0:0:50:soft-hitclap2.wav
51,192,210444,1,0,0:0:0:0:
460,192,210444,1,0,0:0:0:50:soft-hitclap2.wav
153,192,210544,1,0,0:0:0:50:soft-hitclap2.wav
256,192,210544,1,0,0:0:0:0:
358,192,210644,1,0,0:0:0:50:soft-hitclap2.wav
460,192,210644,1,0,0:0:0:0:
51,192,210744,1,0,0:0:0:50:soft-hitclap2.wav
153,192,210744,1,0,0:0:0:0:
358,192,210844,1,0,0:0:0:0:
256,192,210844,1,0,0:0:0:50:soft-hitclap2.wav
51,192,210944,1,0,0:0:0:0:
460,192,210944,1,0,0:0:0:50:soft-hitclap2.wav
153,192,211044,1,0,0:0:0:50:soft-hitclap2.wav
256,192,211044,1,0,0:0:0:0:
358,192,211144,1,0,0:0:0:50:soft-hitclap2.wav
460,192,211144,1,0,0:0:0:0:
51,192,211244,1,0,0:0:0:50:soft-hitclap2.wav
153,192,211244,1,0,0:0:0:0:
358,192,211344,1,0,0:0:0:0:
256,192,211344,1,0,0:0:0:50:soft-hitclap2.wav
51,192,211444,1,0,0:0:0:0:
460,192,211444,1,0,0:0:0:50:soft-hitclap2.wav
256,192,211544,1,0,0:0:0:0:
153,192,211544,1,0,0:0:0:50:soft-hitclap2.wav
460,192,211644,1,0,0:0:0:0:
51,192,211644,1,2,0:0:0:0:
358,192,211644,1,4,0:0:0:0:
153,192,212044,1,0,0:0:0:0:
256,192,212144,1,0,0:0:0:0:
460,192,212444,1,0,0:0:0:0:
358,192,212444,1,0,0:0:0:0:
460,192,212844,1,0,0:0:0:0:
358,192,212844,1,0,0:0:0:0:
256,192,213244,1,0,0:0:0:0:
358,192,213244,1,0,0:0:0:0:
256,192,213644,1,0,0:0:0:0:
358,192,213644,1,0,0:0:0:0:
153,192,214044,1,0,0:0:0:0:
256,192,214044,1,0,0:0:0:0:
153,192,214444,1,0,0:0:0:0:
256,192,214444,1,0,0:0:0:0:
51,192,214844,1,0,0:0:0:0:
153,192,214844,1,0,0:0:0:0:
51,192,215244,1,0,0:0:0:0:
153,192,215244,1,0,0:0:0:0:
460,192,215644,1,0,0:0:0:0:
256,192,215644,1,0,0:0:0:0:
358,192,216044,1,0,0:0:0:0:
153,192,216044,1,0,0:0:0:0:
460,192,216444,128,0,217644:0:0:0:0:
256,192,216444,1,0,0:0:0:0:
358,192,216844,128,0,217644:0:0:0:0:
153,192,216844,1,0,0:0:0:0:
256,192,217244,128,0,217644:0:0:0:0:
51,192,217244,1,0,0:0:0:0:
153,192,217644,1,0,0:0:0:0:
460,192,218044,1,2,0:0:0:0:
256,192,218044,1,4,0:0:0:0:
51,192,218044,1,0,0:0:0:0:
358,192,218244,1,0,0:0:0:0:
153,192,218444,1,0,0:0:0:0:
51,192,218644,1,0,0:0:0:0:
256,192,219444,1,0,0:0:0:0:
358,192,219544,1,0,0:0:0:0:
460,192,219644,1,0,0:0:0:0:
153,192,220444,1,0,0:0:0:0:
51,192,220844,1,0,0:0:0:0:
460,192,221244,1,0,0:0:0:0:
460,192,221844,1,0,0:0:0:0:
153,192,222244,1,0,0:0:0:0:
358,192,222444,1,0,0:0:0:0:
256,192,222644,1,0,0:0:0:0:
460,192,223044,1,0,0:0:0:0:
51,192,223644,5,0,0:0:0:0:
460,192,224444,5,0,0:0:0:0:
256,192,224444,1,2,1:0:0:0:
153,192,225044,1,0,0:0:0:0:
358,192,225044,1,2,1:0:0:0:
51,192,225444,1,0,0:0:0:0:
256,192,225644,1,0,0:0:0:0:
153,192,225644,1,2,1:0:0:0:
460,192,225844,1,2,1:0:0:0:
358,192,225844,1,0,0:0:0:0:
51,192,226244,1,2,1:0:0:0:
256,192,226244,1,0,0:0:0:0:
358,192,226444,1,2,1:0:0:0:
153,192,226444,1,0,0:0:0:0:
460,192,226844,1,0,0:0:0:0:
256,192,226844,1,2,1:0:0:0:
460,192,227244,1,0,0:0:0:0:
153,192,227244,1,2,1:0:0:0:
256,192,227644,1,0,0:0:0:0:
51,192,227644,1,2,1:0:0:0:
153,192,228044,1,0,0:0:0:0:
358,192,228044,1,2,1:0:0:0:
256,192,228244,1,0,0:0:0:0:
358,192,228344,1,0,0:0:0:0:
460,192,228444,1,2,1:0:0:0:
51,192,228444,1,0,0:0:0:0:
256,192,228644,1,2,1:0:0:0:
153,192,228644,1,0,0:0:0:0:
358,192,228844,1,2,1:0:0:0:
460,192,228844,1,0,0:0:0:0:
51,192,229044,1,2,1:0:0:0:
153,192,229044,1,0,0:0:0:0:
256,192,229244,1,0,0:0:0:0:
358,192,229244,1,2,1:0:0:0:
153,192,229644,1,2,1:0:0:0:
51,192,229644,1,0,0:0:0:0:
358,192,229844,1,0,0:0:0:0:
460,192,229844,1,2,1:0:0:0:
256,192,229944,1,0,0:0:0:0:
153,192,229944,1,0,0:0:0:0:
358,192,230044,1,2,1:0:0:0:
460,192,230044,1,0,0:0:0:0:
51,192,230244,1,0,0:0:0:0:
153,192,230244,1,2,1:0:0:0:
358,192,230444,1,2,1:0:0:0:
460,192,230444,1,0,0:0:0:0:
51,192,230644,1,2,1:0:0:0:
153,192,230644,1,0,0:0:0:0:
460,192,230844,1,2,1:0:0:0:
358,192,230844,1,0,0:0:0:0:
256,192,231044,1,0,0:0:0:0:
51,192,231244,1,0,0:0:0:0:
153,192,231244,1,2,1:0:0:0:
460,192,231444,1,0,0:0:0:0:
358,192,231644,1,0,0:0:0:0:
256,192,231644,1,2,1:0:0:0:
51,192,232044,1,2,1:0:0:0:
153,192,232044,1,0,0:0:0:0:
460,192,232244,1,0,0:0:0:0:
358,192,232244,1,2,1:0:0:0:
256,192,232344,1,0,0:0:0:0:
153,192,232444,1,0,0:0:0:0:
460,192,232644,1,2,1:0:0:0:
51,192,232644,1,0,0:0:0:0:
358,192,232844,1,0,0:0:0:0:
256,192,232844,1,2,1:0:0:0:
153,192,233244,1,2,1:0:0:0:
460,192,233244,1,0,0:0:0:0:
358,192,233644,1,0,0:0:0:0:
51,192,233644,1,2,1:0:0:0:
256,192,234044,1,2,1:0:0:0:
153,192,234044,1,0,0:0:0:0:
358,192,234444,1,2,1:0:0:0:
460,192,234444,1,0,0:0:0:0:
51,192,234644,1,0,0:0:0:0:
256,192,234844,1,0,0:0:0:0:
153,192,234844,1,2,1:0:0:0:
460,192,235044,1,0,0:0:0:0:
51,192,235244,1,2,1:0:0:0:
358,192,235244,1,0,0:0:0:0:
460,192,235444,1,2,1:0:0:0:
256,192,235444,1,0,0:0:0:0:
153,192,235844,1,0,0:0:0:0:
358,192,235844,1,2,1:0:0:0:
51,192,236044,1,0,0:0:0:0:
256,192,236044,1,2,1:0:0:0:
358,192,236444,1,0,0:0:0:0:
460,192,236444,1,2,1:0:0:0:
153,192,236844,1,0,0:0:0:0:
256,192,236844,1,2,1:0:0:0:
460,192,237044,1,0,0:0:0:0:
358,192,237144,1,0,0:0:0:0:
51,192,237144,1,2,1:0:0:0:
256,192,237244,1,0,0:0:0:0:
153,192,237244,1,2,1:0:0:0:
460,192,237644,1,2,1:0:0:0:
358,192,237644,1,0,0:0:0:0:
153,192,237844,1,0,0:0:0:0:
358,192,238044,1,2,1:0:0:0:
256,192,238044,1,0,0:0:0:0:
51,192,238244,1,0,0:0:0:0:
256,192,238444,1,2,1:0:0:0:
153,192,238444,1,0,0:0:0:0:
51,192,238644,1,0,0:0:0:0:
460,192,238644,1,2,1:0:0:0:
153,192,239044,1,2,1:0:0:0:
358,192,239044,1,0,0:0:0:0:
256,192,239244,1,2,1:0:0:0:
460,192,239244,1,0,0:0:0:0:
358,192,239644,1,0,0:0:0:0:
51,192,239644,1,2,1:0:0:0:
153,192,240044,1,0,0:0:0:0:
256,192,240044,1,2,1:0:0:0:
460,192,240444,1,2,1:0:0:0:
51,192,240444,1,0,0:0:0:0:
153,192,240844,1,2,1:0:0:0:
358,192,240844,1,0,0:0:0:0:
256,192,241244,1,0,0:0:0:0:
51,192,241244,1,2,1:0:0:0:
358,192,241444,1,2,1:0:0:0:
153,192,241444,1,0,0:0:0:0:
460,192,241644,1,0,0:0:0:0:
256,192,241644,1,2,1:0:0:0:
358,192,241844,1,0,0:0:0:0:
153,192,241844,1,2,1:0:0:0:
460,192,242244,1,2,1:0:0:0:
256,192,242244,1,0,2:2:0:0:
358,192,242344,1,0,2:2:0:0:
153,192,242344,1,2,1:0:0:0:
256,192,242444,1,2,1:0:0:0:
51,192,242444,1,0,2:2:0:0:
460,192,242644,1,0,2:2:0:0:
358,192,242644,1,2,1:0:0:0:
153,192,242844,1,0,2:2:0:0:
51,192,242844,1,2,1:0:0:0:
358,192,243044,1,2,1:0:0:0:
460,192,243044,1,0,0:0:0:0:
153,192,243244,1,0,0:0:0:0:
256,192,243244,1,2,1:0:0:0:
51,192,243444,1,0,2:2:0:0:
460,192,243444,1,2,1:0:0:0:
153,192,243644,1,0,0:0:0:0:
358,192,243644,1,4,0:0:0:0:
256,192,243644,1,8,0:0:0:0:
51,192,243644,1,0,0:0:0:0:
51,192,244044,1,8,0:0:0:0:
256,192,244044,1,0,0:0:0:0:
358,192,244444,1,8,0:0:0:0:
153,192,244444,1,0,0:0:0:0:
256,192,244844,1,0,0:0:0:0:
460,192,244844,1,8,0:0:0:0:
358,192,245044,1,0,0:0:0:0:
256,192,245144,1,0,0:0:0:0:
51,192,245244,1,8,0:0:0:0:
153,192,245244,1,0,0:0:0:0:
460,192,245444,1,0,0:0:0:0:
256,192,245644,1,0,0:0:0:0:
153,192,245644,1,8,0:0:0:0:
51,192,245844,1,0,0:0:0:0:
153,192,245944,1,0,0:0:0:0:
256,192,246044,1,8,0:0:0:0:
358,192,246044,1,0,0:0:0:0:
51,192,246244,1,0,0:0:0:0:
153,192,246344,1,0,0:0:0:0:
460,192,246444,1,0,0:0:0:0:
358,192,246444,1,8,0:0:0:0:
256,192,246544,1,0,0:0:0:0:
153,192,246644,1,0,0:0:0:0:
460,192,246844,1,8,0:0:0:0:
256,192,246844,1,0,0:0:0:0:
51,192,247044,1,0,0:0:0:0:
256,192,247144,1,0,0:0:0:0:
358,192,247244,1,0,0:0:0:0:
153,192,247244,1,8,0:0:0:0:
460,192,247444,1,0,0:0:0:0:
256,192,247644,1,0,0:0:0:0:
51,192,247644,1,8,0:0:0:0:
153,192,247844,1,0,0:0:0:0:
358,192,248044,1,8,0:0:0:0:
460,192,248044,1,0,0:0:0:0:
51,192,248244,1,0,0:0:0:0:
256,192,248444,5,8,0:0:0:0:
358,192,248444,1,0,0:0:0:0:
460,192,248644,1,0,0:0:0:0:
256,192,248844,1,0,0:0:0:0:
153,192,248844,1,8,0:0:0:0:
358,192,249044,1,0,0:0:0:0:
153,192,249244,1,0,0:0:0:0:
51,192,249244,1,8,0:0:0:0:
460,192,249444,5,0,0:0:0:0:
358,192,249510,1,0,0:0:0:0:
256,192,249577,1,0,0:0:0:0:
51,192,249644,1,0,0:0:0:0:
460,192,249644,1,8,0:0:0:0:
358,192,250044,5,8,0:0:0:0:
256,192,250044,1,0,0:0:0:0:
51,192,250244,1,0,0:0:0:0:
153,192,250244,1,0,0:0:0:0:
358,192,250344,1,0,0:0:0:0:
460,192,250344,1,0,0:0:0:0:
153,192,250444,1,8,0:0:0:0:
256,192,250444,1,0,0:0:0:0:
460,192,250644,1,0,0:0:0:0:
51,192,250644,1,0,0:0:0:0:
153,192,250844,1,0,0:0:0:0:
358,192,250844,1,8,0:0:0:0:
460,192,251044,1,0,0:0:0:0:
256,192,251044,1,0,0:0:0:0:
51,192,251244,1,8,0:0:0:0:
153,192,251244,1,0,0:0:0:0:
460,192,251444,1,0,0:0:0:0:
358,192,251444,1,0,0:0:0:0:
51,192,251644,1,0,0:0:0:0:
256,192,251644,1,8,0:0:0:0:
153,192,251844,1,0,0:0:0:0:
358,192,251844,1,0,0:0:0:0:
460,192,251944,1,0,0:0:0:0:
51,192,251944,1,0,0:0:0:0:
358,192,252044,1,8,0:0:0:0:
153,192,252044,1,0,0:0:0:0:
256,192,252244,1,0,0:0:0:0:
460,192,252244,1,0,0:0:0:0:
358,192,252444,1,8,0:0:0:0:
153,192,252444,1,0,0:0:0:0:
51,192,252644,1,0,0:0:0:0:
460,192,252644,1,0,0:0:0:0:
153,192,252710,1,0,0:0:0:0:
256,192,252777,1,0,0:0:0:0:
358,192,252844,1,0,0:0:0:0:
51,192,252844,1,8,0:0:0:0:
256,192,253044,1,0,0:0:0:0:
153,192,253044,1,0,0:0:0:0:
460,192,253244,5,0,0:0:0:0:
358,192,253244,1,8,0:0:0:0:
256,192,253444,1,0,0:0:0:0:
51,192,253444,1,0,0:0:0:0:
153,192,253644,1,8,0:0:0:0:
358,192,253644,1,0,0:0:0:0:
460,192,253844,1,0,0:0:0:0:
256,192,253844,1,0,0:0:0:0:
153,192,253944,1,0,0:0:0:0:
358,192,253944,1,0,0:0:0:0:
51,192,254044,1,0,0:0:0:0:
460,192,254044,1,8,0:0:0:0:
153,192,254144,1,0,0:0:0:0:
358,192,254144,1,0,0:0:0:0:
51,192,254244,1,0,0:0:0:0:
256,192,254244,1,0,0:0:0:0:
51,192,254444,1,8,0:0:0:0:
358,192,254444,1,0,0:0:0:0:
153,192,254644,1,0,0:0:0:0:
460,192,254644,1,0,0:0:0:0:
358,192,254844,1,0,0:0:0:0:
256,192,254844,1,8,0:0:0:0:
51,192,255044,1,0,0:0:0:0:
153,192,255044,1,0,0:0:0:0:
358,192,255244,1,8,0:0:0:0:
460,192,255244,1,0,0:0:0:0:
153,192,255544,1,0,0:0:0:0:
256,192,255544,1,0,0:0:0:0:
460,192,255644,1,8,0:0:0:0:
51,192,255644,1,0,0:0:0:0:
153,192,255844,1,0,0:0:0:0:
51,192,255844,1,0,0:0:0:0:
358,192,255944,1,0,0:0:0:0:
256,192,255944,1,0,0:0:0:0:
460,192,256044,1,0,0:0:0:0:
51,192,256044,1,8,0:0:0:0:
256,192,256144,1,0,0:0:0:0:
153,192,256144,1,0,0:0:0:0:
460,192,256244,1,0,0:0:0:0:
358,192,256244,1,0,0:0:0:0:
153,192,256344,1,0,0:0:0:0:
51,192,256344,1,0,0:0:0:0:
460,192,256444,1,0,0:0:0:0:
358,192,256444,1,4,0:0:0:0:
256,192,256444,1,2,0:0:0:0:
358,192,256644,1,0,0:0:0:0:
460,192,256644,1,0,0:0:0:0:
51,192,256844,1,8,0:0:0:0:
153,192,256844,1,0,0:0:0:0:
256,192,256844,1,0,0:0:0:0:
460,192,257044,1,0,0:0:0:0:
358,192,257044,1,0,0:0:0:0:
153,192,257144,1,0,0:0:0:0:
51,192,257144,1,0,0:0:0:0:
460,192,257244,1,0,0:0:0:0:
358,192,257244,1,8,0:0:0:0:
256,192,257244,1,0,0:0:0:0:
51,192,257444,1,0,0:0:0:0:
153,192,257444,1,0,0:0:0:0:
153,192,257644,1,8,0:0:0:0:
256,192,257644,1,0,0:0:0:0:
51,192,257644,1,0,0:0:0:0:
460,192,257844,1,0,0:0:0:0:
358,192,257844,1,0,0:0:0:0:
358,192,258044,1,0,0:0:0:0:
256,192,258044,1,8,0:0:0:0:
153,192,258044,1,0,0:0:0:0:
51,192,258244,1,0,0:0:0:0:
153,192,258244,1,0,0:0:0:0:
460,192,258444,1,8,0:0:0:0:
256,192,258444,1,0,0:0:0:0:
358,192,258444,1,0,0:0:0:0:
153,192,258644,1,0,0:0:0:0:
256,192,258644,1,0,0:0:0:0:
460,192,258744,1,0,0:0:0:0:
51,192,258744,1,0,0:0:0:0:
358,192,258844,1,0,0:0:0:0:
256,192,258844,1,0,0:0:0:0:
153,192,258844,1,8,0:0:0:0:
460,192,259044,1,0,0:0:0:0:
358,192,259044,1,0,0:0:0:0:
51,192,259244,1,8,0:0:0:0:
153,192,259244,1,0,0:0:0:0:
256,192,259244,1,0,0:0:0:0:
358,192,259444,1,0,0:0:0:0:
153,192,259444,1,0,0:0:0:0:
256,192,259644,1,8,0:0:0:0:
358,192,259644,1,0,0:0:0:0:
460,192,259644,1,0,0:0:0:0:
153,192,259844,1,0,0:0:0:0:
51,192,259844,1,0,0:0:0:0:
153,192,260044,1,8,0:0:0:0:
51,192,260044,1,0,0:0:0:0:
256,192,260044,1,0,0:0:0:0:
460,192,260244,1,0,0:0:0:0:
358,192,260244,1,0,0:0:0:0:
153,192,260344,1,0,0:0:0:0:
51,192,260344,1,0,0:0:0:0:
358,192,260444,1,0,0:0:0:0:
256,192,260444,1,8,0:0:0:0:
460,192,260444,1,0,0:0:0:0:
460,192,260644,1,0,0:0:0:0:
358,192,260644,1,0,0:0:0:0:
153,192,260844,1,0,0:0:0:0:
51,192,260844,1,8,0:0:0:0:
256,192,260844,1,0,0:0:0:0:
460,192,261044,1,0,0:0:0:0:
358,192,261044,1,0,0:0:0:0:
358,192,261244,1,8,0:0:0:0:
153,192,261244,1,0,0:0:0:0:
256,192,261244,1,0,0:0:0:0:
153,192,261444,1,0,0:0:0:0:
51,192,261444,1,0,0:0:0:0:
256,192,261644,1,8,0:0:0:0:
358,192,261644,1,0,0:0:0:0:
460,192,261644,1,0,0:0:0:0:
153,192,261844,5,0,0:0:0:0:
358,192,261844,1,0,0:0:0:0:
460,192,261944,1,0,0:0:0:0:
51,192,261944,1,0,0:0:0:0:
153,192,262044,1,8,0:0:0:0:
358,192,262044,1,0,0:0:0:0:
256,192,262044,1,0,0:0:0:0:
51,192,262244,1,0,0:0:0:0:
460,192,262244,1,0,0:0:0:0:
51,192,262444,1,8,0:0:0:0:
153,192,262444,1,0,0:0:0:0:
256,192,262444,1,0,0:0:0:0:
460,192,262644,1,0,0:0:0:0:
358,192,262644,1,0,0:0:0:0:
256,192,262844,5,0,0:0:0:0:
51,192,262844,1,0,0:0:0:0:
153,192,262844,1,8,0:0:0:0:
460,192,262944,1,0,0:0:0:0:
51,192,263044,1,0,0:0:0:0:
358,192,263044,1,2,0:0:0:0:
358,192,263244,1,0,0:0:0:0:
153,192,263244,1,0,0:0:0:0:
256,192,263244,1,8,0:0:0:0:
460,192,263344,1,2,0:0:0:0:
51,192,263344,1,0,0:0:0:0:
358,192,263444,1,2,0:0:0:0:
256,192,263444,1,0,0:0:0:0:
153,192,263544,1,2,0:0:0:0:
51,192,263544,1,0,0:0:0:0:
256,192,263644,1,0,0:0:0:0:
460,192,263644,1,8,0:0:0:0:
358,192,263644,1,0,0:0:0:0:
51,192,263744,1,2,0:0:0:0:
153,192,263744,1,0,0:0:0:0:
256,192,263844,1,2,0:0:0:0:
460,192,263844,1,0,0:0:0:0:
51,192,264044,1,8,0:0:0:0:
256,192,264044,1,0,0:0:0:0:
153,192,264044,1,0,0:0:0:0:
358,192,264144,1,2,0:0:0:0:
460,192,264144,1,0,0:0:0:0:
256,192,264244,1,0,0:0:0:0:
153,192,264244,1,2,0:0:0:0:
460,192,264344,1,2,0:0:0:0:
51,192,264344,1,0,0:0:0:0:
153,192,264444,1,8,0:0:0:0:
358,192,264444,1,0,0:0:0:0:
256,192,264444,1,0,0:0:0:0:
51,192,264544,1,2,0:0:0:0:
460,192,264544,1,0,0:0:0:0:
358,192,264644,1,2,0:0:0:0:
153,192,264644,1,0,0:0:0:0:
358,192,264844,1,0,0:0:0:0:
256,192,264844,1,8,0:0:0:0:
460,192,264844,1,0,0:0:0:0:
51,192,264944,1,0,0:0:0:0:
153,192,264944,1,2,0:0:0:0:
256,192,265044,1,0,0:0:0:0:
358,192,265044,1,2,0:0:0:0:
153,192,265144,1,0,0:0:0:0:
460,192,265144,1,2,0:0:0:0:
256,192,265244,1,0,0:0:0:0:
358,192,265244,1,8,0:0:0:0:
51,192,265244,1,0,0:0:0:0:
153,192,265344,1,0,0:0:0:0:
460,192,265344,1,2,0:0:0:0:
358,192,265444,1,0,0:0:0:0:
256,192,265444,1,2,0:0:0:0:
460,192,265644,1,0,0:0:0:0:
358,192,265644,1,8,0:0:0:0:
51,192,265644,1,0,0:0:0:0:
153,192,265744,1,2,0:0:0:0:
256,192,265744,1,0,0:0:0:0:
460,192,265844,1,0,0:0:0:0:
51,192,265844,1,2,0:0:0:0:
256,192,265944,1,2,0:0:0:0:
358,192,265944,1,0,0:0:0:0:
153,192,266044,1,0,0:0:0:0:
51,192,266044,1,8,0:0:0:0:
460,192,266044,1,0,0:0:0:0:
256,192,266144,1,2,0:0:0:0:
358,192,266144,1,0,0:0:0:0:
51,192,266244,1,0,0:0:0:0:
153,192,266244,1,2,0:0:0:0:
358,192,266344,1,2,0:0:0:0:
460,192,266344,1,0,0:0:0:0:
153,192,266444,1,8,0:0:0:0:
256,192,266444,1,0,0:0:0:0:
51,192,266444,1,0,0:0:0:0:
358,192,266544,1,0,0:0:0:0:
460,192,266544,1,2,0:0:0:0:
51,192,266644,1,2,0:0:0:0:
153,192,266644,1,0,0:0:0:0:
358,192,266744,1,0,0:0:0:0:
256,192,266744,1,2,0:0:0:0:
460,192,266844,1,8,0:0:0:0:
153,192,266844,1,0,0:0:0:0:
51,192,266844,1,0,0:0:0:0:
358,192,266944,1,2,0:0:0:0:
256,192,266944,1,0,0:0:0:0:
153,192,267044,1,2,0:0:0:0:
51,192,267044,1,0,0:0:0:0:
358,192,267144,1,0,0:0:0:0:
460,192,267144,1,2,0:0:0:0:
51,192,267244,1,0,0:0:0:0:
153,192,267244,1,0,0:0:0:0:
256,192,267244,1,8,0:0:0:0:
358,192,267344,1,2,0:0:0:0:
460,192,267344,1,0,0:0:0:0:
153,192,267444,1,0,0:0:0:0:
51,192,267444,1,2,0:0:0:0:
358,192,267544,1,0,0:0:0:0:
256,192,267544,1,2,0:0:0:0:
153,192,267644,1,4,0:0:0:0:
51,192,267644,1,2,0:0:0:0:
460,192,267644,1,0,0:0:0:0:
51,192,268144,128,0,269244:0:0:0:0:
153,192,268244,128,0,269144:0:0:0:0:
256,192,268344,128,0,269044:0:0:0:0:
358,192,268444,128,0,268944:0:0:0:0:
460,192,268544,128,0,268844:0:0:0:0:
460,192,269244,128,0,269344:0:0:0:0:
256,192,269244,1,2,0:0:0:0:
358,192,269244,1,0,0:0:0:0:
153,192,269244,1,4,0:0:0:0:
51,192,269444,128,0,269544:0:0:0:0:
358,192,269644,128,0,269744:0:0:0:0:
153,192,269644,1,0,0:0:0:0:
460,192,269644,1,8,0:0:0:0:
256,192,269844,128,0,269944:0:0:0:0:
153,192,269944,128,0,270144:0:0:0:0:
460,192,270044,1,0,0:0:0:0:
51,192,270044,1,2,0:0:0:0:
358,192,270244,128,0,270344:0:0:0:0:
460,192,270444,128,0,270544:0:0:0:0:
51,192,270444,1,0,0:0:0:0:
153,192,270444,1,8,0:0:0:0:
256,192,270644,128,0,270744:0:0:0:0:
358,192,270844,128,0,270944:0:0:0:0:
460,192,270844,1,2,0:0:0:0:
153,192,271044,128,0,271144:0:0:0:0:
256,192,271244,128,0,271344:0:0:0:0:
358,192,271244,1,0,0:0:0:0:
51,192,271244,1,8,0:0:0:0:
51,192,271444,128,0,271544:0:0:0:0:
153,192,271544,128,0,271744:0:0:0:0:
256,192,271644,1,2,0:0:0:0:
460,192,271644,1,0,0:0:0:0:
460,192,271844,128,0,271944:0:0:0:0:
358,192,272044,128,0,272144:0:0:0:0:
51,192,272044,1,0,0:0:0:0:
153,192,272044,1,8,0:0:0:0:
256,192,272244,128,0,272344:0:0:0:0:
153,192,272444,128,0,272544:0:0:0:0:
460,192,272444,1,2,0:0:0:0:
51,192,272644,128,0,272744:0:0:0:0:
460,192,272844,128,0,272944:0:0:0:0:
256,192,272844,1,8,0:0:0:0:
153,192,272844,1,0,0:0:0:0:
358,192,273044,128,0,273144:0:0:0:0:
256,192,273144,128,0,273344:0:0:0:0:
51,192,273244,1,2,0:0:0:0:
460,192,273244,1,0,0:0:0:0:
153,192,273444,128,0,273544:0:0:0:0:
51,192,273644,128,0,273744:0:0:0:0:
358,192,273644,1,8,0:0:0:0:
460,192,273644,1,0,0:0:0:0:
256,192,273844,128,0,273944:0:0:0:0:
153,192,274044,128,0,274144:0:0:0:0:
51,192,274044,1,2,0:0:0:0:
358,192,274244,128,0,274344:0:0:0:0:
256,192,274444,128,0,274544:0:0:0:0:
460,192,274444,1,8,0:0:0:0:
51,192,274444,1,0,0:0:0:0:
460,192,274644,128,0,274744:0:0:0:0:
358,192,274744,128,0,274944:0:0:0:0:
153,192,274844,1,0,0:0:0:0:
256,192,274844,1,2,0:0:0:0:
256,192,275044,128,0,275144:0:0:0:0:
51,192,275144,128,0,275544:0:0:0:0:
460,192,275244,1,0,0:0:0:0:
358,192,275244,1,0,0:0:0:0:
153,192,275244,1,8,0:0:0:0:
153,192,275644,128,0,275744:0:0:0:0:
256,192,275644,1,2,0:0:0:0:
358,192,275844,128,0,275944:0:0:0:0:
256,192,276044,128,0,276144:0:0:0:0:
460,192,276044,1,8,0:0:0:0:
51,192,276044,1,0,0:0:0:0:
460,192,276244,128,0,276344:0:0:0:0:
51,192,276344,128,0,276544:0:0:0:0:
153,192,276444,1,2,0:0:0:0:
256,192,276444,1,0,0:0:0:0:
358,192,276644,128,0,276744:0:0:0:0:
153,192,276844,128,0,276944:0:0:0:0:
460,192,276844,1,8,0:0:0:0:
51,192,276844,1,0,0:0:0:0:
256,192,277044,128,0,277144:0:0:0:0:
51,192,277244,128,0,277344:0:0:0:0:
358,192,277244,1,2,0:0:0:0:
460,192,277444,128,0,277544:0:0:0:0:
153,192,277644,128,0,277744:0:0:0:0:
256,192,277644,1,0,0:0:0:0:
51,192,277644,1,8,0:0:0:0:
358,192,277844,128,0,277944:0:0:0:0:
256,192,277944,128,0,278144:0:0:0:0:
460,192,278044,1,2,0:0:0:0:
51,192,278044,1,0,0:0:0:0:
460,192,278244,128,0,278344:0:0:0:0:
51,192,278444,128,0,278544:0:0:0:0:
153,192,278444,1,8,0:0:0:0:
358,192,278444,1,0,0:0:0:0:
460,192,278644,128,0,278744:0:0:0:0:
51,192,278844,128,0,278944:0:0:0:0:
256,192,278844,1,2,0:0:0:0:
460,192,279044,128,0,279144:0:0:0:0:
51,192,279244,128,0,279344:0:0:0:0:
256,192,279244,1,0,0:0:0:0:
153,192,279244,1,8,0:0:0:0:
358,192,279444,128,0,279544:0:0:0:0:
153,192,279544,128,0,279744:0:0:0:0:
51,192,279644,1,0,0:0:0:0:
460,192,279644,1,2,0:0:0:0:
460,192,279844,128,0,279944:0:0:0:0:
358,192,280044,128,0,280144:0:0:0:0:
256,192,280044,1,0,0:0:0:0:
153,192,280044,1,8,0:0:0:0:
51,192,280244,128,0,280344:0:0:0:0:
153,192,280444,128,0,280544:0:0:0:0:
358,192,280444,1,2,0:0:0:0:
256,192,280444,1,4,0:0:0:0:
460,192,280444,1,0,0:0:0:0:
460,192,280644,128,0,280744:0:0:0:0:
358,192,280844,128,0,280944:0:0:0:0:
153,192,280844,1,8,0:0:0:0:
51,192,280844,1,0,0:0:0:0:
256,192,281044,128,0,281144:0:0:0:0:
51,192,281144,128,0,281344:0:0:0:0:
358,192,281244,1,0,0:0:0:0:
153,192,281244,1,0,0:0:0:0:
460,192,281444,1,0,0:0:0:0:
358,192,281510,1,0,0:0:0:0:
256,192,281577,1,0,0:0:0:0:
153,192,281644,1,8,0:0:0:0:
460,192,281644,128,0,281744:0:0:0:0:
256,192,281844,128,0,281944:0:0:0:0:
51,192,282044,128,0,282144:0:0:0:0:
358,192,282044,1,2,0:0:0:0:
153,192,282044,1,0,0:0:0:0:
460,192,282044,1,4,0:0:0:0:
358,192,282244,128,0,282344:0:0:0:0:
153,192,282444,128,0,282544:0:0:0:0:
256,192,282444,1,0,0:0:0:0:
51,192,282444,1,8,0:0:0:0:
460,192,282644,128,0,282744:0:0:0:0:
256,192,282744,128,0,282944:0:0:0:0:
358,192,282844,1,2,0:0:0:0:
153,192,282844,1,0,0:0:0:0:
51,192,283044,128,0,283144:0:0:0:0:
153,192,283244,128,0,283344:0:0:0:0:
256,192,283244,1,8,0:0:0:0:
358,192,283244,1,0,0:0:0:0:
460,192,283444,128,0,283544:0:0:0:0:
358,192,283644,128,0,283744:0:0:0:0:
153,192,283644,1,2,0:0:0:0:
51,192,283844,128,0,283944:0:0:0:0:
153,192,284044,128,0,284144:0:0:0:0:
256,192,284044,1,0,0:0:0:0:
358,192,284044,1,8,0:0:0:0:
460,192,284244,128,0,284344:0:0:0:0:
256,192,284344,128,0,284544:0:0:0:0:
153,192,284444,1,0,0:0:0:0:
51,192,284444,1,2,0:0:0:0:
358,192,284644,128,0,284744:0:0:0:0:
51,192,284844,128,0,284944:0:0:0:0:
460,192,284844,1,0,0:0:0:0:
153,192,284844,1,8,0:0:0:0:
460,192,285044,128,0,285144:0:0:0:0:
153,192,285244,128,0,285344:0:0:0:0:
256,192,285244,1,2,0:0:0:0:
358,192,285444,128,0,285544:0:0:0:0:
51,192,285644,128,0,285744:0:0:0:0:
153,192,285644,1,0,0:0:0:0:
460,192,285644,1,8,0:0:0:0:
256,192,285844,128,0,285944:0:0:0:0:
460,192,285944,128,0,286144:0:0:0:0:
358,192,286044,1,2,0:0:0:0:
51,192,286044,1,0,0:0:0:0:
153,192,286244,128,0,286344:0:0:0:0:
358,192,286444,128,0,286544:0:0:0:0:
460,192,286444,1,0,0:0:0:0:
51,192,286444,1,8,0:0:0:0:
256,192,286644,128,0,286744:0:0:0:0:
460,192,286844,128,0,286944:0:0:0:0:
153,192,286844,1,2,0:0:0:0:
51,192,287044,128,0,287144:0:0:0:0:
358,192,287244,128,0,287344:0:0:0:0:
256,192,287244,1,8,0:0:0:0:
460,192,287244,1,0,0:0:0:0:
153,192,287444,128,0,287544:0:0:0:0:
256,192,287544,128,0,287744:0:0:0:0:
358,192,287644,1,2,0:0:0:0:
51,192,287644,1,0,0:0:0:0:
460,192,287844,128,0,287944:0:0:0:0:
51,192,287944,128,0,288344:0:0:0:0:
153,192,288044,1,8,0:0:0:0:
256,192,288044,1,0,0:0:0:0:
358,192,288044,1,0,0:0:0:0:
358,192,288444,128,0,288544:0:0:0:0:
460,192,288444,1,2,0:0:0:0:
153,192,288644,128,0,288744:0:0:0:0:
460,192,288844,128,0,288944:0:0:0:0:
256,192,288844,1,8,0:0:0:0:
358,192,288844,1,0,0:0:0:0:
51,192,289044,128,0,289144:0:0:0:0:
256,192,289144,128,0,289344:0:0:0:0:
153,192,289244,1,2,0:0:0:0:
460,192,289244,1,0,0:0:0:0:
358,192,289444,128,0,289544:0:0:0:0:
153,192,289644,128,0,289744:0:0:0:0:
256,192,289644,1,0,0:0:0:0:
51,192,289644,1,8,0:0:0:0:
460,192,289844,128,0,289944:0:0:0:0:
256,192,290044,128,0,290144:0:0:0:0:
358,192,290044,1,2,0:0:0:0:
51,192,290244,128,0,290344:0:0:0:0:
358,192,290444,128,0,290544:0:0:0:0:
460,192,290444,1,8,0:0:0:0:
153,192,290444,1,0,0:0:0:0:
153,192,290644,128,0,290744:0:0:0:0:
460,192,290744,128,0,290944:0:0:0:0:
358,192,290844,1,2,0:0:0:0:
51,192,290844,1,0,0:0:0:0:
256,192,291044,128,0,291144:0:0:0:0:
51,192,291244,128,0,291344:0:0:0:0:
153,192,291244,1,8,0:0:0:0:
460,192,291244,1,0,0:0:0:0:
358,192,291444,128,0,291544:0:0:0:0:
460,192,291644,1,2,0:0:0:0:
153,192,291644,1,0,0:0:0:0:
51,192,291644,128,0,291744:0:0:0:0:
153,192,291844,128,0,291944:0:0:0:0:
256,192,291844,1,2,0:0:0:0:
358,192,291844,1,0,0:0:0:0:
256,192,292044,128,0,292144:0:0:0:0:
460,192,292044,1,8,0:0:0:0:
358,192,292044,1,0,0:0:0:0:
460,192,292244,128,0,292344:0:0:0:0:
153,192,292244,1,0,0:0:0:0:
51,192,292244,1,2,0:0:0:0:
358,192,292344,128,0,292544:0:0:0:0:
256,192,292444,1,0,0:0:0:0:
153,192,292444,1,2,0:0:0:0:
358,192,292644,128,0,292744:0:0:0:0:
460,192,292644,1,2,0:0:0:0:
51,192,292644,1,0,0:0:0:0:
256,192,292844,128,0,292944:0:0:0:0:
460,192,292844,1,8,0:0:0:0:
153,192,292844,1,0,0:0:0:0:
153,192,293044,128,0,293144:0:0:0:0:
51,192,293044,1,0,0:0:0:0:
358,192,293044,1,2,0:0:0:0:
460,192,293244,1,4,0:0:0:0:
358,192,293244,1,0,0:0:0:0:
256,192,293244,1,0,0:0:0:60:soft-hitclap2.wav
153,192,293344,1,0,0:0:0:60:soft-hitclap2.wav
51,192,293344,1,0,0:0:0:0:
256,192,293444,1,0,0:0:0:0:
358,192,293444,1,0,0:0:0:60:soft-hitclap2.wav
460,192,293544,1,0,0:0:0:0:
51,192,293544,1,0,0:0:0:60:soft-hitclap2.wav
153,192,293644,1,2,0:0:0:0:
256,192,293644,1,0,0:0:0:60:soft-hitclap2.wav
358,192,293744,1,0,0:0:0:60:soft-hitclap2.wav
460,192,293744,1,0,0:0:0:0:
153,192,293844,1,0,0:0:0:60:soft-hitclap2.wav
51,192,293844,1,0,0:0:0:0:
256,192,293944,1,0,0:0:0:0:
358,192,293944,1,0,0:0:0:60:soft-hitclap2.wav
460,192,294044,1,0,0:0:0:60:soft-hitclap2.wav
51,192,294044,1,2,0:0:0:0:
153,192,294144,1,0,0:0:0:0:
256,192,294144,1,0,0:0:0:60:soft-hitclap2.wav
460,192,294244,1,0,0:0:0:60:soft-hitclap2.wav
358,192,294244,1,0,0:0:0:0:
153,192,294344,1,0,0:0:0:60:soft-hitclap2.wav
51,192,294344,1,0,0:0:0:0:
256,192,294444,1,0,0:0:0:60:soft-hitclap2.wav
358,192,294444,1,8,0:0:0:0:
51,192,294544,1,0,0:0:0:60:soft-hitclap2.wav
460,192,294544,1,0,0:0:0:0:
256,192,294644,1,0,0:0:0:0:
153,192,294644,1,0,0:0:0:60:soft-hitclap2.wav
358,192,294744,1,0,0:0:0:60:soft-hitclap2.wav
460,192,294744,1,0,0:0:0:0:
51,192,294844,128,0,294944:0:0:0:0:
153,192,294944,128,0,295044:0:0:0:0:
256,192,295044,128,0,295144:0:0:0:0:
358,192,295144,128,0,295244:0:0:0:0:
460,192,295244,1,0,0:0:0:0:
153,192,295244,1,8,0:0:0:0:
51,192,295244,1,4,0:0:0:0:
358,192,295444,128,0,295544:0:0:0:0:
256,192,295544,128,0,295744:0:0:0:0:
153,192,295644,1,2,0:0:0:0:
51,192,295644,1,0,0:0:0:0:
460,192,295844,128,0,295944:0:0:0:0:
358,192,296044,128,0,296144:0:0:0:0:
256,192,296044,1,8,0:0:0:0:
153,192,296044,1,0,0:0:0:0:
51,192,296244,128,0,296344:0:0:0:0:
153,192,296444,128,0,296544:0:0:0:0:
256,192,296444,1,2,0:0:0:0:
460,192,296644,128,0,296744:0:0:0:0:
358,192,296744,128,0,296844:0:0:0:0:
256,192,296844,128,0,296944:0:0:0:0:
51,192,296844,1,8,0:0:0:0:
153,192,296844,1,0,0:0:0:0:
51,192,297044,128,0,297144:0:0:0:0:
153,192,297144,128,0,297344:0:0:0:0:
358,192,297244,1,2,0:0:0:0:
460,192,297244,1,0,0:0:0:0:
460,192,297444,128,0,297510:0:0:0:0:
358,192,297510,128,0,297577:0:0:0:0:
256,192,297577,128,0,297644:0:0:0:0:
51,192,297644,128,0,297744:0:0:0:0:
460,192,297644,1,0,0:0:0:0:
153,192,297644,1,8,0:0:0:0:
358,192,297744,128,0,297844:0:0:0:0:
153,192,297844,128,0,297944:0:0:0:0:
256,192,297944,128,0,298044:0:0:0:0:
460,192,298044,128,0,298144:0:0:0:0:
51,192,298044,1,2,0:0:0:0:
256,192,298244,128,0,298344:0:0:0:0:
51,192,298444,128,0,298544:0:0:0:0:
358,192,298444,1,0,0:0:0:0:
153,192,298444,1,8,0:0:0:0:
358,192,298644,128,0,298744:0:0:0:0:
153,192,298744,128,0,298944:0:0:0:0:
460,192,298844,1,0,0:0:0:0:
256,192,298844,1,2,0:0:0:0:
256,192,299044,128,0,299144:0:0:0:0:
460,192,299244,128,0,299344:0:0:0:0:
358,192,299244,1,8,0:0:0:0:
51,192,299244,1,0,0:0:0:0:
153,192,299444,128,0,299544:0:0:0:0:
358,192,299644,128,0,299744:0:0:0:0:
256,192,299644,1,2,0:0:0:0:
51,192,299844,128,0,299944:0:0:0:0:
153,192,299944,128,0,300044:0:0:0:0:
256,192,300044,128,0,300144:0:0:0:0:
460,192,300044,1,8,0:0:0:0:
358,192,300044,1,0,0:0:0:0:
460,192,300244,128,0,300344:0:0:0:0:
358,192,300344,128,0,300544:0:0:0:0:
153,192,300444,1,0,0:0:0:0:
51,192,300444,1,2,0:0:0:0:
256,192,300644,128,0,300744:0:0:0:0:
51,192,300844,128,0,300910:0:0:0:0:
358,192,300844,1,8,0:0:0:0:
460,192,300844,1,0,0:0:0:0:
153,192,300910,128,0,300977:0:0:0:0:
256,192,300977,128,0,301044:0:0:0:0:
460,192,301044,128,0,301144:0:0:0:0:
358,192,301244,128,0,301344:0:0:0:0:
153,192,301244,1,2,0:0:0:0:
51,192,301444,128,0,301544:0:0:0:0:
153,192,301544,128,0,301644:0:0:0:0:
256,192,301644,1,0,0:0:0:0:
358,192,301644,1,8,0:0:0:0:
460,192,301644,1,0,0:0:0:0:
460,192,301844,128,0,301944:0:0:0:0:
358,192,301944,128,0,302144:0:0:0:0:
153,192,302044,1,0,0:0:0:0:
51,192,302044,1,2,0:0:0:0:
256,192,302244,128,0,302344:0:0:0:0:
460,192,302444,128,0,302544:0:0:0:0:
51,192,302444,1,0,0:0:0:0:
358,192,302444,1,8,0:0:0:0:
153,192,302644,128,0,302744:0:0:0:0:
358,192,302844,128,0,302944:0:0:0:0:
460,192,302844,1,2,0:0:0:0:
51,192,303044,128,0,303144:0:0:0:0:
256,192,303144,128,0,303244:0:0:0:0:
460,192,303244,128,0,303344:0:0:0:0:
358,192,303244,1,0,0:0:0:0:
153,192,303244,1,8,0:0:0:0:
153,192,303444,128,0,303544:0:0:0:0:
358,192,303544,128,0,303744:0:0:0:0:
256,192,303644,1,0,0:0:0:0:
51,192,303644,1,2,0:0:0:0:
460,192,303844,128,0,303910:0:0:0:0:
358,192,303910,128,0,303977:0:0:0:0:
256,192,303977,128,0,304044:0:0:0:0:
51,192,304044,128,0,304144:0:0:0:0:
153,192,304044,1,8,0:0:0:0:
460,192,304044,1,0,0:0:0:0:
256,192,304144,128,0,304244:0:0:0:0:
460,192,304244,128,0,304344:0:0:0:0:
153,192,304344,128,0,304444:0:0:0:0:
358,192,304444,128,0,304544:0:0:0:0:
256,192,304444,1,2,0:0:0:0:
51,192,304644,128,0,304744:0:0:0:0:
460,192,304844,128,0,304944:0:0:0:0:
256,192,304844,1,0,0:0:0:0:
358,192,304844,1,8,0:0:0:0:
153,192,305044,128,0,305144:0:0:0:0:
256,192,305144,128,0,305344:0:0:0:0:
358,192,305244,1,0,0:0:0:0:
51,192,305244,1,2,0:0:0:0:
460,192,305444,128,0,305544:0:0:0:0:
51,192,305644,128,0,305744:0:0:0:0:
256,192,305644,1,0,0:0:0:0:
153,192,305644,1,8,0:0:0:0:
358,192,305844,128,0,305944:0:0:0:0:
153,192,306044,128,0,306144:0:0:0:0:
51,192,306044,1,2,0:0:0:0:
460,192,306044,1,4,0:0:0:0:
460,192,306244,128,0,306344:0:0:0:0:
256,192,306344,128,0,306444:0:0:0:0:
51,192,306444,1,8,0:0:0:0:
358,192,306444,1,0,0:0:0:0:
460,192,306444,1,0,0:0:0:0:
153,192,306510,1,0,0:0:0:0:
256,192,306577,1,0,0:0:0:0:
358,192,306644,1,0,0:0:0:0:
153,192,306744,1,0,0:0:0:0:
51,192,306844,128,0,306944:0:0:0:0:
460,192,306844,1,0,0:0:0:0:
153,192,306944,128,0,307044:0:0:0:0:
460,192,307044,1,0,0:0:0:0:
358,192,307110,1,0,0:0:0:0:
256,192,307177,1,0,0:0:0:0:
358,192,307244,128,0,307344:0:0:0:0:
51,192,307244,1,0,0:0:0:0:
460,192,307244,1,8,0:0:0:0:
153,192,307344,1,0,0:0:0:0:
460,192,307444,128,0,307544:0:0:0:0:
256,192,307444,1,0,0:0:0:0:
358,192,307544,1,0,0:0:0:0:
51,192,307644,1,2,0:0:0:0:
256,192,307644,1,4,0:0:0:0:
153,192,307644,128,0,307744:0:0:0:0:
460,192,307844,128,0,307944:0:0:0:0:
358,192,307944,128,0,308044:0:0:0:0:
256,192,308044,128,0,308144:0:0:0:0:
51,192,308044,1,0,0:0:0:0:
153,192,308044,1,8,0:0:0:0:
51,192,308244,128,0,308344:0:0:0:0:
153,192,308344,128,0,308544:0:0:0:0:
460,192,308444,1,2,0:0:0:0:
256,192,308444,1,0,0:0:0:0:
460,192,308644,128,0,308744:0:0:0:0:
256,192,308844,128,0,308944:0:0:0:0:
358,192,308844,1,0,0:0:0:0:
51,192,308844,1,8,0:0:0:0:
153,192,309044,128,0,309144:0:0:0:0:
358,192,309244,128,0,309344:0:0:0:0:
256,192,309244,1,2,0:0:0:0:
51,192,309444,128,0,309544:0:0:0:0:
153,192,309544,128,0,309644:0:0:0:0:
256,192,309644,128,0,309744:0:0:0:0:
358,192,309644,1,0,0:0:0:0:
460,192,309644,1,8,0:0:0:0:
460,192,309844,128,0,309944:0:0:0:0:
358,192,309944,128,0,310144:0:0:0:0:
153,192,310044,1,0,0:0:0:0:
51,192,310044,1,2,0:0:0:0:
51,192,310244,128,0,310310:0:0:0:0:
153,192,310310,128,0,310377:0:0:0:0:
256,192,310377,128,0,310444:0:0:0:0:
460,192,310444,128,0,310544:0:0:0:0:
358,192,310444,1,8,0:0:0:0:
51,192,310444,1,0,0:0:0:0:
153,192,310544,128,0,310644:0:0:0:0:
358,192,310644,128,0,310744:0:0:0:0:
256,192,310744,128,0,310844:0:0:0:0:
51,192,310844,128,0,310944:0:0:0:0:
460,192,310844,1,2,0:0:0:0:
460,192,311044,128,0,311144:0:0:0:0:
153,192,311244,128,0,311344:0:0:0:0:
51,192,311244,1,8,0:0:0:0:
256,192,311244,1,0,0:0:0:0:
358,192,311444,128,0,311544:0:0:0:0:
256,192,311544,128,0,311744:0:0:0:0:
460,192,311644,1,0,0:0:0:0:
153,192,311644,1,2,0:0:0:0:
51,192,311844,128,0,311944:0:0:0:0:
460,192,312044,128,0,312144:0:0:0:0:
256,192,312044,1,8,0:0:0:0:
358,192,312044,1,0,0:0:0:0:
153,192,312244,128,0,312344:0:0:0:0:
358,192,312444,128,0,312544:0:0:0:0:
51,192,312444,1,2,0:0:0:0:
256,192,312644,128,0,312744:0:0:0:0:
358,192,312744,128,0,312844:0:0:0:0:
460,192,312844,128,0,312944:0:0:0:0:
51,192,312844,1,0,0:0:0:0:
153,192,312844,1,8,0:0:0:0:
51,192,312944,128,0,313044:0:0:0:0:
153,192,313044,128,0,313144:0:0:0:0:
358,192,313144,128,0,313344:0:0:0:0:
256,192,313244,1,0,0:0:0:0:
460,192,313244,1,2,0:0:0:0:
460,192,313444,128,0,313544:0:0:0:0:
51,192,313644,128,0,313710:0:0:0:0:
256,192,313644,1,8,0:0:0:0:
358,192,313644,1,0,0:0:0:0:
153,192,313710,128,0,313777:0:0:0:0:
256,192,313777,128,0,313844:0:0:0:0:
460,192,313844,128,0,313944:0:0:0:0:
358,192,314044,128,0,314144:0:0:0:0:
51,192,314044,1,2,0:0:0:0:
256,192,314244,1,0,0:0:0:70:soft-hitclap2.wav
51,192,314344,128,0,314444:0:0:0:0:
256,192,314444,128,0,314544:0:0:0:0:
460,192,314444,1,8,0:0:0:0:
153,192,314444,1,0,0:0:0:0:
460,192,314644,128,0,314744:0:0:0:0:
358,192,314644,1,0,0:0:0:70:soft-hitclap2.wav
153,192,314744,128,0,314944:0:0:0:0:
256,192,314744,1,2,0:0:0:0:
51,192,314844,1,2,0:0:0:0:
358,192,314844,1,0,0:0:0:0:
358,192,315044,128,0,315144:0:0:0:0:
256,192,315044,1,0,0:0:0:70:soft-hitclap2.wav
256,192,315244,128,0,315344:0:0:0:0:
51,192,315244,1,0,0:0:0:0:
460,192,315244,1,8,0:0:0:0:
51,192,315444,128,0,315544:0:0:0:0:
358,192,315444,1,0,0:0:0:70:soft-hitclap2.wav
256,192,315544,1,2,0:0:0:0:
460,192,315644,128,0,315744:0:0:0:0:
153,192,315644,1,2,0:0:0:0:
153,192,315844,128,0,315944:0:0:0:0:
51,192,315844,1,0,0:0:0:70:soft-hitclap2.wav
358,192,315944,128,0,316044:0:0:0:0:
256,192,316044,128,0,316144:0:0:0:0:
51,192,316044,1,0,0:0:0:0:
460,192,316044,1,8,0:0:0:0:
51,192,316244,128,0,316344:0:0:0:0:
358,192,316244,1,0,0:0:0:70:soft-hitclap2.wav
153,192,316344,128,0,316544:0:0:0:0:
256,192,316344,1,0,0:0:0:70:soft-hitclap2.wav
358,192,316444,1,0,0:0:0:0:
460,192,316444,1,2,0:0:0:0:
256,192,316544,1,0,0:0:0:70:soft-hitclap2.wav
460,192,316644,128,0,316710:0:0:0:0:
51,192,316644,1,0,0:0:0:70:soft-hitclap2.wav
358,192,316710,128,0,316777:0:0:0:0:
153,192,316744,1,0,0:0:0:70:soft-hitclap2.wav
256,192,316777,128,0,316844:0:0:0:0:
51,192,316844,128,0,316944:0:0:0:0:
460,192,316844,1,8,0:0:0:0:
153,192,316944,128,0,317044:0:0:0:0:
358,192,316944,1,0,0:0:0:70:soft-hitclap2.wav
256,192,317044,128,0,317144:0:0:0:0:
460,192,317044,1,0,0:0:0:70:soft-hitclap2.wav
358,192,317144,128,0,317244:0:0:0:0:
51,192,317144,1,0,0:0:0:70:soft-hitclap2.wav
460,192,317244,128,0,317344:0:0:0:0:
153,192,317244,1,2,0:0:0:0:
256,192,317344,1,0,0:0:0:70:soft-hitclap2.wav
256,192,317444,128,0,317544:0:0:0:0:
358,192,317444,1,0,0:0:0:70:soft-hitclap2.wav
460,192,317544,1,0,0:0:0:70:soft-hitclap2.wav
153,192,317644,128,0,317744:0:0:0:0:
51,192,317644,1,8,0:0:0:0:
256,192,317644,1,0,0:0:0:0:
358,192,317744,1,0,0:0:0:70:soft-hitclap2.wav
460,192,317844,128,0,317944:0:0:0:0:
51,192,317844,1,0,0:0:0:70:soft-hitclap2.wav
51,192,317944,128,0,318144:0:0:0:0:
256,192,317944,1,0,0:0:0:70:soft-hitclap2.wav
153,192,318044,1,2,0:0:0:0:
460,192,318044,1,0,0:0:0:0:
358,192,318144,1,0,0:0:0:0:
256,192,318244,128,0,318344:0:0:0:0:
153,192,318244,1,0,0:0:0:70:soft-hitclap2.wav
51,192,318344,1,0,0:0:0:70:soft-hitclap2.wav
460,192,318444,128,0,318544:0:0:0:0:
358,192,318444,1,8,0:0:0:0:
153,192,318444,1,0,0:0:0:0:
256,192,318544,1,0,0:0:0:70:soft-hitclap2.wav
51,192,318644,128,0,318744:0:0:0:0:
358,192,318644,1,0,0:0:0:70:soft-hitclap2.wav
460,192,318744,1,0,0:0:0:70:soft-hitclap2.wav
358,192,318844,1,4,0:0:0:0:
256,192,318844,1,2,0:0:0:0:
153,192,318844,128,0,318944:0:0:0:0:
256,192,319044,128,0,319144:0:0:0:0:
358,192,319244,128,0,319344:0:0:0:0:
153,192,319444,1,0,0:0:0:0:
256,192,319644,1,0,0:0:0:0:
153,192,319744,1,0,0:0:0:0:
460,192,319844,128,0,320444:0:0:0:0:
358,192,319844,1,0,0:0:0:0:
51,192,319944,1,0,0:0:0:0:
256,192,320044,128,0,320444:0:0:0:0:
153,192,320044,1,0,0:0:0:0:
358,192,320144,1,0,0:0:0:0:
51,192,320244,128,0,320444:0:0:0:0:
153,192,320244,1,0,0:0:0:0:
358,192,320344,1,0,0:0:0:0:
358,192,320444,1,4,0:0:0:0:
153,192,320444,1,2,0:0:0:0:
51,192,320644,128,0,320744:0:0:0:0:
460,192,320844,1,8,0:0:0:0:
153,192,320844,1,0,0:0:0:0:
256,192,320844,1,0,0:0:0:0:
358,192,320944,1,0,0:0:0:0:
256,192,321044,128,0,321144:0:0:0:0:
51,192,321244,1,2,0:0:0:0:
460,192,321244,1,0,0:0:0:0:
358,192,321344,1,0,0:0:0:0:
153,192,321444,128,0,321544:0:0:0:0:
256,192,321544,1,0,0:0:0:0:
51,192,321644,1,0,0:0:0:0:
460,192,321644,1,0,0:0:0:0:
358,192,321644,1,8,0:0:0:0:
460,192,321844,128,0,321944:0:0:0:0:
256,192,322044,1,0,0:0:0:0:
153,192,322044,1,2,0:0:0:0:
358,192,322244,128,0,322344:0:0:0:0:
460,192,322444,1,0,0:0:0:0:
256,192,322444,1,0,0:0:0:0:
51,192,322444,1,8,0:0:0:0:
256,192,322644,128,0,322744:0:0:0:0:
51,192,322744,1,0,0:0:0:0:
153,192,322844,1,0,0:0:0:0:
358,192,322844,1,2,0:0:0:0:
256,192,322944,1,0,0:0:0:0:
51,192,323044,128,0,323144:0:0:0:0:
153,192,323244,1,0,0:0:0:0:
460,192,323244,1,8,0:0:0:0:
358,192,323244,1,0,0:0:0:0:
153,192,323444,128,0,323544:0:0:0:0:
256,192,323644,1,2,0:0:0:0:
460,192,323644,1,0,0:0:0:0:
358,192,323844,128,0,323944:0:0:0:0:
51,192,324044,1,8,0:0:0:0:
460,192,324044,1,0,0:0:0:0:
256,192,324044,1,0,0:0:0:0:
256,192,324244,128,0,324344:0:0:0:0:
460,192,324444,1,0,0:0:0:0:
153,192,324444,1,2,0:0:0:0:
358,192,324544,1,0,0:0:0:0:
460,192,324644,128,0,324744:0:0:0:0:
51,192,324744,1,0,0:0:0:0:
153,192,324844,1,0,0:0:0:0:
358,192,324844,1,0,0:0:0:0:
256,192,324844,1,8,0:0:0:0:
153,192,325044,128,0,325144:0:0:0:0:
460,192,325244,1,2,0:0:0:0:
51,192,325244,1,0,0:0:0:0:
358,192,325444,128,0,325544:0:0:0:0:
153,192,325644,1,0,0:0:0:0:
256,192,325644,1,0,0:0:0:0:
51,192,325644,1,8,0:0:0:0:
460,192,325744,1,0,0:0:0:0:
51,192,325844,128,0,325944:0:0:0:0:
256,192,326044,1,2,0:0:0:0:
358,192,326044,1,0,0:0:0:0:
153,192,326144,1,0,0:0:0:0:
256,192,326244,128,0,326344:0:0:0:0:
460,192,326344,1,0,0:0:0:0:
256,192,326444,1,0,0:0:0:0:
51,192,326444,1,0,0:0:0:0:
358,192,326444,1,8,0:0:0:0:
460,192,326644,128,0,326744:0:0:0:0:
256,192,326844,1,0,0:0:0:0:
153,192,326844,1,2,0:0:0:0:
358,192,327044,128,0,327144:0:0:0:0:
51,192,327244,1,8,0:0:0:0:
256,192,327244,1,0,0:0:0:0:
460,192,327244,1,0,0:0:0:0:
153,192,327444,128,0,327544:0:0:0:0:
51,192,327644,1,0,0:0:0:0:
358,192,327644,1,2,0:0:0:0:
460,192,327744,1,0,0:0:0:0:
256,192,327844,128,0,327944:0:0:0:0:
153,192,327944,1,0,0:0:0:0:
358,192,328044,1,0,0:0:0:0:
51,192,328044,1,0,0:0:0:0:
460,192,328044,1,8,0:0:0:0:
51,192,328244,128,0,328344:0:0:0:0:
153,192,328444,1,2,0:0:0:0:
358,192,328444,1,0,0:0:0:0:
460,192,328644,128,0,328744:0:0:0:0:
358,192,328844,1,0,0:0:0:0:
256,192,328844,1,8,0:0:0:0:
51,192,328844,1,0,0:0:0:0:
358,192,329044,128,0,329144:0:0:0:0:
153,192,329144,1,0,0:0:0:0:
256,192,329244,1,0,0:0:0:0:
460,192,329244,1,2,0:0:0:0:
358,192,329344,1,0,0:0:0:0:
153,192,329444,128,0,329544:0:0:0:0:
51,192,329544,1,0,0:0:0:0:
256,192,329644,1,0,0:0:0:0:
358,192,329644,1,8,0:0:0:0:
460,192,329644,1,0,0:0:0:0:
256,192,329844,128,0,329944:0:0:0:0:
51,192,330044,1,2,0:0:0:0:
358,192,330044,1,0,0:0:0:0:
460,192,330244,128,0,330344:0:0:0:0:
51,192,330444,1,0,0:0:0:0:
256,192,330444,1,8,0:0:0:0:
358,192,330444,1,0,0:0:0:0:
460,192,330544,1,0,0:0:0:0:
51,192,330644,128,0,330744:0:0:0:0:
153,192,330844,1,2,0:0:0:0:
256,192,330844,1,0,0:0:0:0:
51,192,330944,1,0,0:0:0:0:
358,192,331044,128,0,331144:0:0:0:0:
460,192,331144,1,0,0:0:0:0:
153,192,331244,1,0,0:0:0:0:
51,192,331244,1,8,0:0:0:0:
256,192,331244,1,0,0:0:0:0:
153,192,331444,128,0,331544:0:0:0:0:
358,192,331644,1,2,0:0:0:0:
51,192,331644,1,0,0:0:0:0:
256,192,331644,1,0,0:0:0:0:
460,192,331644,1,4,0:0:0:0:
256,192,331844,128,0,331944:0:0:0:0:
51,192,332044,1,0,0:0:0:0:
358,192,332044,1,0,0:0:0:0:
153,192,332044,1,8,0:0:0:0:
460,192,332244,128,0,332344:0:0:0:0:
358,192,332444,1,0,0:0:0:0:
51,192,332444,1,0,0:0:0:0:
256,192,332644,128,0,332844:0:0:0:0:
153,192,332644,1,0,0:0:0:0:
460,192,332844,128,0,333244:0:0:0:0:
51,192,332844,128,0,333244:0:0:0:0:
153,192,333044,128,0,333244:0:0:0:0:
358,192,333044,128,0,333244:0:0:0:0:
256,192,333244,1,6,0:0:0:0:
256,192,333444,128,0,333644:0:0:0:0:
51,192,333644,1,8,0:0:0:0:
153,192,333644,1,0,0:0:0:0:
460,192,333644,1,0,0:0:0:0:
358,192,333744,1,0,0:0:0:0:
460,192,333844,128,0,334044:0:0:0:0:
51,192,334044,1,0,0:0:0:0:
153,192,334044,1,2,0:0:0:0:
256,192,334144,1,0,0:0:0:0:
358,192,334244,128,0,334444:0:0:0:0:
51,192,334344,1,0,0:0:0:0:
460,192,334444,1,0,0:0:0:0:
153,192,334444,1,8,0:0:0:0:
256,192,334444,1,0,0:0:0:0:
153,192,334644,128,0,334844:0:0:0:0:
51,192,334844,1,2,0:0:0:0:
358,192,334844,1,0,0:0:0:0:
460,192,335044,128,0,335244:0:0:0:0:
358,192,335244,1,0,0:0:0:0:
153,192,335244,1,0,0:0:0:0:
256,192,335244,1,8,0:0:0:0:
51,192,335444,128,0,335644:0:0:0:0:
256,192,335544,1,0,0:0:0:0:
358,192,335644,1,2,0:0:0:0:
153,192,335644,1,0,0:0:0:0:
460,192,335744,1,0,0:0:0:0:
358,192,335844,128,0,336044:0:0:0:0:
51,192,336044,1,8,0:0:0:0:
153,192,336044,1,0,0:0:0:0:
256,192,336044,1,0,0:0:0:0:
153,192,336244,128,0,336444:0:0:0:0:
460,192,336444,1,0,0:0:0:0:
256,192,336444,1,2,0:0:0:0:
460,192,336644,128,0,336844:0:0:0:0:
358,192,336844,1,8,0:0:0:0:
51,192,336844,1,0,0:0:0:0:
153,192,336844,1,0,0:0:0:0:
256,192,337044,128,0,337244:0:0:0:0:
51,192,337244,1,0,0:0:0:0:
460,192,337244,1,2,0:0:0:0:
153,192,337344,1,0,0:0:0:0:
358,192,337444,128,0,337644:0:0:0:0:
256,192,337544,1,0,0:0:0:0:
51,192,337644,1,0,0:0:0:0:
153,192,337644,1,8,0:0:0:0:
460,192,337644,1,0,0:0:0:0:
51,192,337844,128,0,338044:0:0:0:0:
358,192,338044,1,2,0:0:0:0:
153,192,338044,1,0,0:0:0:0:
256,192,338244,128,0,338444:0:0:0:0:
358,192,338444,1,0,0:0:0:0:
460,192,338444,1,0,0:0:0:0:
51,192,338444,1,8,0:0:0:0:
153,192,338644,128,0,338844:0:0:0:0:
256,192,338844,1,2,0:0:0:0:
51,192,338844,1,0,0:0:0:0:
460,192,338944,1,0,0:0:0:0:
358,192,339044,128,0,339244:0:0:0:0:
153,192,339144,1,0,0:0:0:0:
460,192,339244,1,8,0:0:0:0:
51,192,339244,1,0,0:0:0:0:
256,192,339244,1,0,0:0:0:0:
460,192,339444,128,0,339644:0:0:0:0:
153,192,339644,1,2,0:0:0:0:
51,192,339644,1,0,0:0:0:0:
256,192,339844,128,0,340044:0:0:0:0:
460,192,340044,1,0,0:0:0:0:
153,192,340044,1,0,0:0:0:0:
358,192,340044,1,8,0:0:0:0:
51,192,340244,128,0,340444:0:0:0:0:
358,192,340444,1,0,0:0:0:0:
256,192,340444,1,2,0:0:0:0:
153,192,340544,1,0,0:0:0:0:
358,192,340644,128,0,340844:0:0:0:0:
256,192,340744,1,0,0:0:0:0:
51,192,340844,1,8,0:0:0:0:
153,192,340844,1,0,0:0:0:0:
460,192,340844,1,0,0:0:0:0:
153,192,341044,128,0,341244:0:0:0:0:
51,192,341244,1,0,0:0:0:0:
256,192,341244,1,2,0:0:0:0:
460,192,341444,128,0,341644:0:0:0:0:
358,192,341644,1,8,0:0:0:0:
51,192,341644,1,0,0:0:0:0:
153,192,341644,1,0,0:0:0:0:
256,192,341844,128,0,342044:0:0:0:0:
460,192,341944,1,0,0:0:0:0:
153,192,342044,1,2,0:0:0:0:
358,192,342044,1,0,0:0:0:0:
256,192,342144,1,0,0:0:0:0:
51,192,342244,128,0,342444:0:0:0:0:
460,192,342344,1,0,0:0:0:0:
358,192,342444,1,0,0:0:0:0:
153,192,342444,1,0,0:0:0:0:
256,192,342444,1,8,0:0:0:0:
358,192,342644,128,0,342844:0:0:0:0:
256,192,342844,1,0,0:0:0:0:
51,192,342844,1,2,0:0:0:0:
153,192,343044,128,0,343244:0:0:0:0:
256,192,343244,1,0,0:0:0:0:
358,192,343244,1,8,0:0:0:0:
51,192,343244,1,0,0:0:0:0:
460,192,343444,128,0,343644:0:0:0:0:
153,192,343644,1,2,0:0:0:0:
51,192,343644,1,0,0:0:0:0:
358,192,343744,1,0,0:0:0:0:
256,192,343844,128,0,344044:0:0:0:0:
460,192,343944,1,0,0:0:0:0:
153,192,344044,1,0,0:0:0:0:
51,192,344044,1,0,0:0:0:0:
358,192,344044,1,8,0:0:0:0:
51,192,344244,128,0,344444:0:0:0:0:
153,192,344444,1,2,0:0:0:0:
460,192,344444,1,0,0:0:0:0:
256,192,344444,1,4,0:0:0:0:
358,192,344644,1,0,0:0:0:0:
256,192,344844,1,0,0:0:0:0:
153,192,344844,1,0,0:0:0:0:
51,192,344844,1,8,0:0:0:0:
51,192,345244,1,0,0:0:0:0:
460,192,345444,128,0,345844:0:0:0:0:
153,192,345444,1,2,0:0:0:0:
358,192,345544,128,0,345844:0:0:0:0:
256,192,345544,1,2,0:0:0:0:
51,192,345644,128,0,345844:0:0:0:0:
153,192,345644,128,0,345844:0:0:0:0:
256,192,346044,5,2,0:0:0:0:
153,192,346044,1,0,0:0:0:0:
460,192,346044,1,4,0:0:0:0:
51,192,346244,1,0,0:0:0:0:
358,192,346444,1,0,0:0:0:0:
256,192,346444,1,0,0:0:0:0:
153,192,346444,1,8,0:0:0:0:
460,192,346644,1,0,0:0:0:0:
51,192,346844,1,2,0:0:0:0:
358,192,346844,1,0,0:0:0:0:
153,192,347044,1,0,0:0:0:0:
256,192,347144,1,0,0:0:0:0:
51,192,347244,1,0,0:0:0:0:
358,192,347244,1,8,0:0:0:0:
460,192,347244,1,0,0:0:0:0:
153,192,347444,1,0,0:0:0:0:
256,192,347644,1,2,0:0:0:0:
51,192,347644,1,0,0:0:0:0:
460,192,347844,1,0,0:0:0:0:
153,192,348044,1,8,0:0:0:0:
256,192,348044,1,0,0:0:0:0:
358,192,348044,1,0,0:0:0:0:
51,192,348244,1,0,0:0:0:0:
153,192,348444,1,0,0:0:0:0:
460,192,348444,1,2,0:0:0:0:
256,192,348644,1,0,0:0:0:0:
358,192,348744,1,0,0:0:0:0:
153,192,348844,1,0,0:0:0:0:
460,192,348844,1,0,0:0:0:0:
51,192,348844,1,8,0:0:0:0:
256,192,349044,1,0,0:0:0:0:
51,192,349244,1,0,0:0:0:0:
358,192,349244,1,2,0:0:0:0:
460,192,349444,1,0,0:0:0:0:
153,192,349644,1,8,0:0:0:0:
51,192,349644,1,0,0:0:0:0:
256,192,349644,1,0,0:0:0:0:
358,192,349844,1,0,0:0:0:0:
460,192,350044,1,2,0:0:0:0:
256,192,350044,1,0,0:0:0:0:
358,192,350244,1,0,0:0:0:0:
256,192,350344,1,0,0:0:0:0:
51,192,350444,1,8,0:0:0:0:
460,192,350444,1,0,0:0:0:0:
153,192,350444,1,0,0:0:0:0:
358,192,350644,1,0,0:0:0:0:
256,192,350844,1,2,0:0:0:0:
51,192,350844,1,0,0:0:0:0:
153,192,351044,1,0,0:0:0:0:
256,192,351244,1,0,0:0:0:0:
51,192,351244,1,0,0:0:0:0:
460,192,351244,1,8,0:0:0:0:
358,192,351444,1,0,0:0:0:0:
153,192,351644,1,2,0:0:0:0:
460,192,351644,1,0,0:0:0:0:
256,192,351844,1,0,0:0:0:0:
358,192,351944,1,0,0:0:0:0:
153,192,352044,1,0,0:0:0:0:
460,192,352044,1,0,0:0:0:0:
51,192,352044,1,8,0:0:0:0:
256,192,352244,1,0,0:0:0:0:
358,192,352444,1,2,0:0:0:0:
51,192,352444,1,0,0:0:0:0:
460,192,352644,1,0,0:0:0:0:
153,192,352844,1,0,0:0:0:0:
358,192,352844,1,0,0:0:0:0:
256,192,352844,1,8,0:0:0:0:
51,192,353044,1,0,0:0:0:0:
460,192,353244,1,0,0:0:0:0:
153,192,353244,1,2,0:0:0:0:
358,192,353444,1,0,0:0:0:0:
256,192,353544,1,0,0:0:0:0:
51,192,353644,1,8,0:0:0:0:
460,192,353644,1,0,0:0:0:0:
153,192,353644,1,0,0:0:0:0:
358,192,353844,1,0,0:0:0:0:
256,192,354044,1,2,0:0:0:0:
51,192,354044,1,0,0:0:0:0:
460,192,354244,1,0,0:0:0:0:
256,192,354444,1,0,0:0:0:0:
358,192,354444,1,8,0:0:0:0:
153,192,354444,1,0,0:0:0:0:
51,192,354644,1,0,0:0:0:0:
358,192,354844,1,0,0:0:0:0:
460,192,354844,1,2,0:0:0:0:
256,192,355044,1,0,0:0:0:0:
153,192,355144,1,0,0:0:0:0:
460,192,355244,1,0,0:0:0:0:
358,192,355244,1,0,0:0:0:0:
51,192,355244,1,8,0:0:0:0:
256,192,355444,1,0,0:0:0:0:
51,192,355644,1,0,0:0:0:0:
153,192,355644,1,2,0:0:0:0:
358,192,355844,1,0,0:0:0:0:
460,192,356044,1,0,0:0:0:0:
51,192,356044,1,0,0:0:0:0:
256,192,356044,1,8,0:0:0:0:
153,192,356244,1,0,0:0:0:0:
256,192,356444,1,0,0:0:0:0:
358,192,356444,1,2,0:0:0:0:
460,192,356644,1,0,0:0:0:0:
358,192,356744,1,0,0:0:0:0:
51,192,356844,1,8,0:0:0:0:
256,192,356844,1,0,0:0:0:0:
153,192,356844,1,0,0:0:0:0:
460,192,357044,1,0,0:0:0:0:
460,192,357244,1,2,0:0:0:0:
51,192,357244,1,0,0:0:0:0:
358,192,357294,1,0,0:0:0:0:
256,192,357344,1,0,0:0:0:0:
153,192,357394,1,0,0:0:0:0:
51,192,357444,1,0,0:0:0:0:
460,192,357494,1,0,0:0:0:0:
358,192,357544,1,0,0:0:0:0:
256,192,357594,1,0,0:0:0:0:
153,192,357644,1,0,0:0:0:0:
460,192,357644,1,8,0:0:0:0:
51,192,357744,1,0,0:0:0:0:
256,192,357844,1,0,0:0:0:0:
153,192,357944,1,0,0:0:0:0:
358,192,358044,1,0,0:0:0:0:
256,192,358144,1,0,0:0:0:0:
460,192,358244,1,0,0:0:0:0:
358,192,358344,1,0,0:0:0:0:
51,192,358444,128,0,358644:0:0:0:0:
153,192,358444,128,8,358644:0:0:0:0:
460,192,358544,1,0,0:0:0:0:
256,192,358644,1,0,0:0:0:0:
358,192,358744,1,0,0:0:0:0:
460,192,358844,128,4,359044:0:0:0:0:
256,192,358844,128,0,359044:0:0:0:0:
153,192,358844,128,2,359044:0:0:0:0:
358,192,359244,1,8,0:0:0:0:
51,192,359244,1,0,0:0:0:0:
460,192,359244,1,0,0:0:0:0:
153,192,359444,1,0,0:0:0:0:
358,192,359644,1,0,0:0:0:0:
256,192,359644,1,2,0:0:0:0:
51,192,359844,1,0,0:0:0:0:
153,192,359944,1,0,0:0:0:0:
358,192,360044,1,0,0:0:0:0:
256,192,360044,1,0,0:0:0:0:
460,192,360044,1,8,0:0:0:0:
51,192,360244,1,0,0:0:0:0:
153,192,360444,1,2,0:0:0:0:
256,192,360444,1,0,0:0:0:0:
460,192,360644,1,0,0:0:0:0:
358,192,360844,1,0,0:0:0:0:
51,192,360844,1,8,0:0:0:0:
153,192,360844,1,0,0:0:0:0:
256,192,361044,1,0,0:0:0:0:
460,192,361244,1,2,0:0:0:0:
51,192,361244,1,0,0:0:0:0:
358,192,361444,1,0,0:0:0:0:
256,192,361544,1,0,0:0:0:0:
153,192,361644,1,8,0:0:0:0:
460,192,361644,1,0,0:0:0:0:
51,192,361644,1,0,0:0:0:0:
358,192,361844,1,0,0:0:0:0:
51,192,362044,1,0,0:0:0:0:
256,192,362044,1,2,0:0:0:0:
153,192,362244,1,0,0:0:0:0:
460,192,362444,1,0,0:0:0:0:
256,192,362444,1,0,0:0:0:0:
358,192,362444,1,8,0:0:0:0:
51,192,362644,1,0,0:0:0:0:
460,192,362844,1,0,0:0:0:0:
153,192,362844,1,2,0:0:0:0:
358,192,363044,1,0,0:0:0:0:
256,192,363144,1,0,0:0:0:0:
51,192,363244,1,8,0:0:0:0:
460,192,363244,1,0,0:0:0:0:
153,192,363244,1,0,0:0:0:0:
358,192,363444,1,0,0:0:0:0:
256,192,363644,1,2,0:0:0:0:
51,192,363644,1,0,0:0:0:0:
460,192,363844,1,0,0:0:0:0:
358,192,364044,1,8,0:0:0:0:
51,192,364044,1,0,0:0:0:0:
153,192,364044,1,0,0:0:0:0:
256,192,364244,1,0,0:0:0:0:
153,192,364444,1,0,0:0:0:0:
460,192,364444,1,2,0:0:0:0:
256,192,364644,1,0,0:0:0:0:
358,192,364744,1,0,0:0:0:0:
153,192,364844,1,8,0:0:0:0:
460,192,364844,1,0,0:0:0:0:
51,192,364844,1,0,0:0:0:0:
256,192,365044,1,0,0:0:0:0:
460,192,365244,1,2,0:0:0:0:
358,192,365244,1,0,0:0:0:0:
256,192,365444,1,2,0:0:0:0:
153,192,365444,1,0,0:0:0:0:
460,192,365644,1,8,0:0:0:0:
51,192,365644,1,0,0:0:0:0:
358,192,365644,1,0,0:0:0:0:
153,192,365844,1,2,0:0:0:0:
256,192,365844,1,0,0:0:0:0:
358,192,365944,1,2,0:0:0:0:
460,192,365944,1,0,0:0:0:0:
51,192,366044,1,2,0:0:0:0:
153,192,366044,1,0,0:0:0:0:
358,192,366244,1,0,0:0:0:0:
256,192,366244,1,2,0:0:0:0:
460,192,366444,1,8,0:0:0:0:
153,192,366444,1,0,0:0:0:0:
51,192,366444,1,0,0:0:0:0:
256,192,366644,1,0,0:0:0:0:
358,192,366644,1,2,0:0:0:0:
153,192,366744,1,2,0:0:0:0:
51,192,366744,1,0,0:0:0:0:
460,192,366844,1,2,0:0:0:0:
358,192,366844,1,0,0:0:0:0:
256,192,367044,1,2,0:0:0:0:
153,192,367044,1,0,0:0:0:0:
51,192,367244,1,8,0:0:0:0:
358,192,367244,1,0,0:0:0:0:
460,192,367244,1,0,0:0:0:0:
256,192,367444,1,0,0:0:0:0:
153,192,367444,1,2,0:0:0:0:
358,192,367544,1,2,0:0:0:0:
460,192,367544,1,0,0:0:0:0:
153,192,367644,1,0,0:0:0:0:
51,192,367644,1,2,0:0:0:0:
256,192,367844,1,2,0:0:0:0:
358,192,367844,1,0,0:0:0:0:
51,192,368044,1,0,0:0:0:0:
153,192,368044,1,8,0:0:0:0:
460,192,368044,1,0,0:0:0:0:
256,192,368244,1,0,0:0:0:0:
358,192,368244,1,2,0:0:0:0:
153,192,368344,1,0,0:0:0:0:
51,192,368344,1,2,0:0:0:0:
460,192,368444,1,2,0:0:0:0:
358,192,368444,1,0,0:0:0:0:
256,192,368544,1,2,0:0:0:0:
153,192,368544,1,0,0:0:0:0:
460,192,368644,1,0,0:0:0:0:
51,192,368644,1,2,0:0:0:0:
256,192,368844,1,0,0:0:0:0:
358,192,368844,1,8,0:0:0:0:
460,192,368844,1,0,0:0:0:0:
51,192,368944,1,0,0:0:0:0:
153,192,368944,1,2,0:0:0:0:
256,192,369044,1,2,0:0:0:0:
358,192,369044,1,0,0:0:0:0:
256,192,369244,1,0,0:0:0:0:
153,192,369244,1,2,0:0:0:0:
358,192,369344,1,0,0:0:0:0:
460,192,369344,1,2,0:0:0:0:
51,192,369444,1,2,0:0:0:0:
153,192,369444,1,0,0:0:0:0:
358,192,369544,1,2,0:0:0:0:
460,192,369544,1,0,0:0:0:0:
256,192,369644,1,0,0:0:0:0:
153,192,369644,1,8,0:0:0:0:
51,192,369644,1,0,0:0:0:0:
460,192,369744,1,2,0:0:0:0:
358,192,369744,1,0,0:0:0:0:
153,192,369844,1,0,0:0:0:0:
51,192,369844,1,2,0:0:0:0:
358,192,369944,1,2,0:0:0:0:
460,192,369944,1,0,0:0:0:0:
51,192,370044,1,0,0:0:0:0:
153,192,370044,1,4,0:0:0:0:
256,192,370044,1,0,0:0:0:0:
460,192,370144,1,0,0:0:0:0:
358,192,370144,1,0,0:0:0:70:soft-hitclap2.wav
51,192,370244,1,0,0:0:0:70:soft-hitclap2.wav
153,192,370244,1,0,0:0:0:0:
256,192,370344,1,0,0:0:0:70:soft-hitclap2.wav
358,192,370344,1,0,0:0:0:0:
51,192,370444,1,0,0:0:0:0:
460,192,370444,1,0,0:0:0:70:soft-hitclap2.wav
153,192,370544,1,0,0:0:0:70:soft-hitclap2.wav
256,192,370544,1,0,0:0:0:0:
358,192,370644,1,0,0:0:0:70:soft-hitclap2.wav
460,192,370644,1,0,0:0:0:0:
153,192,370744,1,0,0:0:0:0:
51,192,370744,1,0,0:0:0:70:soft-hitclap2.wav
358,192,370844,1,0,0:0:0:0:
256,192,370844,1,0,0:0:0:70:soft-hitclap2.wav
460,192,370944,1,0,0:0:0:70:soft-hitclap2.wav
51,192,370944,1,0,0:0:0:0:
256,192,371044,1,0,0:0:0:0:
153,192,371044,1,0,0:0:0:70:soft-hitclap2.wav
460,192,371144,1,0,0:0:0:0:
358,192,371144,1,0,0:0:0:70:soft-hitclap2.wav
153,192,371244,1,0,0:0:0:0:
51,192,371244,1,0,0:0:0:70:soft-hitclap2.wav
460,192,371444,128,0,371544:0:0:0:0:
256,192,371444,128,0,371544:0:0:0:0:
