osu file format v14

[General]
AudioFilename: audio.mp3
AudioLeadIn: 0
PreviewTime: 25697
Countdown: 0
SampleSet: Soft
StackLeniency: 0.4
Mode: 0
LetterboxInBreaks: 0
WidescreenStoryboard: 1

[Editor]
DistanceSpacing: 1.2
BeatDivisor: 2
GridSize: 8
TimelineZoom: 1

[Metadata]
Title:Step and a step
TitleUnicode:Step and a step
Artist:NiziU
ArtistUnicode:NiziU
Creator:Nabori
Version:Normal
Source:
Tags:ニジュー 니쥬 jype jyp ent entertainment 虹U ニジユ mako 真子 マコ rio 梨緒 リオ maya まや マヤ riku 陸 ayaka あやか アヤカ mayuka まゆか マユカ rima りま リマ miihi みいひ ミイヒ nina 仁菜 ニナ sony music girl group japanese female band vocalists jpop j-pop rap pop debut リク ニジュー
BeatmapID:2776343
BeatmapSetID:1340124

[Difficulty]
HPDrainRate:4
CircleSize:3.5
OverallDifficulty:4
ApproachRate:5.2
SliderMultiplier:1.3
SliderTickRate:1

[Events]
//Background and Video events
Video,0,"video.mp4"
0,0,"d.jpg",0,0
//Break Periods
2,75352,82335
2,125007,131990
2,157794,158463
//Storyboard Layer 0 (Background)
//Storyboard Layer 1 (Fail)
//Storyboard Layer 2 (Pass)
//Storyboard Layer 3 (Foreground)
//Storyboard Layer 4 (Overlay)
//Storyboard Sound Samples

[TimingPoints]
870,517.241379310345,4,2,1,65,1,0
1257,-100,4,2,2,65,0,0
1645,-100,4,2,3,65,0,0
2163,-100,4,2,4,65,0,0
2421,-100,4,2,2,65,0,0
2680,-100,4,2,3,65,0,0
2938,-100,4,2,1,65,0,0
3326,-100,4,2,2,65,0,0
3714,-100,4,2,3,65,0,0
4232,-100,4,2,4,65,0,0
4490,-100,4,2,2,65,0,0
4749,-100,4,2,3,65,0,0
5007,-100,4,2,1,65,0,0
5395,-100,4,2,2,65,0,0
5782,-100,4,2,3,65,0,0
6301,-100,4,2,4,65,0,0
6559,-100,4,2,5,65,0,0
6817,-100,4,2,2,65,0,0
7463,-100,4,2,5,65,0,0
7851,-100,4,2,2,65,0,0
8240,-100,4,2,5,65,0,0
8498,-100,4,2,2,65,0,0
8886,-100,4,2,3,65,0,0
9663,-100,4,2,6,60,0,0
17421,-100,4,2,6,65,0,0
33456,-100,4,2,7,65,0,0
33973,-100,4,2,6,65,0,0
42766,-100,4,2,8,75,0,1
44964,-100,4,2,6,75,0,1
45870,-100,4,2,8,75,0,1
49102,-100,4,2,6,75,0,1
50007,-100,4,2,8,75,0,1
50525,-100,4,2,8,75,0,0
51042,-100,4,2,8,75,0,1
51301,-100,4,2,6,75,0,1
52076,-100,4,2,8,75,0,1
53240,-100,4,2,3,75,0,1
53369,-100,4,2,6,75,0,1
54145,-100,4,2,3,75,0,1
54792,-100,4,2,6,75,0,1
55180,-100,4,2,8,75,0,1
58801,-100,4,2,1,75,0,0
59318,-100,4,2,8,75,0,0
67076,-100,4,2,6,75,0,0
67594,-100,4,2,8,75,0,0
75094,-100,4,2,8,65,0,0
84145,-100,4,2,6,65,0,0
99663,-100,4,2,7,65,0,0
100180,-100,4,2,6,65,0,0
108973,-100,4,2,8,75,0,1
111171,-100,4,2,6,75,0,1
112076,-100,4,2,8,75,0,1
115309,-100,4,2,6,75,0,1
116214,-100,4,2,8,75,0,1
116732,-100,4,2,8,75,0,0
117249,-100,4,2,8,75,0,1
117508,-100,4,2,6,75,0,1
118283,-100,4,2,8,75,0,1
120999,-100,4,2,6,75,0,1
121387,-100,4,2,8,75,0,1
124490,-100,4,2,9,75,0,0
125007,-100,4,2,9,75,0,0
133283,-100,4,2,8,65,0,0
141042,-100,4,2,9,75,0,0
142076,-100,4,2,8,75,0,0
143240,-100,4,2,6,75,0,0
144145,-100,4,2,8,75,0,0
146344,-100,4,2,6,75,0,0
147249,-100,4,2,8,75,0,0
148413,-100,4,2,6,75,0,0
149318,-100,4,2,8,75,0,0
149447,-100,4,2,6,75,0,0
150352,-100,4,2,8,75,0,0
150482,-100,4,2,6,75,0,0
151387,-100,4,2,3,75,0,0
151904,-100,4,2,6,75,0,0
152421,-100,4,2,8,75,0,0
152551,-100,4,2,6,75,0,0
153455,-100,4,2,8,75,0,0
159663,-100,4,2,8,75,0,1
160826,-100,4,2,6,75,0,1
161732,-100,4,2,8,75,0,1
164964,-100,4,2,6,75,0,1
165870,-100,4,2,8,75,0,1
166387,-100,4,2,8,75,0,0
166904,-100,4,2,8,75,0,1
167163,-100,4,2,6,75,0,1
167421,-100,4,2,6,75,0,1
167938,-100,4,2,8,75,0,1
170654,-100,4,2,6,75,0,1
171042,-100,4,2,8,75,0,1
174145,-100,4,2,8,75,0,0
174663,-100,4,2,1,75,0,1
175180,-100,4,2,8,75,0,0
175697,-100,4,2,8,75,0,0
182938,-100,4,2,6,75,0,0
183456,-100,4,2,8,75,0,0
190956,-100,4,2,10,75,0,0

[Colours]
Combo1 : 231,139,254
Combo2 : 255,94,174

[HitObjects]
491,287,870,5,2,2:0:0:0:
385,218,1257,1,2,2:0:0:0:
367,343,1645,1,2,2:0:0:0:
367,343,2163,2,0,L|279:336,2,65,2|10|2,2:0|2:0|2:0,2:0:0:0:
428,285,2938,1,2,2:0:0:0:
357,180,3326,1,2,2:0:0:0:
438,82,3714,1,2,2:0:0:0:
438,82,4232,2,0,L|526:89,2,65,2|10|2,2:0|2:0|2:0,2:0:0:0:
356,58,5007,6,0,P|373:101|383:156,1,97.5,2|2,2:0|0:2,2:0:0:0:
354,275,5783,1,2,1:2:0:0:
198,224,6301,1,2,1:2:0:0:
198,224,6559,2,0,P|164:216|126:211,1,65,10|2,1:2|1:2,2:0:0:0:
56,179,7076,6,0,P|37:225|54:273,2,97.5,2|2|2,1:2|1:2|1:2,2:0:0:0:
98,105,8111,2,0,P|112:61|95:11,2,97.5,0|2|2,1:0|1:2|1:2,2:0:0:0:
0,341,9663,5,10,2:0:0:0:
0,341,9921,1,2,2:0:0:0:
75,380,10180,2,0,P|104:372|141:363,1,65,2|2,2:0|2:0,2:0:0:0:
202,309,10697,2,0,P|233:318|269:330,1,65,10|2,2:0|2:0,2:0:0:0:
331,379,11214,2,0,P|376:365|430:355,1,97.5,2|2,2:0|2:0,2:0:0:0:
502,254,11990,2,0,P|479:158|436:67,1,195,2|8,2:0|2:0,2:0:0:0:
282,137,13283,5,0,2:0:0:0:
245,305,13801,1,10,2:0:0:0:
245,305,14059,2,0,B|196:314|196:314|148:296,1,97.5,2|0,2:0|2:0,2:0:0:0:
35,259,14835,1,10,2:0:0:0:
35,259,15094,1,2,2:0:0:0:
0,336,15352,1,0,2:0:0:0:
512,0,17421,5,0,1:0:0:0:
455,161,17938,1,10,2:0:0:0:
455,161,18197,1,2,2:0:0:0:
399,97,18456,2,0,L|317:104,1,65,2|2,2:0|1:2,2:0:0:0:
275,163,18973,2,0,L|199:156,1,65,10|2,2:0|1:2,2:0:0:0:
137,113,19490,2,0,B|116:160|116:160|136:211,2,97.5,2|2|2,2:0|2:0|2:0,2:0:0:0:
195,0,20654,1,0,2:0:0:0:
309,64,21042,1,8,2:0:0:0:
309,64,21301,1,0,2:0:0:0:
387,32,21559,6,0,B|398:65|398:65|387:103,1,65,2|2,1:2|2:0,2:0:0:0:
323,146,22076,2,0,B|311:180|311:180|323:217,1,65,10|2,2:0|2:0,2:0:0:0:
359,282,22594,1,2,2:0:0:0:
213,368,23111,2,0,B|180:375|180:375|146:363,1,65,8|0,2:0|1:0,2:0:0:0:
74,328,23628,1,0,2:0:0:0:
74,328,25697,5,2,2:0:0:0:
35,77,26473,2,0,B|72:37|143:59|143:59|164:102|215:105,1,195,2|0,2:0|2:0,2:0:0:0:
340,204,27766,2,0,P|314:257|346:321,1,130,2|0,2:0|2:0,2:0:0:0:
404,375,28542,2,0,P|430:322|398:258,1,130,2|0,2:0|2:0,2:0:0:0:
340,204,29318,1,2,2:0:0:0:
187,276,29835,6,0,B|123:291|123:291|57:262,1,130,2|0,2:0|2:0,2:0:0:0:
73,182,30611,2,0,B|136:166|136:166|190:201|190:201|264:179,1,195,2|0,2:0|2:0,2:0:0:0:
412,125,31904,2,0,B|382:155|382:155|412:254,1,130,2|0,2:0|2:0,2:0:0:0:
472,293,32680,2,0,B|502:263|502:263|472:164,1,130,2|0,2:0|2:0,2:0:0:0:
412,125,33456,1,2,1:2:0:0:
266,210,33973,6,0,B|254:160|292:125|292:125|302:67|256:36,1,195,2|2,1:2|1:2,2:0:0:0:
183,78,35007,2,0,P|150:86|118:79,1,65,2|2,2:0|1:2,2:0:0:0:
50,31,35525,2,0,P|33:60|36:95,1,65,10|2,2:0|2:0,2:0:0:0:
85,158,36042,2,0,P|102:205|78:256,2,97.5,2|2|2,1:2|2:0|1:2,2:0:0:0:
168,10,37335,1,0,1:0:0:0:
252,162,37852,5,2,2:0:0:0:
252,162,38111,2,0,P|259:192|264:227,2,65,2|2|10,1:2|1:2|1:2,2:0:0:0:
277,81,38887,1,2,1:2:0:0:
355,113,39145,2,0,P|386:106|417:96,1,65,2|2,1:2|1:2,2:0:0:0:
501,80,39663,2,0,P|493:111|489:143,1,65,8|2,1:2|1:2,2:0:0:0:
512,226,40180,1,2,1:2:0:0:
283,128,40956,5,2,2:0:0:0:
283,128,41214,2,0,P|266:186|253:254,1,130,2|0,2:0|2:0,2:0:0:0:
362,384,42249,1,2,1:2:0:0:
461,248,42766,5,14,1:2:0:0:
461,248,43025,1,2,2:0:0:0:
407,183,43283,2,0,P|377:189|338:201,1,65,2|0,1:2|2:0,2:0:0:0:
236,329,44059,1,2,2:0:0:0:
171,275,44318,2,0,P|165:244|152:210,1,65,2|2,1:2|2:0,2:0:0:0:
194,138,44835,2,0,P|199:102|211:63,1,65,10|2,1:2|2:0,2:0:0:0:
166,0,45352,1,2,1:2:0:0:
318,73,45870,1,8,1:2:0:0:
471,0,46387,5,2,1:2:0:0:
512,169,46904,1,10,1:2:0:0:
512,169,47163,1,2,2:0:0:0:
456,232,47421,2,0,P|428:224|393:219,1,65,2|0,1:2|2:0,2:0:0:0:
256,319,48197,5,2,2:0:0:0:
189,266,48456,2,0,P|157:273|125:278,1,65,2|2,1:2|2:0,2:0:0:0:
48,313,48973,2,0,P|41:284|29:251,1,65,8|0,1:2|2:0,2:0:0:0:
0,171,49490,1,2,1:2:0:0:
113,45,50007,2,0,P|144:37|182:31,2,65,10|2|2,1:2|2:0|1:2,2:0:0:0:
188,196,51042,6,0,P|253:195|302:142,1,130,12|0,1:2|1:0,2:0:0:0:
408,25,52076,1,10,1:2:0:0:
408,25,52335,1,2,2:0:0:0:
468,85,52594,2,0,P|480:118|473:151,1,65,2|2,1:2|2:0,2:0:0:0:
439,223,53111,2,0,P|429:254|438:286,1,65,8|2,1:2|2:0,2:0:0:0:
491,350,53628,1,2,1:2:0:0:
330,297,54145,1,8,1:2:0:0:
185,384,54663,6,0,P|179:352|169:318,1,65,0|2,1:0|1:2,2:0:0:0:
86,308,55180,2,0,P|88:280|98:241,1,65,10|2,1:2|1:2,2:0:0:0:
169,200,55697,2,0,P|164:169|153:132,1,65,0|2,1:0|1:2,2:0:0:0:
80,97,56214,2,0,P|83:67|91:30,1,65,10|2,1:2|1:2,2:0:0:0:
169,0,56732,5,2,1:2:0:0:
253,95,57120,1,2,1:2:0:0:
348,11,57507,1,2,1:2:0:0:
495,104,58025,1,2,1:2:0:0:
495,104,58283,1,2,1:2:0:0:
383,231,58801,6,0,P|333:192|265:196,1,130,4|10,1:2|1:2,2:0:0:0:
199,240,59576,1,2,2:0:0:0:
199,240,59835,1,2,1:2:0:0:
113,147,60223,1,2,2:0:0:0:
0,205,60611,2,0,P|9:238|12:271,1,65,2|0,2:0|1:0,2:0:0:0:
72,328,61128,2,0,P|100:317|138:310,1,65,2|8,2:0|1:2,2:0:0:0:
208,351,61645,2,0,P|241:354|273:359,1,65,2|0,2:0|1:0,2:0:0:0:
338,304,62163,1,2,2:0:0:0:
338,304,62421,2,0,B|390:299|390:299|407:313|407:313|463:308,1,130,10|0,1:2|1:0,2:0:0:0:
510,145,63456,6,0,P|485:126|443:122,1,65,10|2,1:2|2:0,2:0:0:0:
371,146,63973,1,2,1:2:0:0:
269,70,64361,1,2,2:0:0:0:
149,111,64749,2,0,P|160:142|163:177,1,65,2|0,2:0|1:0,2:0:0:0:
110,240,65266,2,0,P|101:272|99:310,1,65,2|8,2:0|1:2,2:0:0:0:
158,371,65783,1,2,2:0:0:0:
158,371,66042,2,0,P|191:371|223:352,1,65,2|0,1:2|2:0,2:0:0:0:
283,302,66559,2,0,P|315:293|351:301,1,65,8|2,1:2|2:0,2:0:0:0:
420,339,67076,5,6,1:2:0:0:
502,191,67594,2,0,P|494:160|481:127,1,65,10|2,1:2|2:0,2:0:0:0:
424,67,68111,1,2,1:2:0:0:
307,116,68499,1,2,2:0:0:0:
216,28,68887,2,0,P|184:31|152:39,1,65,2|0,2:0|1:0,2:0:0:0:
80,85,69404,2,0,P|89:113|97:150,1,65,2|8,2:0|1:2,2:0:0:0:
159,205,69921,2,0,P|193:192|233:188,1,65,2|0,2:0|1:0,2:0:0:0:
291,140,70438,1,2,2:0:0:0:
291,140,70697,2,0,P|306:197|321:273,1,130,10|0,1:2|1:0,2:0:0:0:
186,370,71732,6,0,P|154:360|122:355,1,65,10|2,1:2|2:0,2:0:0:0:
41,376,72249,1,2,1:2:0:0:
0,256,72637,1,2,2:0:0:0:
116,205,73025,2,0,P|125:174|115:137,1,65,2|0,2:0|1:0,2:0:0:0:
39,112,73542,2,0,P|30:81|40:44,1,65,2|8,2:0|1:2,2:0:0:0:
106,0,74059,1,2,2:0:0:0:
106,0,74318,1,2,1:2:0:0:
208,75,74706,1,2,1:2:0:0:
315,7,75094,1,2,1:2:0:0:
512,384,83628,5,0,1:0:0:0:
441,236,84145,1,10,1:2:0:0:
441,236,84404,1,2,2:0:0:0:
379,294,84663,2,0,P|345:286|305:281,1,65,2|2,1:2|2:0,2:0:0:0:
256,221,85180,2,0,P|220:225|180:234,1,65,10|2,1:2|2:0,2:0:0:0:
134,293,85697,2,0,P|84:283|28:278,2,97.5,2|2|2,1:2|2:0|2:0,2:0:0:0:
97,171,86861,1,0,2:0:0:0:
189,84,87249,1,8,1:2:0:0:
189,84,87507,1,0,2:0:0:0:
253,139,87766,6,0,B|284:144|284:144|321:129,1,65,2|2,1:2|2:0,2:0:0:0:
388,89,88283,2,0,B|418:76|418:76|456:83,1,65,10|2,1:2|2:0,2:0:0:0:
512,140,88801,1,2,1:2:0:0:
431,288,89318,2,0,B|399:298|399:298|364:289,1,65,8|0,1:2|2:0,2:0:0:0:
290,258,89835,1,0,1:0:0:0:
256,192,91904,5,2,2:0:0:0:
484,170,92680,2,0,P|395:209|487:209,1,260,2|0,2:0|2:0,2:0:0:0:
512,294,93973,2,0,P|456:316|383:302,1,130,2|0,2:0|2:0,2:0:0:0:
328,246,94749,2,0,B|293:229|260:257|267:263|233:291|197:273,1,130,2|0,2:0|2:0,2:0:0:0:
132,240,95525,1,2,2:0:0:0:
23,369,96042,6,0,B|-5:341|-5:341|23:239,1,130,2|0,2:0|2:0,2:0:0:0:
45,173,96818,2,0,B|81:41|81:41|38:-2,1,195,2|0,2:0|2:0,2:0:0:0:
161,118,98111,2,0,B|217:113|217:113|230:123|230:123|288:118,1,130,2|0,2:0|2:0,2:0:0:0:
366,87,98887,2,0,B|396:117|396:117|366:216,1,130,2|0,2:0|2:0,2:0:0:0:
339,279,99663,1,0,1:0:0:0:
286,118,100180,6,0,B|229:89|184:134|208:142|163:187|103:157,1,195,2|2,1:2|1:2,2:0:0:0:
29,140,101214,2,0,P|15:171|24:207,1,65,2|2,2:0|1:2,2:0:0:0:
96,239,101732,2,0,P|109:270|100:306,1,65,10|2,2:0|2:0,2:0:0:0:
50,366,102249,2,0,P|96:360|141:387,2,97.5,2|2|2,1:2|2:0|1:2,2:0:0:0:
0,204,103542,1,0,1:0:0:0:
136,103,104059,5,2,2:0:0:0:
136,103,104318,2,0,P|128:70|114:39,2,65,2|2|10,1:2|1:2|1:2,2:0:0:0:
163,183,105094,1,2,1:2:0:0:
235,139,105352,2,0,P|265:128|297:121,1,65,2|2,1:2|1:2,2:0:0:0:
374,159,105870,2,0,P|405:167|437:171,1,65,8|2,1:2|1:2,2:0:0:0:
492,106,106387,1,2,1:2:0:0:
264,9,107163,5,2,2:0:0:0:
264,9,107421,2,0,P|283:71|296:138,1,130,2|0,2:0|2:0,2:0:0:0:
243,295,108456,1,2,1:2:0:0:
96,222,108973,5,14,1:2:0:0:
96,222,109232,1,2,2:0:0:0:
74,140,109490,2,0,P|80:108|92:78,1,65,2|0,1:2|2:0,2:0:0:0:
266,0,110266,5,2,2:0:0:0:
321,63,110525,2,0,P|350:71|383:63,1,65,2|2,1:2|2:0,2:0:0:0:
460,27,111042,2,0,P|471:60|461:95,1,65,10|2,1:2|2:0,2:0:0:0:
411,154,111559,1,2,1:2:0:0:
512,290,112076,1,8,1:2:0:0:
371,384,112594,5,2,1:2:0:0:
275,251,113111,1,10,1:2:0:0:
275,251,113370,1,2,2:0:0:0:
206,299,113628,2,0,P|174:310|137:306,1,65,2|0,1:2|2:0,2:0:0:0:
16,196,114404,5,2,2:0:0:0:
47,117,114663,2,0,P|79:106|111:100,1,65,2|2,1:2|2:0,2:0:0:0:
191,122,115180,2,0,P|227:133|262:139,1,65,8|0,1:2|2:0,2:0:0:0:
328,97,115697,1,2,1:2:0:0:
467,192,116214,2,0,P|457:222|450:254,2,65,10|2|2,1:2|2:0|1:2,2:0:0:0:
495,25,117249,6,0,B|442:20|442:20|425:33|425:33|361:28,1,130,12|0,1:2|1:0,2:0:0:0:
206,9,118283,1,10,1:2:0:0:
206,9,118542,1,2,2:0:0:0:
136,57,118801,2,0,P|127:88|123:120,1,65,2|2,1:2|2:0,2:0:0:0:
180,183,119318,2,0,P|192:214|196:247,1,65,8|2,1:2|2:0,2:0:0:0:
171,326,119835,1,2,1:2:0:0:
37,222,120352,1,8,1:2:0:0:
158,103,120870,6,0,P|192:98|226:112,1,65,0|2,1:0|1:2,2:0:0:0:
278,172,121387,2,0,P|283:202|267:238,1,65,10|2,1:2|1:2,2:0:0:0:
213,295,121904,2,0,P|184:302|147:289,1,65,0|2,1:0|1:2,2:0:0:0:
98,225,122421,2,0,P|89:196|102:158,1,65,10|2,1:2|1:2,2:0:0:0:
158,103,122938,5,2,1:2:0:0:
275,151,123326,1,2,1:2:0:0:
364,61,123714,1,2,1:2:0:0:
512,153,124232,1,2,1:2:0:0:
512,153,124490,1,6,1:2:0:0:
21,83,133283,6,0,B|0:36|22:-15|79:-27|139:-14|168:57|124:106|70:144|70:144|10:188|41:265,1,455,2|0,2:0|2:0,2:0:0:0:
0,339,135352,6,0,B|80:375|139:312|105:290|203:208|297:270|276:300|360:338|424:278,1,455,2|0,2:0|2:0,2:0:0:0:
495,237,137421,6,0,P|484:171|468:107,1,130,2|2,2:0|2:0,2:0:0:0:
405,55,138197,2,0,P|373:59|335:66,1,65,2|0,2:0|3:0,2:0:0:0:
271,113,138714,2,0,P|239:107|206:103,1,65,2|0,2:0|3:0,2:0:0:0:
140,51,139232,1,2,2:0:0:0:
256,192,139490,12,2,141042,2:0:0:0:
424,13,142076,5,14,1:2:0:0:
512,164,142594,1,2,1:2:0:0:
512,164,142852,1,0,2:0:0:0:
445,216,143111,2,0,B|414:225|414:225|376:215,1,65,10|2,1:2|2:0,2:0:0:0:
302,189,143628,2,0,B|294:158|294:158|303:127,2,65,2|2|10,1:2|2:0|1:2,2:0:0:0:
318,272,144404,2,0,B|327:303|327:303|317:341,1,65,2|0,2:0|1:0,2:0:0:0:
159,384,145180,5,10,1:2:0:0:
159,384,145438,1,2,2:0:0:0:
90,335,145697,2,0,P|81:304|92:270,1,65,2|2,1:2|2:0,2:0:0:0:
146,209,146214,2,0,P|154:178|143:144,1,65,10|2,1:2|2:0,2:0:0:0:
107,71,146732,2,0,P|100:39|111:9,2,65,2|2|10,1:2|2:0|1:2,2:0:0:0:
270,28,147766,6,0,P|301:31|336:38,1,65,2|2,1:2|2:0,2:0:0:0:
385,105,148283,2,0,P|413:101|450:99,1,65,10|2,1:2|2:0,2:0:0:0:
512,41,148801,1,0,1:0:0:0:
469,204,149318,2,0,P|458:239|449:278,1,65,10|2,1:2|2:0,2:0:0:0:
482,346,149835,1,2,1:2:0:0:
339,255,150352,6,0,B|305:251|305:251|271:267,1,65,14|2,1:2|2:0,2:0:0:0:
202,305,150870,2,0,B|171:314|171:314|136:302,1,65,2|2,1:2|2:0,2:0:0:0:
60,276,151387,1,8,1:2:0:0:
102,112,151904,2,0,B|134:103|134:103|171:114,1,65,2|2,1:2|2:0,2:0:0:0:
234,160,152421,2,0,B|266:169|266:169|303:158,1,65,10|2,1:2|2:0,2:0:0:0:
375,130,152938,2,0,B|407:121|407:121|444:132,2,65,2|2|10,1:2|2:0|1:2,2:0:0:0:
314,290,153973,5,2,1:2:0:0:
314,290,154232,1,2,1:2:0:0:
242,256,154490,1,10,1:2:0:0:
242,256,154749,1,2,1:2:0:0:
165,291,155007,2,0,P|155:259|140:224,1,65,2|2,1:2|1:2,2:0:0:0:
64,198,155525,2,0,P|68:162|74:130,1,65,8|2,1:2|1:2,2:0:0:0:
119,62,156042,5,2,1:2:0:0:
230,1,156430,1,0,1:0:0:0:
331,77,156818,1,2,1:2:0:0:
209,193,157335,1,2,1:2:0:0:
209,193,157594,1,0,1:0:0:0:
431,274,159663,5,12,1:2:0:0:
431,274,159921,1,2,2:0:0:0:
367,219,160180,2,0,P|335:212|300:222,1,65,2|2,1:2|2:0,2:0:0:0:
238,272,160697,2,0,P|206:280|171:270,1,65,10|2,1:2|2:0,2:0:0:0:
99,236,161214,1,2,1:2:0:0:
207,106,161732,1,8,1:2:0:0:
59,6,162249,5,2,1:2:0:0:
7,169,162766,1,10,1:2:0:0:
7,169,163025,1,2,2:0:0:0:
67,228,163283,2,0,P|98:221|128:208,1,65,2|0,1:2|2:0,2:0:0:0:
267,112,164059,5,2,2:0:0:0:
337,159,164318,2,0,B|345:189|345:189|336:223,1,65,2|2,1:2|2:0,2:0:0:0:
266,269,164835,2,0,B|258:299|258:299|267:333,1,65,8|2,1:2|2:0,2:0:0:0:
333,384,165352,1,2,1:2:0:0:
432,247,165870,2,0,P|461:233|495:237,2,65,10|2|2,1:2|2:0|1:2,2:0:0:0:
292,152,166904,6,0,B|256:141|230:169|237:174|212:204|167:189,1,130,12|0,1:2|1:0,2:0:0:0:
29,115,167938,1,10,1:2:0:0:
29,115,168197,1,2,2:0:0:0:
74,43,168456,2,0,P|106:31|140:24,1,65,2|2,1:2|2:0,2:0:0:0:
207,71,168973,2,0,P|239:66|270:59,1,65,8|2,1:2|2:0,2:0:0:0:
338,8,169490,1,2,1:2:0:0:
496,67,170007,1,8,1:2:0:0:
460,232,170525,6,0,P|428:235|393:221,1,65,0|2,1:0|1:2,2:0:0:0:
343,159,171042,2,0,P|314:147|277:155,1,65,10|2,1:2|1:2,2:0:0:0:
232,221,171559,2,0,P|203:233|166:225,1,65,0|2,1:0|1:2,2:0:0:0:
118,161,172076,2,0,P|89:149|52:157,1,65,10|2,1:2|1:2,2:0:0:0:
0,218,172594,5,2,1:2:0:0:
96,301,172982,1,2,1:2:0:0:
0,384,173370,1,2,1:2:0:0:
0,218,173887,1,2,1:2:0:0:
0,218,174145,1,2,1:2:0:0:
104,84,174663,5,4,1:2:0:0:
235,190,175180,2,0,P|266:183|296:170,1,65,10|2,1:2|2:0,2:0:0:0:
358,112,175697,1,2,1:2:0:0:
475,160,176085,1,2,2:0:0:0:
505,283,176473,2,0,P|490:314|484:349,1,65,2|0,2:0|1:0,2:0:0:0:
407,379,176990,2,0,P|375:371|338:367,1,65,2|8,2:0|1:2,2:0:0:0:
275,317,177507,2,0,P|243:321|207:331,1,65,2|0,2:0|1:0,2:0:0:0:
137,367,178025,1,2,2:0:0:0:
137,367,178283,2,0,P|121:308|92:241,1,130,10|0,1:2|1:0,2:0:0:0:
34,86,179318,6,0,P|67:76|101:64,1,65,10|2,1:2|2:0,2:0:0:0:
157,8,179835,1,2,1:2:0:0:
261,80,180223,1,2,2:0:0:0:
381,39,180611,2,0,P|394:71|401:103,1,65,2|0,2:0|1:0,2:0:0:0:
349,168,181128,2,0,P|340:196|336:233,1,65,2|8,2:0|1:2,2:0:0:0:
371,314,181645,1,2,2:0:0:0:
371,314,181904,2,0,P|403:323|439:313,1,65,2|0,1:2|2:0,2:0:0:0:
496,259,182421,2,0,P|505:230|497:191,1,65,8|2,1:2|2:0,2:0:0:0:
457,123,182938,5,6,1:2:0:0:
322,225,183456,2,0,P|289:228|257:234,1,65,10|2,1:2|2:0,2:0:0:0:
178,206,183973,1,2,1:2:0:0:
65,264,184361,1,2,2:0:0:0:
9,149,184749,2,0,P|13:120|20:83,1,65,2|0,2:0|1:0,2:0:0:0:
72,18,185266,2,0,P|101:23|134:31,1,65,2|8,2:0|1:2,2:0:0:0:
195,92,185783,2,0,P|225:85|263:78,1,65,2|0,2:0|1:0,2:0:0:0:
324,25,186301,1,2,2:0:0:0:
324,25,186559,2,0,P|347:82|314:147,1,130,10|0,1:2|1:0,2:0:0:0:
183,240,187594,6,0,B|152:230|152:230|107:241,1,65,10|2,1:2|2:0,2:0:0:0:
45,277,188111,1,2,1:2:0:0:
137,363,188499,1,2,2:0:0:0:
249,304,188887,2,0,B|280:295|280:295|317:305,1,65,2|0,2:0|1:0,2:0:0:0:
386,342,189404,2,0,B|417:351|417:351|454:341,1,65,2|8,2:0|1:2,2:0:0:0:
512,286,189921,1,2,2:0:0:0:
512,286,190180,1,2,1:2:0:0:
435,185,190568,1,2,1:2:0:0:
512,84,190956,1,6,1:2:0:0:
