osu file format v14

[General]
AudioFilename: audio.mp3
AudioLeadIn: 0
PreviewTime: 42101
Countdown: 0
SampleSet: Drum
StackLeniency: 0.5
Mode: 0
LetterboxInBreaks: 0
WidescreenStoryboard: 0

[Editor]
Bookmarks: 154695
DistanceSpacing: 1
BeatDivisor: 8
GridSize: 4
TimelineZoom: 2

[Metadata]
Title:Make you happy
TitleUnicode:Make you happy
Artist:NiziU
ArtistUnicode:NiziU
Creator:Sotarks
Version:Nostalgic Happiness
Source:Nizi Project
Tags:basensorex kowari smokelind jype jyp entertainment 虹U ニジユ mako 真子 マコ rio 梨緒 リオ maya まや マヤ riku 陸 ayaka あやか アヤカ mayuka まゆか マユカ rima りま リマ miihi みいひ ミイヒ nina 仁菜 ニナ sony music girls japanese female band vocalists jpop j-pop rap pop pre-debut mini album リク ニジュー
BeatmapID:2508711
BeatmapSetID:1204806

[Difficulty]
HPDrainRate:5.2
CircleSize:4
OverallDifficulty:8.7
ApproachRate:9
SliderMultiplier:1.72
SliderTickRate:1

[Events]
//Background and Video events
0,0,"bg.jpg",0,0
//Break Periods
//Storyboard Layer 0 (Background)
//Storyboard Layer 1 (Fail)
//Storyboard Layer 2 (Pass)
//Storyboard Layer 3 (Foreground)
//Storyboard Layer 4 (Overlay)
//Storyboard Sound Samples

[TimingPoints]
195,375,4,2,22,52,1,0
195,-138.888888888889,4,2,22,52,0,0
1695,-108.695652173913,4,2,22,62,0,0
7695,-121.951219512195,4,2,22,72,0,0
31695,-161.290322580645,4,2,22,62,0,0
42195,-161.290322580645,4,2,22,72,0,0
43695,-98.0392156862745,4,2,22,82,0,1
62070,-81.9672131147541,4,2,22,82,0,1
63195,-98.0392156862745,4,2,22,82,0,1
63570,-81.9672131147541,4,2,22,82,0,1
63945,-98.0392156862745,4,2,22,82,0,1
67695,-98.0392156862745,4,2,22,52,0,0
69195,-121.951219512195,4,2,22,62,0,0
75195,-121.951219512195,4,3,22,62,0,0
81195,-121.951219512195,4,2,22,72,0,0
93195,-161.290322580645,4,2,22,62,0,0
103695,-161.290322580645,4,2,22,72,0,0
105195,-98.0392156862745,4,2,22,82,0,1
123570,-81.9672131147541,4,2,22,82,0,1
124695,-98.0392156862745,4,2,22,82,0,1
125070,-81.9672131147541,4,2,22,82,0,1
126195,-98.0392156862745,4,2,22,82,0,1
129195,-121.951219512195,4,2,22,72,0,0
153195,-138.888888888889,4,2,22,72,0,0
154695,-98.0392156862746,4,2,22,82,0,1
173070,-81.9672131147541,4,2,22,82,0,1
174195,-98.0392156862746,4,2,22,82,0,1
174570,-81.9672131147541,4,2,22,82,0,1
175695,-98.0392156862745,4,2,22,82,0,1
178695,-98.0392156862745,4,2,22,52,0,0

[Colours]
Combo1 : 247,149,203
Combo2 : 243,207,233
Combo3 : 164,221,242

[HitObjects]
83,235,195,6,0,P|149:245|227:256,1,123.840003023438,0|0,3:2|3:2,0:0:0:0:
343,176,757,2,0,L|347:145,3,20.6400005039063,0|0|0|8,3:0|2:0|3:0|0:0,0:0:0:0:
234,273,1132,1,8,0:3:0:0:
179,207,1320,1,0,3:0:0:0:
356,292,1507,1,8,0:3:0:0:
162,364,1695,6,0,P|154:303|147:258,1,79.1199973439942,6|0,1:2|0:2,0:0:0:0:
229,137,2070,1,10,0:2:0:0:
62,324,2257,2,0,P|71:250|84:142,1,158.239994687988,0|0,1:2|0:2,0:0:0:0:
188,11,2820,1,10,0:2:0:0:
41,75,3007,1,0,1:2:0:0:
239,215,3195,6,0,P|234:175|228:136,1,79.1199973439942,0|0,1:2|0:2,0:0:0:0:
398,10,3570,2,0,P|388:88|377:172,1,158.239994687988,8|0,0:2|0:2,0:0:0:0:
446,337,4132,1,0,1:2:0:0:
293,288,4320,1,8,0:2:0:0:
466,193,4507,1,0,1:2:0:0:
308,379,4695,6,0,P|257:371|211:364,1,79.1199973439942,2|0,1:2|0:2,0:0:0:0:
99,246,5070,1,10,0:2:0:0:
366,238,5257,2,0,P|280:254|191:269,1,158.239994687988,0|0,1:2|0:2,0:0:0:0:
300,145,5820,1,8,0:2:0:0:
227,346,6007,1,0,1:2:0:0:
234,93,6195,5,6,1:3:0:0:
333,370,6382,1,8,1:2:0:0:
333,67,6570,1,8,1:2:0:0:
149,379,6757,1,8,1:2:0:0:
404,209,6945,1,8,1:3:0:0:
137,71,7132,1,4,1:3:0:0:
385,308,7320,1,8,1:2:0:0:
424,308,7413,1,8,1:3:0:0:
459,292,7507,1,8,1:3:0:0:
485,262,7601,1,4,1:3:0:0:
494,224,7695,6,0,P|492:156|431:101,1,141.0400021521,6|8,1:2|0:2,0:0:0:0:
252,151,8257,1,4,1:3:0:0:
375,0,8445,1,2,0:2:0:0:
375,0,8820,5,8,0:2:0:0:
311,220,9007,1,2,1:2:0:0:
151,51,9195,2,0,P|104:62|59:72,1,70.5200010760498,6|0,1:3|0:2,0:0:0:0:
15,185,9570,2,0,P|62:196|107:206,1,70.5200010760498,10|0,0:2|0:2,0:0:0:0:
231,132,9945,1,2,3:2:0:0:
151,267,10132,1,4,1:3:0:0:
338,164,10320,1,10,0:2:0:0:
151,51,10507,1,0,1:2:0:0:
299,269,10695,6,0,P|379:258|464:245,1,141.0400021521,6|8,1:3|0:2,0:0:0:0:
321,77,11257,1,4,1:3:0:0:
181,229,11445,2,0,P|191:286|199:327,1,70.5200010760498,2|0,0:2|0:2,0:0:0:0:
338,164,11820,1,8,0:2:0:0:
174,84,12007,1,0,1:2:0:0:
299,269,12195,6,0,P|289:326|281:367,1,70.5200010760498,4|0,1:3|0:2,0:0:0:0:
41,250,12570,2,0,P|50:177|130:147,1,141.0400021521,8|0,0:2|0:2,0:0:0:0:
218,286,13132,1,4,1:3:0:0:
174,84,13320,1,8,1:2:0:0:
117,309,13507,1,4,1:3:0:0:
301,134,13695,6,0,B|346:116|376:145|363:152|396:176|456:155,1,141.0400021521,6|8,1:2|0:2,0:0:0:0:
281,231,14257,1,4,1:3:0:0:
440,60,14445,1,2,0:2:0:0:
440,60,14820,5,8,0:2:0:0:
393,279,15007,1,2,1:2:0:0:
228,108,15195,2,0,P|217:160|207:204,1,70.5200010760498,6|0,1:3|0:2,0:0:0:0:
402,193,15570,2,0,P|394:158|387:124,1,70.5200010760498,10|0,0:2|0:2,0:0:0:0:
163,265,15945,1,2,3:2:0:0:
318,185,16132,1,4,1:3:0:0:
148,89,16320,1,10,0:2:0:0:
300,277,16507,1,0,1:2:0:0:
88,189,16695,6,0,P|77:241|67:285,1,70.5200010760498,6|0,1:3|0:0,0:0:0:0:
293,105,17070,2,0,P|285:70|278:36,1,70.5200010760498,10|4,0:2|1:3,0:0:0:0:
204,183,17445,1,2,0:2:0:0:
380,83,17632,1,2,0:2:0:0:
190,0,17820,2,0,P|182:34|175:68,1,70.5200010760498,10|0,0:2|1:2,0:0:0:0:
331,255,18195,5,6,1:3:0:0:
269,97,18382,1,0,1:2:0:0:
269,97,18476,1,0,1:2:0:0:
269,97,18570,2,0,L|255:153,3,35.2600005380249,10|0|0|0,3:2|1:2|3:2|3:2,0:0:0:0:
173,195,18945,2,0,L|165:161,3,35.2600005380249,0|0|0|0,3:2|3:2|1:2|1:2,0:0:0:0:
88,89,19320,1,8,0:2:0:0:
197,296,19507,1,0,1:2:0:0:
349,69,19695,6,0,P|356:118|365:164,1,70.5200010760498,6|0,1:2|0:0,0:0:0:0:
299,279,20070,1,10,0:2:0:0:
448,202,20257,1,4,1:3:0:0:
277,35,20445,2,0,P|270:84|261:130,1,70.5200010760498,2|0,0:2|3:0,0:0:0:0:
327,245,20820,1,10,0:2:0:0:
178,168,21007,1,0,1:2:0:0:
349,69,21195,6,0,P|359:159|369:233,1,141.0400021521,6|8,1:3|0:2,0:0:0:0:
289,331,21757,1,2,0:2:0:0:
440,258,21945,1,2,3:2:0:0:
284,168,22132,1,6,1:3:0:0:
407,348,22320,1,10,0:2:0:0:
480,152,22507,1,0,1:2:0:0:
289,331,22695,6,0,P|232:323|192:318,1,70.5200010760498,6|0,1:3|0:0,0:0:0:0:
126,197,23070,1,10,0:2:0:0:
53,314,23257,1,4,1:3:0:0:
249,229,23445,2,0,P|239:168|234:135,1,70.5200010760498,2|0,0:2|0:2,0:0:0:0:
149,16,23820,1,10,0:2:0:0:
317,60,24007,1,0,1:2:0:0:
126,197,24195,6,0,P|136:136|141:103,1,70.5200010760498,6|0,1:3|0:2,0:0:0:0:
362,306,24570,2,0,B|317:288|287:317|300:324|267:348|207:327,1,141.0400021521,8|0,0:2|0:2,0:0:0:0:
400,379,25132,1,4,1:3:0:0:
202,257,25320,1,8,1:2:0:0:
393,157,25507,1,4,1:3:0:0:
203,357,25695,6,0,P|143:346|105:260,1,141.0400021521,6|8,1:2|0:2,0:0:0:0:
213,82,26257,1,4,1:3:0:0:
52,156,26445,1,2,0:2:0:0:
52,156,26820,5,8,0:2:0:0:
269,228,27007,1,2,1:2:0:0:
140,40,27195,2,0,P|134:86|128:129,1,70.5200010760498,6|0,1:3|0:2,0:0:0:0:
322,164,27570,2,0,P|317:129|312:94,1,70.5200010760498,10|0,0:2|0:2,0:0:0:0:
190,237,27945,1,2,3:2:0:0:
393,181,28132,1,4,1:3:0:0:
203,117,28320,1,10,0:2:0:0:
431,247,28507,1,0,1:2:0:0:
295,54,28695,6,0,P|290:88|285:123,1,70.5200010760498,6|0,1:3|0:0,0:0:0:0:
103,203,29070,2,0,P|98:168|93:133,1,70.5200010760498,10|4,0:2|1:3,0:0:0:0:
282,283,29445,2,0,P|342:293|376:299,1,70.5200010760498,2|0,0:2|0:2,0:0:0:0:
138,361,29820,2,0,P|78:371|44:377,1,70.5200010760498,10|0,0:2|1:2,0:0:0:0:
199,157,30195,2,0,P|203:191|208:226,1,70.5200010760498,6|0,1:3|0:0,0:0:0:0:
319,373,30570,1,10,0:2:0:0:
319,373,30945,5,4,1:3:0:0:
331,112,31132,1,4,1:3:0:0:
508,312,31320,1,10,1:2:0:0:
237,247,31507,1,8,1:3:0:0:
483,146,31695,6,0,P|480:187|478:215,1,53.3199978846436,2|0,3:2|0:2,0:0:0:0:
394,237,32070,2,0,P|392:210|390:183,1,53.3199978846436,2|0,3:2|0:2,0:0:0:0:
331,112,32445,1,2,3:2:0:0:
331,112,32632,1,2,0:2:0:0:
277,186,32820,2,0,P|234:191|207:194,1,53.3199978846436,2|0,3:2|0:2,0:0:0:0:
136,138,33195,1,2,3:2:0:0:
302,323,33570,1,0,3:2:0:0:
191,269,33945,1,2,3:2:0:0:
351,168,34320,1,2,3:2:0:0:
193,370,34695,6,0,P|157:366|128:362,1,53.3199978846436,2|0,3:2|0:2,0:0:0:0:
77,280,35070,2,0,P|113:276|142:272,1,53.3199978846436,2|0,3:2|0:2,0:0:0:0:
204,218,35445,1,2,3:2:0:0:
204,218,35632,1,2,0:2:0:0:
120,139,35820,2,0,P|116:174|111:207,1,53.3199978846436,2|0,3:2|0:2,0:0:0:0:
202,92,36195,1,2,3:2:0:0:
0,209,36570,1,0,3:2:0:0:
297,311,36945,1,2,3:2:0:0:
204,218,37132,1,2,3:2:0:0:
204,218,37226,1,0,3:2:0:0:
204,218,37320,2,0,P|200:256|197:287,1,53.3199978846436,2|0,3:2|0:2,0:0:0:0:
316,135,37695,6,0,P|348:129|386:122,1,53.3199978846436,2|0,3:2|0:2,0:0:0:0:
485,148,38070,1,2,3:2:0:0:
441,67,38257,1,0,0:2:0:0:
326,223,38445,2,0,P|294:217|256:210,1,53.3199978846436,0|0,3:2|0:2,0:0:0:0:
202,81,38820,2,0,P|234:75|272:68,1,53.3199978846436,2|0,3:2|0:2,0:0:0:0:
57,186,39195,6,0,P|61:156|66:115,1,53.3199978846436,2|0,3:2|0:2,0:0:0:0:
192,201,39570,2,0,P|188:227|185:253,1,53.3199978846436,2|0,3:2|0:2,0:0:0:0:
90,366,39945,2,0,P|116:361|142:356,1,53.3199978846436,0|0,3:2|3:2,0:0:0:0:
221,332,40226,1,0,3:2:0:0:
221,332,40320,2,0,P|217:358|214:384,1,53.3199978846436,2|0,3:2|0:2,0:0:0:0:
102,277,40695,1,2,3:2:0:0:
431,81,42195,5,2,3:2:0:0:
361,252,42382,1,0,0:2:0:0:
247,86,42570,1,2,3:2:0:0:
429,189,42757,2,0,L|459:197,3,17.7733326282145,0|0|0|8,3:0|3:0|0:0|0:0,0:0:0:0:
202,346,43132,1,8,0:3:0:0:
398,165,43320,1,2,3:2:0:0:
171,47,43507,1,10,0:3:0:0:
351,339,43695,6,0,P|357:285|364:218,1,87.7200005354004,6|0,1:2|0:2,0:0:0:0:
98,183,44070,2,0,P|102:226|107:270,1,87.7200005354004,10|4,0:2|1:3,0:0:0:0:
362,146,44445,1,2,0:2:0:0:
171,47,44632,1,2,3:2:0:0:
287,293,44820,1,10,1:2:0:0:
420,44,45007,1,0,1:2:0:0:
189,248,45195,6,0,B|243:227|303:203|303:203|330:222|358:243,1,175.440001070801,6|8,1:3|0:2,0:0:0:0:
188,79,45757,1,10,1:3:0:0:
287,293,45945,1,2,0:2:0:0:
401,80,46132,1,4,1:3:0:0:
189,248,46320,1,10,1:2:0:0:
434,355,46507,1,2,1:2:0:0:
327,124,46695,5,6,1:2:0:0:
327,124,47070,2,0,B|278:100|238:130|257:144|207:185|161:162,1,175.440001070801,10|0,0:2|0:2,0:0:0:0:
78,38,47632,1,0,3:2:0:0:
5,199,47820,1,8,1:2:0:0:
187,87,48007,6,0,P|179:43|172:1,1,87.7200005354004,6|0,1:3|1:2,0:0:0:0:
64,135,48382,1,2,0:2:0:0:
248,230,48570,1,8,0:2:0:0:
64,135,48757,2,0,P|56:178|49:221,1,87.7200005354004,8|0,1:3|0:2,0:0:0:0:
237,143,49132,1,6,1:3:0:0:
37,259,49320,1,10,1:2:0:0:
270,348,49507,1,2,1:2:0:0:
125,93,49695,6,0,P|60:107|32:112,1,87.7200005354004,6|0,1:2|0:2,0:0:0:0:
288,252,50070,2,0,P|244:243|202:234,1,87.7200005354004,10|4,0:2|1:3,0:0:0:0:
341,103,50445,1,2,0:2:0:0:
270,348,50632,1,2,3:2:0:0:
212,119,50820,1,10,1:2:0:0:
411,263,51007,1,0,1:2:0:0:
150,240,51195,6,0,P|171:189|298:186,1,175.440001070801,6|8,1:3|0:2,0:0:0:0:
168,343,51757,1,10,1:3:0:0:
212,119,51945,1,2,0:2:0:0:
322,284,52132,1,6,1:3:0:0:
181,53,52320,1,8,1:2:0:0:
100,264,52507,1,2,1:2:0:0:
234,1,52695,5,6,1:2:0:0:
72,163,52882,1,2,0:0:0:0:
322,88,53070,1,10,0:2:0:0:
110,18,53257,1,6,1:3:0:0:
310,203,53445,1,2,0:2:0:0:
181,53,53632,1,0,3:2:0:0:
299,299,53820,2,0,P|350:291|400:283,1,87.7200005354004,10|4,1:2|1:3,0:0:0:0:
117,97,54195,6,0,P|105:196|91:293,1,175.440001070801,2|10,1:2|3:2,0:0:0:0:
229,363,54757,2,0,L|223:327,2,29.2400001784668,0|0|0,3:0|0:0|0:0,0:0:0:0:
299,299,54945,1,8,3:2:0:0:
68,346,55132,1,8,2:3:0:0:
330,291,55320,1,10,2:0:0:0:
79,183,55507,1,10,2:3:0:0:
329,47,55695,6,0,P|335:90|342:133,1,87.7200005354004,6|0,1:2|0:2,0:0:0:0:
214,291,56070,1,10,0:2:0:0:
416,191,56257,1,4,1:3:0:0:
216,82,56445,2,0,P|209:125|202:168,1,87.7200005354004,2|0,0:2|3:2,0:0:0:0:
390,336,56820,1,10,1:2:0:0:
304,163,57007,1,0,1:2:0:0:
202,375,57195,6,0,P|158:368|106:358,1,87.7200005354004,6|0,1:3|0:0,0:0:0:0:
83,136,57570,1,10,0:2:0:0:
267,238,57757,1,8,1:3:0:0:
17,321,57945,2,0,P|23:277|30:234,1,87.7200005354004,2|4,0:2|1:3,0:0:0:0:
235,85,58320,1,10,1:2:0:0:
122,289,58507,1,0,1:2:0:0:
23,64,58695,6,0,P|73:54|126:43,1,87.7200005354004,6|0,1:2|0:0,0:0:0:0:
252,230,59070,2,0,P|208:221|166:212,1,87.7200005354004,10|4,0:2|1:3,0:0:0:0:
339,83,59445,1,2,0:2:0:0:
261,314,59632,1,2,3:2:0:0:
424,140,59820,6,0,P|430:183|436:226,1,87.7200005354004,10|4,1:2|1:3,0:0:0:0:
224,152,60195,2,0,P|258:125|292:97,1,87.7200005354004,2|0,1:2|0:2,0:0:0:0:
345,322,60570,2,0,P|304:305|263:289,1,87.7200005354004,10|8,0:2|1:3,0:0:0:0:
330,200,60945,1,0,0:2:0:0:
255,383,61132,1,6,1:3:0:0:
306,127,61320,1,10,1:2:0:0:
431,332,61507,1,2,1:2:0:0:
345,58,61695,6,0,P|278:50|221:121,1,131.580000803101,6|0,1:2|0:0,0:0:0:0:
137,173,62070,2,0,P|201:104|321:145,1,209.839991354859,10|0,0:2|0:2,0:0:0:0:
339,300,62632,1,2,3:2:0:0:
420,130,62820,1,10,1:2:0:0:
478,314,63007,1,2,1:2:0:0:
223,200,63195,6,0,P|216:265|207:335,1,131.580000803101,6|0,1:3|0:0,0:0:0:0:
320,379,63570,2,0,P|309:283|293:137,1,209.839991354859,10|0,0:2|0:2,0:0:0:0:
341,18,64132,1,6,1:3:0:0:
197,89,64320,1,10,1:2:0:0:
388,158,64507,1,0,1:2:0:0:
135,15,64695,6,0,B|108:40|85:58|85:58|111:118|131:194,1,175.440001070801,6|8,1:2|0:2,0:0:0:0:
376,256,65257,2,0,P|348:177|252:169,1,175.440001070801,4|2,1:3|3:2,0:0:0:0:
106,271,65820,1,10,1:2:0:0:
197,89,66007,1,4,1:3:0:0:
251,326,66195,6,0,B|207:304|160:337|179:352|130:383|84:361,1,175.440001070801,2|8,1:2|3:2,0:0:0:0:
127,146,66757,2,0,L|136:191,2,29.2400001784668,0|0|0,3:0|0:0|0:0,0:0:0:0:
184,241,66945,1,8,3:2:0:0:
114,54,67132,1,10,2:3:0:0:
106,271,67320,1,10,2:0:0:0:
191,29,67507,1,8,2:3:0:0:
258,277,67695,5,2,0:2:0:0:
254,276,69195,6,0,B|291:296|328:271|315:261|348:235|399:254,1,141.0400021521,2|0,1:2|0:2,0:0:0:0:
460,285,69757,1,0,1:2:0:0:
474,201,69945,2,0,P|395:210|326:217,1,141.0400021521,2|0,0:2|3:2,0:0:0:0:
269,165,70507,1,0,1:2:0:0:
174,207,70695,6,0,P|179:165|185:131,1,70.5200010760498,2|4,1:2|0:3,0:0:0:0:
269,61,71070,2,0,P|274:95|278:130,1,70.5200010760498,2|0,1:2|0:2,0:0:0:0:
168,103,71445,1,2,0:2:0:0:
269,165,71632,1,4,3:3:0:0:
168,103,71820,2,0,P|110:113|57:121,1,105.780001614075,10|0,3:3|0:2,0:0:0:0:
31,98,72195,6,0,P|-2:151|17:234,1,141.0400021521,2|0,1:2|0:2,0:0:0:0:
84,274,72757,1,0,1:2:0:0:
15,321,72945,2,0,B|52:301|89:326|76:336|109:362|160:343,1,141.0400021521,2|0,0:2|3:2,0:0:0:0:
220,284,73507,1,0,1:2:0:0:
282,352,73695,5,2,1:2:0:0:
282,352,73882,2,0,P|316:300|242:179,1,211.560003228149,2|0,3:2|0:2,0:0:0:0:
169,218,74632,1,0,1:2:0:0:
97,168,74820,2,0,L|90:138,6,17.6300002690125,0|0|0|0|0|0|0,1:2|3:2|3:2|3:2|1:2|3:2|3:0,0:0:0:0:
25,111,75195,6,0,P|94:121|184:134,1,141.0400021521,6|0,1:2|0:2,0:0:0:0:
295,119,75757,1,0,1:2:0:0:
239,58,75945,2,0,P|196:98|198:205,1,141.0400021521,2|0,0:2|0:2,0:0:0:0:
255,265,76507,1,0,1:2:0:0:
339,212,76695,6,0,P|292:220|255:226,1,70.5200010760498,2|0,1:2|0:2,0:0:0:0:
220,335,77070,2,0,P|185:329|150:323,1,70.5200010760498,2|0,0:2|0:2,0:0:0:0:
79,253,77445,1,2,0:2:0:0:
169,201,77632,1,0,0:2:0:0:
96,344,77820,1,2,1:2:0:0:
0,201,78007,1,0,1:2:0:0:
180,297,78195,6,0,P|186:246|189:216,1,70.5200010760498,2|0,1:2|0:2,0:0:0:0:
307,139,78570,2,0,P|310:174|314:209,1,70.5200010760498,2|0,0:2|1:2,0:0:0:0:
180,78,78945,1,2,0:2:0:0:
290,15,79132,1,2,0:2:0:0:
209,172,79320,2,0,P|160:164|116:156,1,70.5200010760498,2|0,0:2|1:2,0:0:0:0:
18,60,79695,5,2,1:2:0:0:
95,170,79882,2,0,P|87:225|81:262,1,70.5200010760498,0|2,1:2|0:2,0:0:0:0:
79,342,80257,2,0,P|73:307|68:272,1,70.5200010760498,0|0,1:2|0:2,0:0:0:0:
0,343,80632,1,0,1:2:0:0:
147,266,80820,2,0,L|151:294,6,17.6300002690125,0|0|0|0|0|0|0,1:2|0:2|0:2|3:2|1:2|3:2|3:0,0:0:0:0:
229,318,81195,6,0,P|223:283|218:248,1,70.5200010760498,6|0,1:2|0:0,0:0:0:0:
264,111,81570,1,10,0:2:0:0:
115,188,81757,1,4,1:3:0:0:
310,352,81945,2,0,P|315:317|320:282,1,70.5200010760498,2|0,0:2|3:0,0:0:0:0:
207,169,82320,1,10,0:2:0:0:
376,222,82507,1,0,1:2:0:0:
204,333,82695,6,0,P|125:320|36:306,1,141.0400021521,6|8,1:3|0:2,0:0:0:0:
207,169,83257,1,2,0:2:0:0:
90,80,83445,1,2,3:2:0:0:
197,250,83632,1,6,1:3:0:0:
259,69,83820,1,10,0:2:0:0:
79,213,84007,1,0,1:2:0:0:
259,69,84195,6,0,P|316:77|356:82,1,70.5200010760498,6|0,1:3|0:0,0:0:0:0:
447,204,84570,2,0,P|412:209|377:213,1,70.5200010760498,10|4,0:2|1:3,0:0:0:0:
437,99,84945,1,2,0:2:0:0:
369,299,85132,1,0,0:2:0:0:
263,116,85320,2,0,P|257:150|251:185,1,70.5200010760498,10|0,0:2|1:2,0:0:0:0:
463,255,85695,6,0,P|457:220|451:185,1,70.5200010760498,6|0,1:3|0:2,0:0:0:0:
272,308,86070,2,0,B|235:292|202:316|215:323|185:352|140:334,1,141.0400021521,8|0,0:2|0:2,0:0:0:0:
141,82,86632,1,4,1:3:0:0:
50,316,86820,1,8,1:2:0:0:
223,150,87007,1,4,1:3:0:0:
314,378,87195,6,0,P|357:348|349:243,1,141.0400021521,6|8,1:2|0:2,0:0:0:0:
223,150,87757,1,4,1:3:0:0:
430,199,87945,1,2,0:2:0:0:
430,199,88320,5,8,0:2:0:0:
211,269,88507,1,2,1:2:0:0:
442,353,88695,2,0,P|448:307|454:264,1,70.5200010760498,6|0,1:3|0:2,0:0:0:0:
291,215,89070,2,0,P|296:250|301:285,1,70.5200010760498,10|0,0:2|0:2,0:0:0:0:
363,131,89445,1,2,3:2:0:0:
165,202,89632,1,4,1:3:0:0:
341,304,89820,1,10,0:2:0:0:
248,120,90007,1,0,1:2:0:0:
200,338,90195,6,0,P|205:304|210:269,1,70.5200010760498,6|0,1:3|0:0,0:0:0:0:
58,185,90570,2,0,P|63:220|68:255,1,70.5200010760498,10|4,0:2|1:3,0:0:0:0:
212,105,90945,1,2,0:2:0:0:
56,35,91132,1,0,0:2:0:0:
165,202,91320,2,0,P|213:192|250:185,1,70.5200010760498,10|0,0:2|1:2,0:0:0:0:
277,38,91695,2,0,P|242:30|207:23,1,70.5200010760498,6|0,1:3|0:0,0:0:0:0:
338,194,92070,1,10,0:2:0:0:
338,194,92445,5,4,1:3:0:0:
123,108,92632,1,4,1:3:0:0:
244,339,92820,1,10,1:2:0:0:
344,88,93007,1,8,1:3:0:0:
142,239,93195,6,0,P|145:198|147:170,1,53.3199978846436,2|0,3:2|0:2,0:0:0:0:
245,204,93570,2,0,P|243:177|241:150,1,53.3199978846436,2|0,3:2|0:2,0:0:0:0:
328,266,93945,1,2,3:2:0:0:
328,266,94132,1,2,0:2:0:0:
374,177,94320,2,0,P|400:173|426:170,1,53.3199978846436,2|0,3:2|0:2,0:0:0:0:
500,246,94695,1,2,3:2:0:0:
306,21,95070,1,0,3:2:0:0:
454,136,95445,1,2,3:2:0:0:
217,217,95820,1,2,3:2:0:0:
306,21,96195,6,0,P|342:25|371:29,1,53.3199978846436,2|0,3:2|0:2,0:0:0:0:
435,108,96570,2,0,P|399:112|370:116,1,53.3199978846436,2|0,3:2|0:2,0:0:0:0:
308,170,96945,1,2,3:2:0:0:
308,170,97132,1,2,0:2:0:0:
220,99,97320,2,0,P|216:125|213:151,1,53.3199978846436,2|0,3:2|0:2,0:0:0:0:
327,252,97695,1,2,3:2:0:0:
118,98,98070,1,0,3:2:0:0:
91,349,98445,1,2,3:2:0:0:
196,253,98632,1,2,3:2:0:0:
196,253,98726,1,0,3:2:0:0:
196,253,98820,2,0,P|200:215|203:184,1,53.3199978846436,2|0,3:2|0:2,0:0:0:0:
283,308,99195,6,0,P|309:303|335:298,1,53.3199978846436,2|0,3:2|0:2,0:0:0:0:
448,275,99570,1,2,3:2:0:0:
404,356,99757,1,0,0:2:0:0:
372,218,99945,2,0,P|345:213|319:208,1,53.3199978846436,0|0,3:2|0:2,0:0:0:0:
259,124,100320,2,0,P|285:119|311:114,1,53.3199978846436,2|0,3:2|0:2,0:0:0:0:
219,224,100695,6,0,P|215:254|210:295,1,53.3199978846436,2|0,3:2|0:2,0:0:0:0:
103,236,101070,2,0,P|107:210|110:184,1,53.3199978846436,2|0,3:2|0:2,0:0:0:0:
111,335,101445,2,0,P|85:340|59:345,1,53.3199978846436,0|0,3:2|3:2,0:0:0:0:
0,303,101726,1,0,3:2:0:0:
0,303,101820,2,0,P|4:277|7:251,1,53.3199978846436,2|0,3:2|0:2,0:0:0:0:
20,153,102195,1,2,3:2:0:0:
106,319,103695,5,2,3:2:0:0:
187,110,103882,1,0,0:2:0:0:
285,306,104070,1,2,3:2:0:0:
109,72,104257,2,0,L|105:48,3,17.7733326282145,0|0|0|8,3:2|3:2|3:2|3:2,3:2:0:0:
345,167,104632,1,8,0:3:0:0:
106,319,104820,1,2,3:2:0:0:
345,207,105007,1,10,0:3:0:0:
187,110,105195,6,0,P|181:164|174:231,1,87.7200005354004,6|0,1:2|0:2,0:0:0:0:
433,254,105570,2,0,P|429:211|424:167,1,87.7200005354004,10|4,0:2|1:3,0:0:0:0:
230,280,105945,1,2,0:2:0:0:
410,384,106132,1,2,3:2:0:0:
306,128,106320,1,10,1:2:0:0:
142,352,106507,1,0,1:2:0:0:
397,190,106695,6,0,B|352:154|309:167|309:167|275:206|228:196,1,175.440001070801,6|8,1:3|0:2,0:0:0:0:
335,311,107257,1,10,1:3:0:0:
231,93,107445,1,2,0:2:0:0:
113,305,107632,1,4,1:3:0:0:
306,128,107820,1,10,1:2:0:0:
194,372,108007,1,2,1:2:0:0:
114,115,108195,5,6,1:2:0:0:
114,115,108570,2,0,P|70:167|105:279,1,175.440001070801,10|0,0:2|0:2,0:0:0:0:
283,347,109132,1,0,3:2:0:0:
186,191,109320,1,8,1:2:0:0:
123,359,109507,6,0,P|72:352|17:344,1,87.7200005354004,6|0,1:3|1:2,0:0:0:0:
205,272,109882,1,2,0:2:0:0:
28,175,110070,1,8,0:2:0:0:
205,272,110257,2,0,P|256:265|311:257,1,87.7200005354004,8|0,1:3|0:2,0:0:0:0:
137,96,110632,1,6,1:3:0:0:
383,185,110820,1,10,1:2:0:0:
315,9,111007,1,2,1:2:0:0:
149,214,111195,6,0,P|154:140|156:111,1,87.7200005354004,6|0,1:2|0:2,0:0:0:0:
344,250,111570,2,0,P|339:176|337:147,1,87.7200005354004,10|4,0:2|1:3,0:0:0:0:
209,321,111945,1,2,0:2:0:0:
289,95,112132,1,2,3:2:0:0:
366,326,112320,1,10,1:2:0:0:
227,156,112507,1,0,1:2:0:0:
144,384,112695,6,0,B|200:361|252:338|252:338|279:357|311:380,1,175.440001070801,6|8,1:3|0:2,0:0:0:0:
119,121,113257,1,10,1:3:0:0:
312,279,113445,1,2,0:2:0:0:
95,216,113632,1,6,1:3:0:0:
333,99,113820,1,8,1:2:0:0:
115,204,114007,1,2,1:2:0:0:
339,352,114195,5,6,1:2:0:0:
252,98,114382,1,2,0:0:0:0:
148,348,114570,1,10,0:2:0:0:
389,191,114757,1,6,1:3:0:0:
124,134,114945,1,2,0:2:0:0:
322,333,115132,1,0,3:2:0:0:
229,77,115320,2,0,P|220:137|211:194,1,87.7200005354004,10|4,1:2|1:3,0:0:0:0:
437,290,115695,6,0,P|427:195|416:96,1,175.440001070801,2|10,1:2|3:2,0:0:0:0:
245,266,116257,2,0,L|211:261,2,29.2400001784668,0|0|0,3:0|0:0|0:0,0:0:0:0:
307,215,116445,1,8,3:2:0:0:
81,299,116632,1,8,2:3:0:0:
247,121,116820,1,10,2:0:0:0:
315,367,117007,1,10,2:3:0:0:
136,132,117195,6,0,P|128:175|122:218,1,87.7200005354004,6|0,1:2|0:2,0:0:0:0:
247,121,117570,1,10,0:2:0:0:
84,44,117757,1,4,1:3:0:0:
213,216,117945,2,0,P|275:206|314:198,1,87.7200005354004,2|0,0:2|3:2,0:0:0:0:
455,97,118320,1,10,1:2:0:0:
378,274,118507,1,0,1:2:0:0:
271,35,118695,6,0,P|227:42|175:52,1,87.7200005354004,6|0,1:3|0:0,0:0:0:0:
20,188,119070,1,10,0:2:0:0:
97,11,119257,1,8,1:3:0:0:
213,216,119445,2,0,P|219:260|226:303,1,87.7200005354004,2|4,0:2|1:3,0:0:0:0:
312,143,119820,1,10,1:2:0:0:
121,273,120007,1,0,1:2:0:0:
313,378,120195,6,0,P|355:369|398:360,1,87.7200005354004,6|0,1:2|0:0,0:0:0:0:
428,187,120570,2,0,P|385:177|342:169,1,87.7200005354004,10|4,0:2|1:3,0:0:0:0:
191,342,120945,1,2,0:2:0:0:
360,269,121132,1,2,3:2:0:0:
112,160,121320,6,0,P|106:203|100:246,1,87.7200005354004,10|4,1:2|1:3,0:0:0:0:
312,172,121695,2,0,P|278:145|244:117,1,87.7200005354004,2|0,1:2|0:2,0:0:0:0:
191,342,122070,2,0,P|232:325|273:309,1,87.7200005354004,10|8,0:2|1:3,0:0:0:0:
206,220,122445,1,0,0:2:0:0:
380,279,122632,1,6,1:3:0:0:
178,231,122820,1,10,1:2:0:0:
402,164,123007,1,2,1:2:0:0:
114,291,123195,6,0,P|90:247|119:163,1,131.580000803101,6|0,1:2|0:0,0:0:0:0:
236,75,123570,2,0,P|173:105|192:242,1,209.839991354859,10|0,0:2|0:2,0:0:0:0:
332,343,124132,1,2,3:2:0:0:
249,159,124320,1,10,1:2:0:0:
175,377,124507,1,2,1:2:0:0:
333,119,124695,6,0,P|324:184|317:249,1,131.580000803101,6|0,1:3|0:0,0:0:0:0:
276,366,125070,2,0,P|263:268|248:158,1,209.839991354859,10|0,0:2|0:2,0:0:0:0:
332,26,125632,1,6,1:3:0:0:
164,100,125820,1,10,1:2:0:0:
361,213,126007,1,0,1:2:0:0:
85,26,126195,6,0,P|75:122|65:210,1,175.440001070801,6|8,1:2|0:2,0:0:0:0:
308,290,126757,2,0,P|324:226|260:142,1,175.440001070801,4|2,1:3|3:2,0:0:0:0:
93,304,127320,1,10,1:2:0:0:
164,100,127507,1,4,1:3:0:0:
280,373,127695,6,0,B|324:395|371:362|352:347|401:316|447:338,1,175.440001070801,2|8,1:2|3:2,0:0:0:0:
219,247,128257,2,0,L|210:202,2,29.2400001784668,0|0|0,3:0|0:0|0:0,0:0:0:0:
289,177,128445,1,8,3:2:0:0:
145,332,128632,1,10,2:3:0:0:
173,99,128820,1,10,2:0:0:0:
305,292,129007,1,8,2:3:0:0:
66,206,129195,6,0,B|60:254|54:303,1,70.5200010760498,4|2,1:2|0:0,0:0:0:0:
219,247,129570,2,0,B|216:225|210:177,1,70.5200010760498,2|2,3:2|0:2,0:0:0:0:
145,332,129945,1,2,0:2:0:0:
293,57,130320,5,2,0:2:0:0:
388,233,130507,1,4,1:3:0:0:
216,127,130695,2,0,P|173:137|138:144,1,70.5200010760498,0|2,1:2|0:2,0:0:0:0:
58,270,131070,2,0,P|92:278|126:285,1,70.5200010760498,2|2,3:2|0:2,0:0:0:0:
48,144,131445,1,2,0:2:0:0:
140,355,131632,1,4,1:3:0:0:
128,183,131820,1,2,1:2:0:0:
128,183,132195,5,6,1:3:0:0:
39,362,132382,1,2,0:2:0:0:
209,275,132570,1,2,3:2:0:0:
11,240,132757,1,2,0:2:0:0:
140,355,132945,2,0,P|195:346|229:342,1,70.5200010760498,2|0,0:2|0:2,0:0:0:0:
266,101,133320,1,2,3:2:0:0:
266,101,133695,5,2,0:2:0:0:
360,263,133882,1,2,0:2:0:0:
451,97,134070,1,6,1:3:0:0:
354,163,134257,1,2,0:2:0:0:
354,163,134351,1,2,0:2:0:0:
354,163,134445,1,2,0:2:0:0:
491,270,134632,2,0,P|486:221|481:176,1,70.5200010760498,6|0,1:3|3:2,0:0:0:0:
192,345,135195,6,0,P|153:339|111:332,1,70.5200010760498,4|2,1:2|0:0,0:0:0:0:
75,212,135570,2,0,P|109:206|144:200,1,70.5200010760498,2|2,3:2|0:2,0:0:0:0:
9,338,135945,1,2,0:2:0:0:
9,338,136320,1,2,0:2:0:0:
105,125,136507,1,4,1:3:0:0:
213,339,136695,6,0,P|219:290|223:257,1,70.5200010760498,0|2,1:2|0:2,0:0:0:0:
332,210,137070,2,0,P|336:245|340:280,1,70.5200010760498,2|2,3:2|0:2,0:0:0:0:
207,169,137445,1,2,0:2:0:0:
360,83,137632,1,4,1:3:0:0:
183,250,137820,1,2,1:2:0:0:
183,250,138195,5,6,1:3:0:0:
231,90,138382,1,2,0:2:0:0:
254,293,138570,1,2,3:2:0:0:
156,118,138757,1,2,0:2:0:0:
128,317,138945,2,0,P|91:309|53:301,1,70.5200010760498,2|0,0:2|0:2,0:0:0:0:
225,177,139320,1,2,3:2:0:0:
225,177,139695,5,2,0:2:0:0:
280,377,139882,1,2,0:2:0:0:
408,200,140070,1,6,1:3:0:0:
294,269,140257,1,2,0:2:0:0:
294,269,140351,1,2,0:2:0:0:
294,269,140445,1,2,0:2:0:0:
441,350,140632,2,0,P|435:312|429:273,1,70.5200010760498,6|0,1:3|3:2,0:0:0:0:
171,37,141195,6,0,L|163:75,1,35.2600005380249,6|0,1:2|0:0,0:0:0:0:
288,125,141382,1,2,0:0:0:0:
288,125,141476,1,2,0:0:0:0:
288,125,141570,2,0,L|280:90,1,35.2600005380249,0|0,3:2|0:0,0:0:0:0:
147,172,141757,1,2,0:2:0:0:
282,282,141945,2,0,P|321:273|359:266,1,70.5200010760498,0|0,0:2|0:0,0:0:0:0:
413,234,142226,1,2,0:0:0:0:
413,234,142320,2,0,P|374:225|336:218,1,70.5200010760498,2|6,0:2|1:3,0:0:0:0:
198,319,142695,5,2,1:2:0:0:
187,285,142788,1,2,0:0:0:0:
192,251,142882,1,2,0:2:0:0:
211,222,142976,1,2,0:0:0:0:
230,191,143070,1,2,3:2:0:0:
236,158,143164,1,2,0:0:0:0:
225,124,143257,1,2,0:2:0:0:
282,282,143445,1,0,0:2:0:0:
147,172,143632,1,4,1:3:0:0:
119,339,143820,1,2,1:2:0:0:
119,339,144195,6,0,L|71:330,1,35.2600005380249,4|0,1:3|0:0,0:0:0:0:
50,242,144382,1,2,0:2:0:0:
50,242,144476,1,2,0:0:0:0:
50,242,144570,2,0,L|98:233,1,35.2600005380249,0|0,3:2|0:0,0:0:0:0:
191,263,144757,1,2,0:2:0:0:
64,47,144945,2,0,P|58:93|51:142,1,70.5200010760498,0|0,0:2|0:2,0:0:0:0:
108,170,145226,1,2,0:0:0:0:
108,170,145320,2,0,P|103:135|98:100,1,70.5200010760498,0|2,3:2|0:0,0:0:0:0:
287,26,145695,5,2,0:2:0:0:
298,60,145788,1,2,0:0:0:0:
293,94,145882,1,2,0:2:0:0:
274,123,145976,1,2,0:0:0:0:
255,154,146070,1,6,1:3:0:0:
249,187,146164,1,2,0:0:0:0:
260,221,146257,1,2,0:2:0:0:
203,63,146445,1,2,0:2:0:0:
338,173,146632,1,6,1:3:0:0:
157,245,146820,1,2,3:2:0:0:
293,94,147007,1,2,0:0:0:0:
328,301,147195,6,0,P|386:291|465:281,1,123.410001883087,6|2,1:2|0:0,0:0:0:0:
463,190,147616,1,2,0:2:0:0:
463,190,147710,2,0,P|405:199|376:204,1,70.5200010760498,2|0,0:0|0:0,0:0:0:0:
306,218,147945,2,0,P|312:179|320:118,1,70.5200010760498,2|0,0:2|0:0,0:0:0:0:
151,50,148320,1,2,0:2:0:0:
231,155,148507,1,6,1:3:0:0:
231,155,148601,1,0,3:0:0:0:
231,155,148695,6,0,P|157:144|110:137,1,105.780001614075,2|2,1:2|0:0,0:0:0:0:
82,159,149070,1,2,3:2:0:0:
287,75,149257,1,2,0:2:0:0:
154,280,149445,1,2,0:2:0:0:
151,50,149632,1,4,1:3:0:0:
314,222,149820,1,2,1:2:0:0:
314,222,149913,1,2,0:0:0:0:
314,222,150007,1,2,0:0:0:0:
82,159,150195,6,0,L|75:208,1,35.2600005380249,6|0,1:3|0:0,0:0:0:0:
63,287,150382,1,2,0:2:0:0:
204,200,150570,2,0,L|211:249,1,35.2600005380249,2|0,3:2|0:0,0:0:0:0:
223,328,150757,1,2,0:2:0:0:
351,122,150945,6,0,L|405:105,1,35.2600005380249,2|0,0:2|0:0,0:0:0:0:
314,222,151132,1,0,0:2:0:0:
184,89,151320,2,0,L|130:72,1,35.2600005380249,2|0,3:2|0:0,0:0:0:0:
204,200,151507,1,2,0:0:0:0:
319,46,151695,5,6,1:3:0:0:
124,177,151882,1,6,1:3:0:0:
265,114,152070,1,2,3:3:0:0:
78,21,152257,1,6,1:3:0:0:
204,200,152445,1,6,1:3:0:0:
204,200,153195,6,0,P|240:196|287:191,1,61.9200015117188,2|0,3:2|0:2,0:0:0:0:
320,342,153570,2,0,P|289:338|258:335,1,61.9200015117188,2|0,3:2|3:2,0:0:0:0:
321,112,153945,1,10,3:2:0:0:
168,283,154132,1,8,0:3:0:0:
267,45,154320,1,2,3:2:0:0:
374,275,154507,1,10,0:3:0:0:
161,88,154695,6,0,P|107:94|40:102,1,87.7200005354004,6|0,1:2|0:2,0:0:0:0:
0,290,155070,2,0,P|43:295|87:300,1,87.7200005354004,10|4,0:2|1:3,0:0:0:0:
293,193,155445,1,2,0:2:0:0:
164,373,155632,1,2,3:2:0:0:
253,124,155820,1,10,1:2:0:0:
324,373,156007,1,0,1:2:0:0:
311,73,156195,6,0,B|266:37|223:50|223:50|189:89|142:79,1,175.440001070801,6|8,1:3|0:2,0:0:0:0:
23,174,156757,1,10,1:3:0:0:
157,0,156945,1,2,0:2:0:0:
200,232,157132,1,4,1:3:0:0:
74,45,157320,1,10,1:2:0:0:
13,268,157507,1,2,1:2:0:0:
152,80,157695,5,6,1:2:0:0:
152,80,158070,2,0,B|213:62|248:94|229:103|266:134|324:116,1,175.440001070801,10|0,0:2|0:2,0:0:0:0:
465,80,158632,1,0,3:2:0:0:
302,0,158820,1,8,1:2:0:0:
421,196,159007,6,0,P|428:144|434:98,1,87.7200005354004,6|0,1:3|1:2,0:0:0:0:
192,171,159382,1,2,0:2:0:0:
343,95,159570,1,8,0:2:0:0:
192,171,159757,2,0,P|185:119|179:73,1,87.7200005354004,8|0,1:3|0:2,0:0:0:0:
313,208,160132,1,6,1:3:0:0:
94,121,160320,1,10,1:2:0:0:
276,17,160507,1,2,1:2:0:0:
119,246,160695,6,0,P|66:236|24:229,1,87.7200005354004,6|0,1:2|0:2,0:0:0:0:
283,299,161070,2,0,P|326:290|369:283,1,87.7200005354004,10|4,0:2|1:3,0:0:0:0:
245,139,161445,1,2,0:2:0:0:
189,340,161632,1,2,3:2:0:0:
379,207,161820,1,10,1:2:0:0:
201,261,162007,1,0,1:2:0:0:
408,122,162195,6,0,P|419:198|435:304,1,175.440001070801,6|8,1:3|0:2,0:0:0:0:
245,139,162757,1,10,1:3:0:0:
330,325,162945,1,2,0:2:0:0:
130,227,163132,1,6,1:3:0:0:
386,229,163320,1,8,1:2:0:0:
148,209,163507,1,2,1:2:0:0:
343,343,163695,5,6,1:2:0:0:
235,121,163882,1,2,0:0:0:0:
154,354,164070,1,10,0:2:0:0:
226,102,164257,1,6,1:3:0:0:
330,325,164445,1,2,0:2:0:0:
129,195,164632,1,0,3:2:0:0:
372,131,164820,2,0,P|367:203|364:243,1,87.7200005354004,10|4,1:2|1:3,0:0:0:0:
112,283,165195,6,0,P|102:188|91:89,1,175.440001070801,2|10,1:2|3:2,0:0:0:0:
233,265,165757,2,0,L|226:301,2,29.2400001784668,0|0|0,3:0|0:0|0:0,0:0:0:0:
198,199,165945,1,8,3:2:0:0:
272,373,166132,1,8,2:3:0:0:
236,134,166320,1,10,2:0:0:0:
144,382,166507,1,10,2:3:0:0:
184,84,166695,6,0,P|176:131|170:170,1,87.7200005354004,6|0,1:2|0:2,0:0:0:0:
263,340,167070,1,10,0:2:0:0:
89,269,167257,1,4,1:3:0:0:
268,161,167445,2,0,P|276:212|282:247,1,87.7200005354004,2|0,0:2|3:2,0:0:0:0:
443,96,167820,1,10,1:2:0:0:
366,273,168007,1,0,1:2:0:0:
184,84,168195,2,0,P|176:135|170:170,1,87.7200005354004,6|0,1:3|0:0,0:0:0:0:
13,22,168570,1,10,0:2:0:0:
91,233,168757,1,8,1:3:0:0:
278,32,168945,2,0,P|285:79|291:121,1,87.7200005354004,2|4,0:2|1:3,0:0:0:0:
449,0,169320,1,10,1:2:0:0:
368,188,169507,1,0,1:2:0:0:
184,84,169695,6,0,P|141:92|98:102,1,87.7200005354004,6|0,1:2|0:0,0:0:0:0:
0,261,170070,2,0,P|43:269|85:278,1,87.7200005354004,10|4,0:2|1:3,0:0:0:0:
259,243,170445,1,2,0:2:0:0:
100,159,170632,1,2,3:2:0:0:
240,354,170820,6,0,P|234:311|228:268,1,87.7200005354004,10|4,1:2|1:3,0:0:0:0:
382,208,171195,2,0,P|376:251|370:294,1,87.7200005354004,2|0,1:2|0:2,0:0:0:0:
205,341,171570,2,0,P|199:298|193:255,1,87.7200005354004,10|8,0:2|1:3,0:0:0:0:
257,103,171945,1,0,0:2:0:0:
118,174,172132,1,6,1:3:0:0:
345,127,172320,1,10,1:2:0:0:
136,67,172507,1,2,1:2:0:0:
373,217,172695,6,0,P|379:159|388:77,1,131.580000803101,6|0,1:2|0:0,0:0:0:0:
279,2,173070,2,0,P|292:125|304:225,1,209.839991354859,10|0,0:2|0:2,0:0:0:0:
155,304,173632,1,2,3:2:0:0:
255,113,173820,1,10,1:2:0:0:
310,334,174007,1,2,1:2:0:0:
143,117,174195,6,0,P|86:132|57:204,1,131.580000803101,6|0,1:3|0:0,0:0:0:0:
67,333,174570,2,0,P|76:222|195:225,1,209.839991354859,10|0,0:2|0:2,0:0:0:0:
332,292,175132,1,6,1:3:0:0:
231,89,175320,1,10,1:2:0:0:
135,287,175507,1,0,1:2:0:0:
351,40,175695,6,0,P|341:136|331:224,1,175.440001070801,6|8,1:2|0:2,0:0:0:0:
137,147,176257,2,0,P|121:83|185:-1,1,175.440001070801,4|2,1:3|3:2,0:0:0:0:
261,254,176820,1,10,1:2:0:0:
231,89,177007,1,4,1:3:0:0:
232,340,177195,6,0,B|276:362|323:329|304:314|353:283|399:305,1,175.440001070801,2|8,1:2|3:2,0:0:0:0:
170,248,177757,2,0,L|161:203,2,29.2400001784668,0|0|0,3:0|0:0|0:0,0:0:0:0:
224,175,177945,1,8,3:2:0:0:
136,338,178132,1,10,2:3:0:0:
172,114,178320,1,10,2:0:0:0:
232,340,178507,1,8,2:3:0:0:
210,50,178695,5,2,0:2:0:0:
