osu file format v14

[General]
AudioFilename: audio.mp3
AudioLeadIn: 0
PreviewTime: 46000
Countdown: 0
SampleSet: Drum
StackLeniency: 0.7
Mode: 3
LetterboxInBreaks: 0
SpecialStyle: 0
WidescreenStoryboard: 1

[Editor]
Bookmarks: 3400,9800,16200,22600,29000,35400,41800,46600,59400,72200,78600,85000
DistanceSpacing: 1
BeatDivisor: 4
GridSize: 32
TimelineZoom: 1.800001

[Metadata]
Title:Motto Amai Koigokoro
TitleUnicode:もっと甘い恋心
Artist:Niwasaka Rira (CV: Yumezuki Yami), Nishinomiya Richer (CV: Hanazawa Sakura)
ArtistUnicode:庭坂莉良 (CV: 夢月やみ)、汐ノ宮璃貝 (CV: 花澤さくら)
Creator:Muse Dash
Version:Madoka's Normal
Source:恋ニ、甘味ヲソエテ2
Tags:Dudehacker Drum-Hitnormal Madoka2574 canvas+garden Koi ni Kanmi wo Soete Love's Sweet Garnish 2 Visual Novel Eroge op opening short version video game Japanese pop jpop j-pop
BeatmapID:2577530
BeatmapSetID:1239258

[Difficulty]
HPDrainRate:7.5
CircleSize:4
OverallDifficulty:7.5
ApproachRate:5
SliderMultiplier:1.4
SliderTickRate:1

[Events]
//Background and Video events
0,0,"ve04_a.jpg",0,0
Video,-90,"op.flv"
//Break Periods
//Storyboard Layer 0 (Background)
//Storyboard Layer 1 (Fail)
//Storyboard Layer 2 (Pass)
//Storyboard Layer 3 (Foreground)
//Storyboard Layer 4 (Overlay)
//Storyboard Sound Samples

[TimingPoints]
200,400,4,3,1,75,1,0
46600,-100,4,3,1,75,0,1
72200,-100,4,3,1,75,0,0

[HitObjects]
448,192,200,128,0,1000:0:0:0:0:
64,192,1000,128,0,1800:0:0:0:0:
192,192,1800,128,0,2600:0:0:0:0:
448,192,2600,1,0,0:0:0:0:
320,192,2800,1,2,0:0:0:0:
64,192,3000,128,8,3400:0:0:0:0:
192,192,3000,128,0,3400:0:0:0:0:
320,192,3400,1,4,0:0:0:0:
448,192,3400,128,2,3600:0:0:0:0:
64,192,3800,128,2,4000:0:0:0:0:
192,192,3800,1,0,0:0:0:0:
448,192,4000,1,0,0:0:0:0:
320,192,4100,1,2,0:0:0:0:
192,192,4200,1,2,0:0:0:0:
448,192,4400,1,0,0:0:0:0:
64,192,4500,1,8,0:0:0:0:
320,192,4600,1,2,0:0:0:0:
192,192,4800,1,8,0:0:0:0:
448,192,4900,1,8,0:0:0:0:
64,192,5000,1,2,0:0:0:0:
320,192,5200,1,0,0:0:0:0:
64,192,5400,1,2,0:0:0:0:
192,192,5400,1,0,0:0:0:0:
448,192,5600,1,0,0:0:0:0:
192,192,5700,1,2,0:0:0:0:
448,192,5800,1,2,0:0:0:0:
64,192,6000,1,8,0:0:0:0:
192,192,6000,1,0,0:0:0:0:
320,192,6200,1,2,0:0:0:0:
448,192,6200,1,0,0:0:0:0:
192,192,6400,1,0,0:0:0:0:
320,192,6500,1,8,0:0:0:0:
64,192,6600,128,2,6800:0:0:0:0:
448,192,6600,1,0,0:0:0:0:
320,192,6800,1,0,0:0:0:0:
192,192,7000,1,2,0:0:0:0:
448,192,7000,128,0,7200:0:0:0:0:
64,192,7200,1,0,0:0:0:0:
320,192,7300,1,2,0:0:0:0:
192,192,7400,1,2,0:0:0:0:
448,192,7600,1,0,0:0:0:0:
64,192,7700,1,8,0:0:0:0:
320,192,7800,1,2,0:0:0:0:
192,192,8000,1,8,0:0:0:0:
448,192,8100,1,8,0:0:0:0:
64,192,8200,1,2,0:0:0:0:
320,192,8400,128,0,8600:0:0:0:0:
64,192,8600,128,2,8900:0:0:0:0:
192,192,8600,1,0,0:0:0:0:
448,192,8900,1,2,0:0:0:0:
192,192,9000,1,2,0:0:0:0:
320,192,9200,1,8,0:0:0:0:
64,192,9400,1,2,0:0:0:0:
192,192,9500,1,2,0:0:0:0:
320,192,9600,128,2,9800:0:0:0:0:
448,192,9600,128,4,9800:0:0:0:0:
64,192,10100,1,8,0:0:0:0:
448,192,10200,1,2,0:0:0:0:
192,192,10400,1,8,0:0:0:0:
320,192,10500,1,2,0:0:0:0:
64,192,10600,1,2,0:0:0:0:
448,192,10900,1,8,0:0:0:0:
192,192,11000,1,2,0:0:0:0:
320,192,11200,1,8,0:0:0:0:
64,192,11300,1,8,0:0:0:0:
448,192,11400,1,2,0:0:0:0:
64,192,11700,1,8,0:0:0:0:
320,192,11800,1,2,0:0:0:0:
192,192,12000,1,8,0:0:0:0:
448,192,12100,1,2,0:0:0:0:
64,192,12200,1,2,0:0:0:0:
320,192,12400,1,8,0:0:0:0:
64,192,12600,1,2,0:0:0:0:
448,192,12700,1,2,0:0:0:0:
192,192,12800,1,2,0:0:0:0:
320,192,13000,128,2,13600:0:0:0:0:
448,192,13000,1,4,0:0:0:0:
64,192,13400,1,8,0:0:0:0:
192,192,13600,1,2,0:0:0:0:
448,192,13600,128,4,14200:0:0:0:0:
192,192,14000,1,2,0:0:0:0:
64,192,14200,128,2,14800:0:0:0:0:
320,192,14200,1,4,0:0:0:0:
448,192,14600,1,2,0:0:0:0:
192,192,14800,1,8,0:0:0:0:
320,192,14800,128,4,16200:0:0:0:0:
64,192,16200,1,2,0:0:0:0:
448,192,16200,1,4,0:0:0:0:
192,192,16400,1,0,0:0:0:0:
320,192,16600,1,2,0:0:0:0:
448,192,16800,1,0,0:0:0:0:
192,192,17000,1,2,0:0:0:0:
320,192,17200,1,0,0:0:0:0:
64,192,17400,128,2,17600:0:0:0:0:
448,192,17600,128,0,17800:0:0:0:0:
192,192,17800,1,2,0:0:0:0:
320,192,18000,128,0,18200:0:0:0:0:
448,192,18200,1,2,0:0:0:0:
64,192,18400,128,0,18600:0:0:0:0:
320,192,18600,1,2,0:0:0:0:
192,192,18800,1,8,0:0:0:0:
64,192,19000,1,2,0:0:0:0:
448,192,19000,128,0,19400:0:0:0:0:
192,192,19400,1,2,0:0:0:0:
320,192,19400,1,0,0:0:0:0:
64,192,19600,1,0,0:0:0:0:
192,192,19800,1,2,0:0:0:0:
320,192,20000,1,0,0:0:0:0:
448,192,20200,1,2,0:0:0:0:
192,192,20400,1,0,0:0:0:0:
64,192,20600,1,2,0:0:0:0:
320,192,20800,128,0,21000:0:0:0:0:
192,192,21000,1,2,0:0:0:0:
448,192,21200,128,0,21400:0:0:0:0:
64,192,21400,128,2,21600:0:0:0:0:
320,192,21600,128,0,21800:0:0:0:0:
192,192,21800,1,2,0:0:0:0:
64,192,22000,1,8,0:0:0:0:
320,192,22200,1,2,0:0:0:0:
448,192,22400,1,2,0:0:0:0:
64,192,22600,1,2,0:0:0:0:
192,192,22600,1,4,0:0:0:0:
448,192,22900,1,8,0:0:0:0:
192,192,23000,1,2,0:0:0:0:
320,192,23200,1,8,0:0:0:0:
64,192,23300,1,2,0:0:0:0:
448,192,23400,1,2,0:0:0:0:
192,192,23700,1,8,0:0:0:0:
320,192,23800,1,2,0:0:0:0:
64,192,24000,1,8,0:0:0:0:
448,192,24100,1,8,0:0:0:0:
192,192,24200,1,2,0:0:0:0:
448,192,24500,1,8,0:0:0:0:
64,192,24600,1,2,0:0:0:0:
320,192,24800,1,8,0:0:0:0:
192,192,24900,1,2,0:0:0:0:
448,192,25000,1,2,0:0:0:0:
320,192,25200,1,8,0:0:0:0:
64,192,25400,128,2,25800:0:0:0:0:
192,192,25400,1,0,0:0:0:0:
320,192,25800,1,2,0:0:0:0:
448,192,25800,1,4,0:0:0:0:
192,192,26000,1,0,0:0:0:0:
192,192,26200,1,0,0:0:0:0:
320,192,26400,1,0,0:0:0:0:
448,192,26600,128,2,26800:0:0:0:0:
192,192,26800,128,0,27000:0:0:0:0:
320,192,27000,128,2,27200:0:0:0:0:
64,192,27200,1,2,0:0:0:0:
448,192,27200,1,0,0:0:0:0:
192,192,27600,1,0,0:0:0:0:
320,192,27800,1,2,0:0:0:0:
64,192,28000,1,0,0:0:0:0:
192,192,28100,1,2,0:0:0:0:
320,192,28200,1,2,0:0:0:0:
448,192,28400,1,8,0:0:0:0:
64,192,28600,1,2,0:0:0:0:
448,192,28800,1,2,0:0:0:0:
320,192,28900,1,8,0:0:0:0:
64,192,29000,128,2,30600:0:0:0:0:
192,192,29000,1,4,0:0:0:0:
320,192,29400,1,0,0:0:0:0:
448,192,29600,1,2,0:0:0:0:
320,192,29800,1,8,0:0:0:0:
448,192,30200,1,0,0:0:0:0:
192,192,30400,1,2,0:0:0:0:
320,192,30600,128,2,32200:0:0:0:0:
448,192,30600,1,0,0:0:0:0:
64,192,31000,1,2,0:0:0:0:
192,192,31200,1,2,0:0:0:0:
448,192,31400,1,8,0:0:0:0:
192,192,31800,1,2,0:0:0:0:
64,192,32200,1,2,0:0:0:0:
448,192,32200,128,0,33800:0:0:0:0:
320,192,32600,1,0,0:0:0:0:
64,192,33000,1,8,0:0:0:0:
192,192,33200,1,8,0:0:0:0:
320,192,33400,1,0,0:0:0:0:
64,192,33600,1,2,0:0:0:0:
192,192,33800,128,0,35400:0:0:0:0:
448,192,34200,1,2,0:0:0:0:
320,192,34400,1,2,0:0:0:0:
64,192,34600,1,8,0:0:0:0:
320,192,35000,128,0,35400:0:0:0:0:
64,192,35400,1,2,0:0:0:0:
448,192,35400,1,4,0:0:0:0:
320,192,35600,1,0,0:0:0:0:
192,192,35800,1,2,0:0:0:0:
448,192,36000,1,0,0:0:0:0:
64,192,36100,1,2,0:0:0:0:
320,192,36200,1,2,0:0:0:0:
192,192,36500,1,8,0:0:0:0:
448,192,36600,1,2,0:0:0:0:
64,192,36800,1,8,0:0:0:0:
320,192,36900,1,8,0:0:0:0:
192,192,37000,1,2,0:0:0:0:
448,192,37200,1,0,0:0:0:0:
192,192,37400,1,2,0:0:0:0:
320,192,37700,1,2,0:0:0:0:
64,192,37800,1,2,0:0:0:0:
448,192,38000,1,8,0:0:0:0:
320,192,38200,1,2,0:0:0:0:
192,192,38400,1,0,0:0:0:0:
320,192,38500,1,8,0:0:0:0:
64,192,38600,1,2,0:0:0:0:
448,192,38600,1,0,0:0:0:0:
448,192,39200,1,2,0:0:0:0:
64,192,39400,1,2,0:0:0:0:
192,192,39400,1,0,0:0:0:0:
64,192,40000,1,8,0:0:0:0:
320,192,40200,1,2,0:0:0:0:
448,192,40200,1,0,0:0:0:0:
192,192,40600,1,8,0:0:0:0:
64,192,40800,128,2,41200:0:0:0:0:
448,192,40800,1,4,0:0:0:0:
448,192,41200,1,8,0:0:0:0:
320,192,41300,1,8,0:0:0:0:
64,192,41400,1,8,0:0:0:0:
192,192,41600,1,2,0:0:0:0:
320,192,41800,1,8,0:0:0:0:
448,192,41800,1,0,0:0:0:0:
64,192,42000,1,2,0:0:0:0:
192,192,42200,1,8,0:0:0:0:
448,192,42200,1,0,0:0:0:0:
320,192,42400,1,2,0:0:0:0:
64,192,42600,1,8,0:0:0:0:
192,192,42600,1,0,0:0:0:0:
448,192,42800,1,2,0:0:0:0:
320,192,42900,1,8,0:0:0:0:
64,192,43000,1,8,0:0:0:0:
192,192,43000,1,0,0:0:0:0:
320,192,43200,1,2,0:0:0:0:
448,192,43200,1,4,0:0:0:0:
64,192,43600,1,8,0:0:0:0:
192,192,43700,1,8,0:0:0:0:
320,192,43800,1,2,0:0:0:0:
448,192,44000,1,2,0:0:0:0:
320,192,44100,1,8,0:0:0:0:
192,192,44200,1,2,0:0:0:0:
320,192,44400,1,2,0:0:0:0:
192,192,44500,1,2,0:0:0:0:
64,192,44600,1,2,0:0:0:0:
448,192,44800,1,8,0:0:0:0:
64,192,45000,1,8,0:0:0:0:
192,192,45000,1,0,0:0:0:0:
320,192,45200,1,8,0:0:0:0:
448,192,45200,1,0,0:0:0:0:
64,192,45400,1,8,0:0:0:0:
192,192,45400,1,0,0:0:0:0:
320,192,45600,1,8,0:0:0:0:
448,192,45600,1,4,0:0:0:0:
64,192,46000,1,0,0:0:0:0:
192,192,46200,1,0,0:0:0:0:
320,192,46400,1,0,0:0:0:0:
64,192,46600,128,2,46800:0:0:0:0:
448,192,46600,1,4,0:0:0:0:
320,192,46900,1,8,0:0:0:0:
192,192,47000,128,2,47200:0:0:0:0:
64,192,47200,1,8,0:0:0:0:
320,192,47300,1,2,0:0:0:0:
448,192,47400,128,2,47600:0:0:0:0:
320,192,47700,1,8,0:0:0:0:
64,192,47800,1,2,0:0:0:0:
448,192,48000,1,8,0:0:0:0:
64,192,48100,1,8,0:0:0:0:
320,192,48200,1,2,0:0:0:0:
192,192,48500,1,8,0:0:0:0:
448,192,48600,1,2,0:0:0:0:
64,192,48800,1,8,0:0:0:0:
320,192,48900,1,2,0:0:0:0:
192,192,49000,128,2,49200:0:0:0:0:
448,192,49200,1,8,0:0:0:0:
320,192,49400,1,2,0:0:0:0:
192,192,49600,1,0,0:0:0:0:
448,192,49700,1,8,0:0:0:0:
64,192,49800,128,2,50000:0:0:0:0:
320,192,50100,1,8,0:0:0:0:
192,192,50200,128,2,50400:0:0:0:0:
448,192,50400,1,8,0:0:0:0:
64,192,50500,1,2,0:0:0:0:
320,192,50600,128,2,50800:0:0:0:0:
192,192,50900,1,8,0:0:0:0:
448,192,51000,128,2,51200:0:0:0:0:
320,192,51200,1,8,0:0:0:0:
64,192,51300,1,8,0:0:0:0:
448,192,51400,1,2,0:0:0:0:
320,192,51700,1,8,0:0:0:0:
192,192,51800,1,2,0:0:0:0:
64,192,52000,1,8,0:0:0:0:
448,192,52100,1,2,0:0:0:0:
192,192,52200,128,2,52400:0:0:0:0:
320,192,52400,128,2,52600:0:0:0:0:
448,192,52600,128,2,52800:0:0:0:0:
64,192,52800,128,2,53000:0:0:0:0:
192,192,52800,128,4,53000:0:0:0:0:
192,192,53200,1,2,0:0:0:0:
320,192,53400,1,2,0:0:0:0:
448,192,53600,1,8,0:0:0:0:
64,192,53700,1,2,0:0:0:0:
320,192,53800,1,2,0:0:0:0:
448,192,54100,1,8,0:0:0:0:
64,192,54200,1,2,0:0:0:0:
192,192,54400,1,8,0:0:0:0:
448,192,54500,1,8,0:0:0:0:
64,192,54600,1,2,0:0:0:0:
64,192,54900,1,8,0:0:0:0:
320,192,55000,1,2,0:0:0:0:
192,192,55200,1,8,0:0:0:0:
448,192,55300,1,2,0:0:0:0:
64,192,55400,1,2,0:0:0:0:
320,192,55600,1,8,0:0:0:0:
192,192,55800,1,2,0:0:0:0:
448,192,56000,1,2,0:0:0:0:
64,192,56100,1,8,0:0:0:0:
320,192,56200,1,2,0:0:0:0:
192,192,56400,1,8,0:0:0:0:
448,192,56500,1,8,0:0:0:0:
64,192,56600,1,2,0:0:0:0:
320,192,56700,1,8,0:0:0:0:
192,192,56800,1,8,0:0:0:0:
448,192,57000,1,2,0:0:0:0:
64,192,57100,1,8,0:0:0:0:
320,192,57400,1,2,0:0:0:0:
192,192,57600,1,2,0:0:0:0:
64,192,57800,1,2,0:0:0:0:
448,192,57800,1,0,0:0:0:0:
448,192,58200,1,2,0:0:0:0:
320,192,58300,1,2,0:0:0:0:
64,192,58400,1,2,0:0:0:0:
192,192,58400,1,4,0:0:0:0:
448,192,58600,128,0,58800:0:0:0:0:
64,192,58800,128,2,59000:0:0:0:0:
192,192,59000,128,2,59200:0:0:0:0:
320,192,59200,128,2,59400:0:0:0:0:
64,192,59400,1,2,0:0:0:0:
448,192,59400,128,4,59600:0:0:0:0:
320,192,59700,1,8,0:0:0:0:
64,192,59800,128,2,60000:0:0:0:0:
448,192,60000,1,8,0:0:0:0:
192,192,60100,1,2,0:0:0:0:
320,192,60200,128,2,60400:0:0:0:0:
64,192,60500,1,8,0:0:0:0:
448,192,60600,1,2,0:0:0:0:
192,192,60800,1,8,0:0:0:0:
448,192,60900,1,8,0:0:0:0:
64,192,61000,1,2,0:0:0:0:
320,192,61300,1,8,0:0:0:0:
64,192,61400,1,2,0:0:0:0:
448,192,61600,1,8,0:0:0:0:
192,192,61700,1,2,0:0:0:0:
320,192,61800,128,2,62000:0:0:0:0:
64,192,62000,1,8,0:0:0:0:
448,192,62200,1,2,0:0:0:0:
320,192,62400,1,0,0:0:0:0:
64,192,62500,1,8,0:0:0:0:
448,192,62600,128,2,62800:0:0:0:0:
320,192,62900,1,8,0:0:0:0:
64,192,63000,128,2,63200:0:0:0:0:
320,192,63200,1,8,0:0:0:0:
192,192,63300,1,2,0:0:0:0:
448,192,63400,128,2,63600:0:0:0:0:
320,192,63700,1,8,0:0:0:0:
192,192,63800,128,2,64000:0:0:0:0:
448,192,64000,1,8,0:0:0:0:
64,192,64100,1,8,0:0:0:0:
320,192,64200,1,2,0:0:0:0:
192,192,64500,1,8,0:0:0:0:
448,192,64600,1,2,0:0:0:0:
320,192,64800,1,8,0:0:0:0:
64,192,64900,1,2,0:0:0:0:
448,192,65000,128,2,65200:0:0:0:0:
192,192,65200,128,2,65400:0:0:0:0:
320,192,65400,128,2,65600:0:0:0:0:
64,192,65600,128,2,65800:0:0:0:0:
448,192,65600,128,4,65800:0:0:0:0:
192,192,66100,1,8,0:0:0:0:
320,192,66200,1,2,0:0:0:0:
448,192,66400,1,8,0:0:0:0:
64,192,66500,1,2,0:0:0:0:
320,192,66600,1,2,0:0:0:0:
192,192,66900,1,8,0:0:0:0:
448,192,67000,1,2,0:0:0:0:
320,192,67200,1,8,0:0:0:0:
64,192,67300,1,8,0:0:0:0:
448,192,67400,1,2,0:0:0:0:
320,192,67700,1,8,0:0:0:0:
192,192,67800,1,2,0:0:0:0:
448,192,68000,1,8,0:0:0:0:
64,192,68100,1,2,0:0:0:0:
320,192,68200,1,2,0:0:0:0:
448,192,68400,1,2,0:0:0:0:
192,192,68600,1,2,0:0:0:0:
448,192,68800,1,0,0:0:0:0:
320,192,68900,1,8,0:0:0:0:
64,192,69000,1,2,0:0:0:0:
192,192,69000,128,4,69600:0:0:0:0:
448,192,69400,1,8,0:0:0:0:
64,192,69600,128,2,70200:0:0:0:0:
320,192,69600,1,4,0:0:0:0:
192,192,70000,1,2,0:0:0:0:
320,192,70200,1,2,0:0:0:0:
448,192,70200,128,4,70800:0:0:0:0:
64,192,70600,1,8,0:0:0:0:
192,192,70800,128,2,71200:0:0:0:0:
320,192,70800,1,4,0:0:0:0:
64,192,71200,1,0,0:0:0:0:
448,192,71400,128,0,71600:0:0:0:0:
192,192,71800,1,0,0:0:0:0:
320,192,72000,1,0,0:0:0:0:
64,192,72200,1,2,0:0:0:0:
448,192,72200,1,4,0:0:0:0:
192,192,72600,1,2,0:0:0:0:
320,192,72900,1,2,0:0:0:0:
64,192,73000,1,2,0:0:0:0:
192,192,73300,1,8,0:0:0:0:
448,192,73400,1,2,0:0:0:0:
64,192,73600,1,8,0:0:0:0:
448,192,73700,1,8,0:0:0:0:
192,192,73800,1,2,0:0:0:0:
320,192,74200,1,2,0:0:0:0:
192,192,74500,1,2,0:0:0:0:
448,192,74600,1,2,0:0:0:0:
64,192,74800,1,8,0:0:0:0:
192,192,75000,1,2,0:0:0:0:
448,192,75200,1,0,0:0:0:0:
64,192,75300,1,8,0:0:0:0:
320,192,75400,1,2,0:0:0:0:
448,192,75800,1,2,0:0:0:0:
64,192,76100,1,2,0:0:0:0:
320,192,76200,1,2,0:0:0:0:
448,192,76500,1,8,0:0:0:0:
64,192,76600,1,2,0:0:0:0:
192,192,76800,1,2,0:0:0:0:
320,192,76800,1,4,0:0:0:0:
64,192,77200,1,8,0:0:0:0:
320,192,77400,1,2,0:0:0:0:
448,192,77400,1,0,0:0:0:0:
64,192,77800,1,2,0:0:0:0:
192,192,77800,1,4,0:0:0:0:
448,192,78000,128,8,78200:0:0:0:0:
320,192,78200,128,8,78400:0:0:0:0:
192,192,78400,128,8,78600:0:0:0:0:
64,192,78600,128,2,78800:0:0:0:0:
448,192,78600,1,4,0:0:0:0:
320,192,79000,1,2,0:0:0:0:
448,192,79000,128,0,79200:0:0:0:0:
64,192,79200,1,0,0:0:0:0:
192,192,79300,1,2,0:0:0:0:
320,192,79400,1,2,0:0:0:0:
64,192,79600,1,0,0:0:0:0:
448,192,79700,1,8,0:0:0:0:
192,192,79800,1,2,0:0:0:0:
320,192,80000,1,8,0:0:0:0:
64,192,80100,1,8,0:0:0:0:
448,192,80200,1,2,0:0:0:0:
192,192,80400,1,0,0:0:0:0:
320,192,80600,1,2,0:0:0:0:
448,192,80600,1,0,0:0:0:0:
64,192,80800,1,0,0:0:0:0:
320,192,80900,1,2,0:0:0:0:
64,192,81000,1,2,0:0:0:0:
320,192,81200,1,8,0:0:0:0:
448,192,81200,1,0,0:0:0:0:
64,192,81400,1,2,0:0:0:0:
192,192,81400,1,0,0:0:0:0:
448,192,81600,1,0,0:0:0:0:
320,192,81700,1,8,0:0:0:0:
64,192,81800,1,2,0:0:0:0:
192,192,81800,128,0,82000:0:0:0:0:
320,192,82000,1,0,0:0:0:0:
192,192,82200,1,2,0:0:0:0:
448,192,82200,128,0,82400:0:0:0:0:
64,192,82400,1,0,0:0:0:0:
320,192,82500,1,2,0:0:0:0:
192,192,82600,1,2,0:0:0:0:
448,192,82800,1,0,0:0:0:0:
64,192,82900,1,8,0:0:0:0:
320,192,83000,1,2,0:0:0:0:
64,192,83200,1,8,0:0:0:0:
448,192,83300,1,8,0:0:0:0:
192,192,83400,1,2,0:0:0:0:
320,192,83600,128,0,83800:0:0:0:0:
64,192,83800,128,2,84100:0:0:0:0:
448,192,83800,1,0,0:0:0:0:
320,192,84100,1,2,0:0:0:0:
192,192,84200,1,2,0:0:0:0:
448,192,84400,1,8,0:0:0:0:
192,192,84600,1,2,0:0:0:0:
320,192,84700,1,2,0:0:0:0:
64,192,84800,128,2,85000:0:0:0:0:
448,192,84800,128,4,85000:0:0:0:0:
192,192,85200,1,0,0:0:0:0:
448,192,85300,1,8,0:0:0:0:
64,192,85400,1,2,0:0:0:0:
320,192,85600,1,8,0:0:0:0:
64,192,85700,1,2,0:0:0:0:
448,192,85800,1,2,0:0:0:0:
192,192,86000,1,0,0:0:0:0:
320,192,86100,1,8,0:0:0:0:
64,192,86200,1,2,0:0:0:0:
448,192,86400,1,8,0:0:0:0:
192,192,86500,1,8,0:0:0:0:
320,192,86600,1,2,0:0:0:0:
64,192,86800,1,0,0:0:0:0:
448,192,86900,1,8,0:0:0:0:
192,192,87000,1,2,0:0:0:0:
320,192,87200,1,8,0:0:0:0:
64,192,87300,1,2,0:0:0:0:
448,192,87400,1,2,0:0:0:0:
192,192,87600,1,8,0:0:0:0:
448,192,87800,1,2,0:0:0:0:
64,192,87900,1,2,0:0:0:0:
320,192,88000,1,2,0:0:0:0:
64,192,88200,1,2,0:0:0:0:
192,192,88200,128,4,88800:0:0:0:0:
448,192,88600,1,8,0:0:0:0:
64,192,88800,1,2,0:0:0:0:
320,192,88800,128,4,89400:0:0:0:0:
64,192,89200,1,2,0:0:0:0:
192,192,89400,1,2,0:0:0:0:
448,192,89400,128,4,90000:0:0:0:0:
320,192,89800,1,2,0:0:0:0:
64,192,90000,128,2,91400:0:0:0:0:
192,192,90000,1,4,0:0:0:0:
448,192,91400,128,0,92000:0:0:0:0:
64,192,92000,128,0,92766:0:0:0:0:
192,192,92766,128,0,93200:0:0:0:0:
320,192,93200,128,0,93866:0:0:0:0:
448,192,93866,128,0,96200:0:0:0:0:
