osu file format v14

[General]
AudioFilename: oliver_ilysm.mp3
AudioLeadIn: 0
PreviewTime: 69
Countdown: 0
SampleSet: Normal
StackLeniency: 0.7
Mode: 1
LetterboxInBreaks: 0
WidescreenStoryboard: 1

[Editor]
Bookmarks: 337,28781,57225
DistanceSpacing: 1.9
BeatDivisor: 1
GridSize: 16
TimelineZoom: 1.05

[Metadata]
Title:the library
TitleUnicode:the library
Artist:Niv
ArtistUnicode:Niv
Creator:yenmaster
Version:kantan
Source:purrgatory
Tags:instrumental classical video game music vgm ambient ost original soundtrack visual novel vn oliver
BeatmapID:3228373
BeatmapSetID:1578652

[Difficulty]
HPDrainRate:9.3
CircleSize:9.2
OverallDifficulty:1.5
ApproachRate:10
SliderMultiplier:1.4
SliderTickRate:1

[Events]
//Background and Video events
0,0,"pp.jpg",0,-135
//Break Periods
//Storyboard Layer 0 (Background)
//Storyboard Layer 1 (Fail)
//Storyboard Layer 2 (Pass)
//Storyboard Layer 3 (Foreground)
//Storyboard Layer 4 (Overlay)
//Storyboard Sound Samples

[TimingPoints]
337,444.444444444444,4,1,0,15,1,0
1198,-100,4,1,0,12,0,0
2086,-100,4,1,0,13,0,0
2836,-100,4,1,0,14,0,0
3475,-100,4,1,0,15,0,0
8309,-100,4,1,0,12,0,0
9197,-100,4,1,0,13,0,0
10086,-100,4,1,0,14,0,0
11031,-100,4,1,0,15,0,0
14364,-100,4,1,0,12,0,0
15142,-100,4,1,0,13,0,0
15865,-100,4,1,0,14,0,0
16642,-100,4,1,0,15,0,0
18086,-100,4,1,0,16,0,0
18781,-100,4,1,0,17,0,0
19420,-100,4,1,0,18,0,0
20559,-100,4,1,0,19,0,0
21753,-100,4,1,0,15,0,0
23864,-100,4,1,0,10,0,0
24753,-100,4,1,0,12,0,0
25198,-100,4,1,0,15,0,0
27836,-100,4,1,0,18,0,0
28642,-100,4,1,0,24,0,0
34086,-100,4,1,0,25,0,0
34753,-100,4,1,0,26,0,0
35420,-100,4,1,0,27,0,0
35948,-100,4,1,0,24,0,0
41198,-100,4,1,0,25,0,0
41864,-100,4,1,0,26,0,0
42420,-100,4,1,0,28,0,0
43059,-100,4,1,0,24,0,0
48976,-100,4,1,0,26,0,0
49476,-100,4,1,0,27,0,0
49865,-100,4,1,0,28,0,0
50171,-100,4,1,0,24,0,0
55698,-100,4,1,0,25,0,0
56087,-100,4,1,0,26,0,0
56976,-100,4,1,0,28,0,0
58003,-100,4,1,0,21,0,0
59420,-100,4,1,0,10,0,0
59919,-100,4,1,0,11,0,0
60754,-100,4,1,0,12,0,0
60808,-100,4,1,0,15,0,0
65475,-100,4,1,0,14,0,0
66531,-100,4,1,0,13,0,0
66586,-100,4,1,0,12,0,0
67253,-100,4,1,0,11,0,0
67697,-100,4,1,0,10,0,0
71031,-100,4,1,0,9,0,0
72892,-100,4,1,0,8,0,0
73558,-100,4,1,0,7,0,0
74170,-100,4,1,0,6,0,0
74614,-100,4,1,0,5,0,0

[HitObjects]
256,512,337,5,0,0:0:0:0:
256,512,1225,5,8,0:0:0:0:
256,512,1670,5,0,0:0:0:0:
256,512,2114,5,8,0:0:0:0:
256,512,2559,5,0,0:0:0:0:
256,512,3003,5,0,0:0:0:0:
256,512,3448,5,8,0:0:0:0:
256,512,3892,5,8,0:0:0:0:
256,512,4781,5,12,0:0:0:0:
256,512,7003,5,8,0:0:0:0:
256,512,7448,5,8,0:0:0:0:
256,512,8336,5,0,0:0:0:0:
256,512,9309,5,8,0:0:0:0:
256,512,9753,5,0,0:0:0:0:
256,512,10198,5,8,0:0:0:0:
256,512,10642,5,0,0:0:0:0:
256,512,11086,5,0,0:0:0:0:
256,512,11892,5,12,0:0:0:0:
256,512,13225,5,0,0:0:0:0:
256,512,13670,5,0,0:0:0:0:
256,512,14114,5,8,0:0:0:0:
256,512,14559,5,0,0:0:0:0:
256,512,15448,5,0,0:0:0:0:
256,512,15892,5,8,0:0:0:0:
256,512,16336,5,8,0:0:0:0:
256,512,17225,5,8,0:0:0:0:
256,512,17670,5,0,0:0:0:0:
256,512,18114,5,8,0:0:0:0:
256,512,19003,5,0,0:0:0:0:
256,512,19892,5,8,0:0:0:0:
256,512,20336,5,0,0:0:0:0:
256,512,20781,5,8,0:0:0:0:
256,512,21225,5,8,0:0:0:0:
256,512,21670,5,0,0:0:0:0:
256,512,22559,5,12,0:0:0:0:
256,512,23892,5,0,0:0:0:0:
256,512,24336,5,0,0:0:0:0:
256,512,24781,5,0,0:0:0:0:
256,512,25225,5,8,0:0:0:0:
256,512,26114,5,12,0:0:0:0:
256,512,27448,5,0,0:0:0:0:
256,512,27892,5,4,0:0:0:0:
256,512,28781,5,12,0:0:0:0:
256,512,30114,5,8,0:0:0:0:
256,512,30559,5,0,0:0:0:0:
256,512,31448,5,8,0:0:0:0:
256,512,32336,5,0,0:0:0:0:
256,512,33225,5,0,0:0:0:0:
256,512,33670,5,8,0:0:0:0:
256,512,34114,5,0,0:0:0:0:
256,512,35003,5,0,0:0:0:0:
256,512,35448,5,0,0:0:0:0:
256,512,35892,5,12,0:0:0:0:
256,512,37225,5,8,0:0:0:0:
256,512,37670,5,8,0:0:0:0:
256,512,38559,5,0,0:0:0:0:
256,512,39225,5,8,0:0:0:0:
256,512,39448,5,8,0:0:0:0:
256,512,40336,5,0,0:0:0:0:
256,512,41225,5,8,0:0:0:0:
256,512,41670,5,8,0:0:0:0:
256,512,42114,5,4,0:0:0:0:
256,512,43003,5,12,0:0:0:0:
256,512,44336,5,8,0:0:0:0:
256,512,44781,5,0,0:0:0:0:
256,512,45670,5,8,0:0:0:0:
256,512,46559,5,8,0:0:0:0:
256,512,47003,5,0,0:0:0:0:
256,512,47448,5,8,0:0:0:0:
256,512,47892,5,0,0:0:0:0:
256,512,48336,5,8,0:0:0:0:
256,512,49225,5,8,0:0:0:0:
256,512,49670,5,0,0:0:0:0:
256,512,50114,5,12,0:0:0:0:
256,512,51448,5,0,0:0:0:0:
256,512,51892,5,8,0:0:0:0:
256,512,52781,5,0,0:0:0:0:
256,512,53670,5,12,0:0:0:0:
256,512,54559,5,8,0:0:0:0:
256,512,55003,5,0,0:0:0:0:
256,512,55448,5,8,0:0:0:0:
256,512,55892,5,0,0:0:0:0:
256,512,56336,5,8,0:0:0:0:
256,512,56781,5,0,0:0:0:0:
256,512,57225,5,0,0:0:0:0:
256,512,58114,5,4,0:0:0:0:
256,512,59448,5,0,0:0:0:0:
256,512,59892,5,0,0:0:0:0:
256,512,60336,5,0,0:0:0:0:
256,512,60781,5,8,0:0:0:0:
256,512,61670,5,0,0:0:0:0:
256,512,64336,5,0,0:0:0:0:
256,512,65225,5,8,0:0:0:0:
256,512,65670,5,0,0:0:0:0:
256,512,66114,5,8,0:0:0:0:
256,512,66559,5,0,0:0:0:0:
256,512,67003,5,0,0:0:0:0:
256,512,67448,5,8,0:0:0:0:
256,512,67892,5,8,0:0:0:0:
256,512,68781,5,12,0:0:0:0:
256,512,71003,5,8,0:0:0:0:
256,512,71448,5,8,0:0:0:0:
256,512,72336,5,0,0:0:0:0:
256,512,73309,5,8,0:0:0:0:
256,512,73753,5,0,0:0:0:0:
256,512,74198,5,8,0:0:0:0:
256,512,74642,5,0,0:0:0:0:
256,512,75086,5,0,0:0:0:0:
256,512,75892,5,12,0:0:0:0:
