osu file format v14

[General]
AudioFilename: audio.mp3
AudioLeadIn: 0
PreviewTime: 69405
Countdown: 0
SampleSet: None
StackLeniency: 0.7
Mode: 0
LetterboxInBreaks: 0
WidescreenStoryboard: 1

[Editor]
DistanceSpacing: 1
BeatDivisor: 4
GridSize: 32
TimelineZoom: 2

[Metadata]
Title:Heart beat
TitleUnicode:Heart beat
Artist:Nitta emi
ArtistUnicode:Nitta emi
Creator:Arua
Version:10sec jumps
Source:
Tags:
BeatmapID:1858138
BeatmapSetID:888979

[Difficulty]
HPDrainRate:4
CircleSize:4
OverallDifficulty:8
ApproachRate:10
SliderMultiplier:2.4
SliderTickRate:1

[Events]
//Background and Video events
0,0,"Konachan.com - 238871 sample.jpg",0,0
//Break Periods
//Storyboard Layer 0 (Background)
//Storyboard Layer 1 (Fail)
//Storyboard Layer 2 (Pass)
//Storyboard Layer 3 (Foreground)
//Storyboard Sound Samples

[TimingPoints]
915,283.018867924528,4,2,0,50,1,0
67565,-90.9090909090909,4,2,0,80,0,0
67665,-90.9090909090909,4,2,0,80,0,1
78320,-90.9090909090909,4,2,0,80,0,0

[HitObjects]
353,202,67565,5,0,0:0:0:0:
353,202,67848,1,0,0:0:0:0:
134,5,67990,1,0,0:0:0:0:
248,366,68131,1,0,0:0:0:0:
404,52,68273,1,0,0:0:0:0:
83,144,68414,1,0,0:0:0:0:
446,236,68556,1,0,0:0:0:0:
79,355,68698,1,0,0:0:0:0:
333,35,68839,6,0,L|326:117,1,66.0000020141602
396,362,68981,6,0,L|335:264,1,66.0000020141602
125,77,69122,6,0,P|81:71|28:79,1,66.0000020141602
387,77,69264,6,0,P|431:71|484:79,1,66.0000020141602
38,266,69405,6,0,P|70:271|103:270,1,66.0000020141602
474,266,69547,6,0,P|441:271|408:270,1,66.0000020141602
108,13,69688,6,0,L|125:78,1,66.0000020141602
302,365,69830,6,0,L|314:262,1,66.0000020141602
375,12,69971,5,0,0:0:0:0:
453,358,70113,1,0,0:0:0:0:
209,59,70254,5,0,0:0:0:0:
512,246,70396,1,0,0:0:0:0:
126,292,70537,5,0,0:0:0:0:
337,15,70679,1,0,0:0:0:0:
423,362,70820,5,0,0:0:0:0:
137,75,70962,1,0,0:0:0:0:
474,252,71103,5,0,0:0:0:0:
76,237,71245,1,0,0:0:0:0:
474,116,71386,5,0,0:0:0:0:
148,384,71528,1,0,0:0:0:0:
260,20,71669,5,0,0:0:0:0:
349,378,71811,1,0,0:0:0:0:
9,233,71952,5,0,0:0:0:0:
381,123,72094,1,0,0:0:0:0:
152,384,72235,5,0,0:0:0:0:
218,23,72377,1,0,0:0:0:0:
360,384,72518,5,0,0:0:0:0:
291,24,72660,1,0,0:0:0:0:
173,384,72801,5,0,0:0:0:0:
485,125,72943,1,0,0:0:0:0:
54,223,73084,5,0,0:0:0:0:
452,339,73226,1,0,0:0:0:0:
164,69,73367,6,0,B|99:56|28:54,1,132.00000402832
348,317,73650,1,0,0:0:0:0:
348,317,73721,1,0,0:0:0:0:
348,317,73792,2,0,B|413:304|479:302,1,132.00000402832
176,236,74075,1,0,0:0:0:0:
477,151,74216,6,0,P|433:140|378:135,1,66.0000020141602
73,68,74358,2,0,P|117:57|172:52,1,66.0000020141602
437,24,74499,5,0,0:0:0:0:
133,310,74641,1,0,0:0:0:0:
449,35,74782,5,0,0:0:0:0:
230,384,74924,1,0,0:0:0:0:
268,18,75065,5,0,0:0:0:0:
504,329,75207,1,0,0:0:0:0:
54,161,75348,5,0,0:0:0:0:
505,86,75490,1,0,0:0:0:0:
181,384,75631,5,0,0:0:0:0:
420,0,75773,1,0,0:0:0:0:
384,384,75914,6,0,L|366:309,1,66.0000020141602
128,0,76056,2,0,L|146:75,1,66.0000020141602
215,384,76198,5,0,0:0:0:0:
401,39,76339,1,0,0:0:0:0:
0,194,76481,1,0,0:0:0:0:
427,361,76622,1,0,0:0:0:0:
28,99,76764,5,0,0:0:0:0:
511,191,76905,1,0,0:0:0:0:
28,285,77188,5,0,0:0:0:0:
511,193,77329,1,0,0:0:0:0:
28,99,77471,5,0,0:0:0:0:
184,384,77613,1,0,0:0:0:0:
273,67,77754,1,0,0:0:0:0:
344,384,77896,5,0,0:0:0:0:
477,0,78037,1,0,0:0:0:0:
52,330,78179,5,0,0:0:0:0:
512,183,78320,1,0,0:0:0:0:
