osu file format v14

[General]
AudioFilename: 02._Future_style.ogg
AudioLeadIn: 0
PreviewTime: 137440
Countdown: 0
SampleSet: Soft
StackLeniency: 0.7
Mode: 3
LetterboxInBreaks: 0
SpecialStyle: 0
WidescreenStoryboard: 0

[Editor]
DistanceSpacing: 1.2
BeatDivisor: 4
GridSize: 4
TimelineZoom: 2

[Metadata]
Title:Future style
TitleUnicode:Future style
Artist:Nitta Emi, Uchida Aya, Mimori Suzuko
ArtistUnicode:新田恵海・内田 彩・三森すずこ
Creator:Reyzra
Version:4K HD
Source:ラブライブ! The School Idol Movie
Tags:Lantis Hata Aki 畑 亜貴 Honda Koushirou 本田光史郎 twenty-second single μ's u's Love Live Live! Japanese Pop J-pop 高坂穂乃果 Kosaka Honoka 南ことり Minami Kotori 園田海未 Sonoda Umi 2nd Years 2年生 µ's
BeatmapID:884048
BeatmapSetID:406858

[Difficulty]
HPDrainRate:8
CircleSize:4
OverallDifficulty:8
ApproachRate:10
SliderMultiplier:1.4
SliderTickRate:1

[Events]
//Background and Video events
0,0,"BG FS.jpg",0,0
//Break Periods
//Storyboard Layer 0 (Background)
//Storyboard Layer 1 (Fail)
//Storyboard Layer 2 (Pass)
//Storyboard Layer 3 (Foreground)
//Storyboard Layer 4 (Overlay)
//Storyboard Sound Samples
Sample,57640,0,"SB/Sound/hono3.wav",80
Sample,73755,0,"SB/Sound/umi3.wav",80
Sample,95698,0,"SB/Sound/koto3.wav",80
Sample,101869,0,"SB/Sound/koto4.wav",70
Sample,137355,0,"SB/Sound/koto1.wav",80
Sample,153298,0,"SB/Sound/hono1.wav",80
Sample,175755,0,"SB/Sound/hono5.wav",70
Sample,211412,0,"SB/Sound/hono4.wav",80
Sample,228040,0,"SB/Sound/umi2.wav",80
Sample,254612,0,"SB/Sound/koto2.wav",70

[TimingPoints]
-302,342.857142857143,4,2,1,70,1,0
58669,-100,4,2,1,70,0,1
102555,-100,4,2,0,70,0,0
103755,-100,4,2,1,70,0,0
138212,-100,4,2,1,70,0,1
176612,-100,4,2,1,70,0,0
212955,342.857142857143,4,2,1,70,1,1
254783,-100,4,2,1,70,0,0

[HitObjects]
64,192,383,5,2,0:0:0:0:
192,192,383,1,4,0:0:0:0:
448,192,383,1,0,0:0:0:0:
192,192,726,1,4,0:0:0:0:
320,192,726,1,2,0:0:0:0:
64,192,1069,1,8,0:0:0:0:
320,192,1069,1,4,1:0:0:0:
448,192,1069,1,0,0:0:0:0:
192,192,1412,1,4,0:0:0:0:
320,192,1412,1,8,0:0:0:0:
64,192,1755,1,8,0:0:0:0:
192,192,1755,1,4,0:0:0:0:
448,192,1755,1,0,0:0:0:0:
64,192,2098,1,2,0:0:0:0:
320,192,2098,1,0,0:0:0:0:
192,192,2269,1,8,0:0:0:0:
448,192,2269,1,4,0:0:0:0:
64,192,2612,1,8,0:0:0:0:
448,192,2612,1,4,0:0:0:0:
192,192,2783,1,8,0:0:0:0:
320,192,2783,1,4,0:0:0:0:
64,192,3126,1,8,0:0:0:0:
320,192,3126,1,4,0:0:0:0:
448,192,3126,1,0,0:0:0:0:
192,192,3469,1,2,0:0:0:0:
320,192,3469,1,0,0:0:0:0:
64,192,3555,1,2,0:0:0:0:
448,192,3640,1,2,0:0:0:0:
320,192,3726,1,2,0:0:0:0:
64,192,3812,1,4,0:0:0:0:
192,192,3812,1,4,1:0:0:0:
448,192,3812,1,0,0:0:0:0:
320,192,3983,1,2,0:0:0:0:
64,192,4155,1,8,0:0:0:0:
448,192,4155,1,0,0:0:0:0:
192,192,4326,1,2,0:0:0:0:
320,192,4498,1,2,0:0:0:0:
192,192,4669,1,2,0:0:0:0:
64,192,4840,1,8,0:0:0:0:
448,192,4840,1,0,0:0:0:0:
320,192,5012,1,2,0:0:0:0:
192,192,5183,1,2,0:0:0:0:
320,192,5355,1,2,0:0:0:0:
64,192,5526,1,8,0:0:0:0:
448,192,5526,1,0,0:0:0:0:
192,192,5698,1,2,0:0:0:0:
320,192,5869,1,2,0:0:0:0:
192,192,6040,1,2,0:0:0:0:
64,192,6212,1,8,0:0:0:0:
448,192,6212,1,0,0:0:0:0:
192,192,6383,1,8,0:0:0:0:
320,192,6383,1,0,0:0:0:0:
64,192,6555,1,8,0:0:0:0:
192,192,6555,1,4,0:0:0:0:
448,192,6555,1,0,0:0:0:0:
192,192,6898,1,4,0:0:0:0:
320,192,6898,1,8,0:0:0:0:
64,192,7240,1,8,0:0:0:0:
320,192,7240,1,4,0:0:0:0:
448,192,7240,1,0,0:0:0:0:
192,192,7583,1,2,0:0:0:0:
448,192,7583,1,0,0:0:0:0:
64,192,7755,1,8,0:0:0:0:
320,192,7755,1,4,0:0:0:0:
64,192,8098,1,8,0:0:0:0:
448,192,8098,1,4,0:0:0:0:
192,192,8269,1,8,0:0:0:0:
320,192,8269,1,4,0:0:0:0:
64,192,8612,1,8,0:0:0:0:
192,192,8612,1,4,0:0:0:0:
448,192,8612,1,0,0:0:0:0:
192,192,8955,1,2,0:0:0:0:
320,192,8955,1,0,0:0:0:0:
448,192,9040,1,2,0:0:0:0:
64,192,9126,1,2,0:0:0:0:
192,192,9212,1,2,0:0:0:0:
64,192,9298,1,4,0:0:0:0:
320,192,9298,1,4,1:0:0:0:
448,192,9298,1,0,0:0:0:0:
192,192,9469,1,2,0:0:0:0:
64,192,9640,1,8,0:0:0:0:
448,192,9640,1,0,0:0:0:0:
320,192,9812,1,2,0:0:0:0:
192,192,9983,1,2,0:0:0:0:
320,192,10155,1,2,0:0:0:0:
64,192,10326,1,8,0:0:0:0:
448,192,10326,1,0,0:0:0:0:
192,192,10498,1,2,0:0:0:0:
320,192,10669,1,2,0:0:0:0:
192,192,10840,1,2,0:0:0:0:
64,192,11012,1,8,0:0:0:0:
448,192,11012,1,0,0:0:0:0:
320,192,11183,1,2,0:0:0:0:
192,192,11355,1,2,0:0:0:0:
320,192,11526,1,2,0:0:0:0:
64,192,11698,1,8,0:0:0:0:
192,192,11698,1,0,0:0:0:0:
320,192,11869,1,8,0:0:0:0:
448,192,11869,1,0,0:0:0:0:
64,192,12040,1,4,0:0:0:0:
192,192,12040,1,4,1:0:0:0:
448,192,12040,1,0,0:0:0:0:
64,192,12383,1,8,0:0:0:0:
448,192,12383,1,0,0:0:0:0:
320,192,12555,1,2,0:0:0:0:
192,192,12726,1,2,0:0:0:0:
320,192,12898,1,2,0:0:0:0:
64,192,13069,1,8,0:0:0:0:
448,192,13069,1,0,0:0:0:0:
192,192,13240,1,2,0:0:0:0:
64,192,13412,1,4,1:0:0:0:
320,192,13412,1,4,0:0:0:0:
448,192,13412,1,0,0:0:0:0:
192,192,13583,1,2,0:0:0:0:
64,192,13755,1,8,0:0:0:0:
448,192,13755,1,0,0:0:0:0:
192,192,13926,1,2,0:0:0:0:
320,192,14098,1,2,0:0:0:0:
192,192,14269,1,2,0:0:0:0:
64,192,14440,1,8,0:0:0:0:
448,192,14440,1,0,0:0:0:0:
192,192,14612,1,2,0:0:0:0:
64,192,14783,1,4,1:0:0:0:
320,192,14783,1,4,0:0:0:0:
448,192,14783,1,0,0:0:0:0:
192,192,14955,1,2,0:0:0:0:
320,192,14955,1,0,0:0:0:0:
64,192,15126,1,8,0:0:0:0:
192,192,15126,1,0,0:0:0:0:
320,192,15298,1,2,0:0:0:0:
448,192,15298,1,0,0:0:0:0:
64,192,15469,1,2,0:0:0:0:
192,192,15469,1,0,0:0:0:0:
192,192,15640,1,2,0:0:0:0:
320,192,15640,1,0,0:0:0:0:
320,192,15812,1,8,0:0:0:0:
448,192,15812,1,0,0:0:0:0:
64,192,15983,1,2,0:0:0:0:
192,192,15983,1,0,0:0:0:0:
320,192,16155,1,2,0:0:0:0:
448,192,16155,1,0,0:0:0:0:
192,192,16326,1,2,0:0:0:0:
320,192,16326,1,0,0:0:0:0:
64,192,16498,1,8,0:0:0:0:
192,192,16498,1,0,0:0:0:0:
320,192,16669,1,2,0:0:0:0:
448,192,16669,1,0,0:0:0:0:
64,192,16840,1,2,0:0:0:0:
192,192,16840,1,0,0:0:0:0:
192,192,17012,1,2,0:0:0:0:
320,192,17012,1,0,0:0:0:0:
320,192,17183,1,8,0:0:0:0:
448,192,17183,1,0,0:0:0:0:
64,192,17355,1,2,0:0:0:0:
448,192,17355,1,0,0:0:0:0:
64,192,17526,1,4,1:0:0:0:
192,192,17526,1,4,0:0:0:0:
320,192,17526,1,0,0:0:0:0:
448,192,17698,1,2,0:0:0:0:
64,192,17869,1,8,0:0:0:0:
192,192,17869,1,0,0:0:0:0:
448,192,18040,1,2,0:0:0:0:
192,192,18212,1,8,0:0:0:0:
320,192,18212,1,0,0:0:0:0:
64,192,18383,1,2,0:0:0:0:
320,192,18555,1,8,0:0:0:0:
448,192,18555,1,0,0:0:0:0:
64,192,18726,1,2,0:0:0:0:
192,192,18898,1,8,0:0:0:0:
320,192,18898,1,0,0:0:0:0:
448,192,19069,1,2,0:0:0:0:
64,192,19240,1,8,0:0:0:0:
192,192,19240,1,0,0:0:0:0:
448,192,19412,1,2,0:0:0:0:
192,192,19583,1,8,0:0:0:0:
320,192,19583,1,0,0:0:0:0:
64,192,19755,1,2,0:0:0:0:
320,192,19926,1,2,0:0:0:0:
448,192,19926,1,0,0:0:0:0:
192,192,20098,1,2,0:0:0:0:
320,192,20269,1,2,0:0:0:0:
64,192,20440,1,8,0:0:0:0:
192,192,20440,1,4,0:0:0:0:
64,192,20612,1,4,0:0:0:0:
320,192,20612,1,8,0:0:0:0:
448,192,20612,1,0,0:0:0:0:
192,192,20955,1,2,0:0:0:0:
320,192,21126,1,8,0:0:0:0:
448,192,21126,1,4,0:0:0:0:
64,192,21298,1,4,0:0:0:0:
192,192,21298,1,8,0:0:0:0:
448,192,21298,1,0,0:0:0:0:
320,192,21640,1,2,0:0:0:0:
192,192,21812,1,8,0:0:0:0:
448,192,21812,1,0,0:0:0:0:
64,192,21983,1,2,0:0:0:0:
320,192,21983,1,0,0:0:0:0:
192,192,22326,1,8,0:0:0:0:
448,192,22326,1,0,0:0:0:0:
192,192,22669,1,8,0:0:0:0:
320,192,22669,1,0,0:0:0:0:
64,192,23012,1,4,1:0:0:0:
320,192,23012,1,4,0:0:0:0:
448,192,23012,1,0,0:0:0:0:
192,192,23183,1,0,0:0:0:0:
64,192,23355,1,8,0:0:0:0:
448,192,23355,1,0,0:0:0:0:
320,192,23526,1,0,0:0:0:0:
192,192,23698,1,2,0:0:0:0:
320,192,23869,1,0,0:0:0:0:
64,192,24040,1,8,0:0:0:0:
448,192,24040,1,0,0:0:0:0:
320,192,24212,1,0,0:0:0:0:
192,192,24383,1,2,0:0:0:0:
320,192,24555,1,0,0:0:0:0:
64,192,24726,1,8,0:0:0:0:
448,192,24726,1,0,0:0:0:0:
192,192,24898,1,0,0:0:0:0:
320,192,25069,1,2,0:0:0:0:
192,192,25240,1,0,0:0:0:0:
64,192,25412,1,8,0:0:0:0:
448,192,25412,1,0,0:0:0:0:
192,192,25583,1,8,0:0:0:0:
320,192,25583,1,0,0:0:0:0:
64,192,25755,1,2,0:0:0:0:
192,192,25755,1,0,0:0:0:0:
448,192,25755,1,0,0:0:0:0:
64,192,26098,1,8,0:0:0:0:
448,192,26098,1,0,0:0:0:0:
320,192,26269,1,0,0:0:0:0:
192,192,26440,1,2,0:0:0:0:
320,192,26612,1,0,0:0:0:0:
64,192,26783,1,8,0:0:0:0:
448,192,26783,1,0,0:0:0:0:
192,192,26955,1,0,0:0:0:0:
448,192,27126,1,2,0:0:0:0:
320,192,27298,1,0,0:0:0:0:
64,192,27469,1,8,0:0:0:0:
192,192,27469,1,0,0:0:0:0:
320,192,27640,1,0,0:0:0:0:
448,192,27812,1,2,0:0:0:0:
192,192,27983,1,0,0:0:0:0:
64,192,28155,1,8,0:0:0:0:
448,192,28155,1,0,0:0:0:0:
192,192,28326,1,8,0:0:0:0:
320,192,28326,1,0,0:0:0:0:
64,192,28498,1,2,0:0:0:0:
192,192,28498,1,0,0:0:0:0:
448,192,28498,1,0,0:0:0:0:
64,192,28840,1,8,0:0:0:0:
448,192,28840,1,0,0:0:0:0:
192,192,29012,1,0,0:0:0:0:
320,192,29183,1,2,0:0:0:0:
192,192,29355,1,0,0:0:0:0:
64,192,29526,1,8,0:0:0:0:
448,192,29526,1,0,0:0:0:0:
320,192,29698,1,0,0:0:0:0:
192,192,29869,1,2,0:0:0:0:
448,192,30040,1,0,0:0:0:0:
64,192,30212,1,8,0:0:0:0:
320,192,30212,1,0,0:0:0:0:
192,192,30383,1,0,0:0:0:0:
64,192,30555,1,2,0:0:0:0:
192,192,30726,1,0,0:0:0:0:
320,192,30898,1,8,0:0:0:0:
448,192,30898,1,0,0:0:0:0:
64,192,31069,1,8,0:0:0:0:
192,192,31069,1,0,0:0:0:0:
64,192,31240,1,2,0:0:0:0:
320,192,31240,1,0,0:0:0:0:
448,192,31240,1,0,0:0:0:0:
192,192,31583,1,8,0:0:0:0:
448,192,31583,1,0,0:0:0:0:
320,192,31755,1,0,0:0:0:0:
64,192,31926,1,2,0:0:0:0:
192,192,32098,1,0,0:0:0:0:
64,192,32269,1,8,0:0:0:0:
448,192,32269,1,0,0:0:0:0:
320,192,32440,1,0,0:0:0:0:
192,192,32612,128,2,32783:0:0:0:0:
448,192,32612,1,0,0:0:0:0:
64,192,32783,128,0,32955:0:0:0:0:
192,192,32955,128,8,33126:0:0:0:0:
448,192,32955,1,0,0:0:0:0:
320,192,33126,128,0,33298:0:0:0:0:
64,192,33298,1,2,0:0:0:0:
448,192,33298,128,0,33469:0:0:0:0:
320,192,33469,128,0,33640:0:0:0:0:
192,192,33640,128,8,33812:0:0:0:0:
448,192,33640,1,0,0:0:0:0:
64,192,33812,128,0,33983:0:0:0:0:
320,192,33983,1,4,0:0:0:0:
448,192,33983,1,2,0:0:0:0:
192,192,34155,1,0,0:0:0:0:
64,192,34326,1,8,0:0:0:0:
448,192,34326,1,0,0:0:0:0:
320,192,34498,1,0,0:0:0:0:
192,192,34669,1,2,0:0:0:0:
320,192,34840,1,0,0:0:0:0:
64,192,35012,1,8,0:0:0:0:
448,192,35012,1,0,0:0:0:0:
192,192,35183,1,0,0:0:0:0:
64,192,35355,1,2,0:0:0:0:
320,192,35355,1,0,0:0:0:0:
448,192,35355,1,0,0:0:0:0:
192,192,35526,1,0,0:0:0:0:
64,192,35698,1,8,0:0:0:0:
448,192,35698,1,0,0:0:0:0:
192,192,35869,1,0,0:0:0:0:
320,192,36040,1,2,0:0:0:0:
192,192,36212,1,0,0:0:0:0:
64,192,36383,1,8,0:0:0:0:
448,192,36383,1,0,0:0:0:0:
320,192,36555,1,0,0:0:0:0:
64,192,36726,1,2,0:0:0:0:
192,192,36726,1,0,0:0:0:0:
448,192,36726,1,0,0:0:0:0:
320,192,36898,1,0,0:0:0:0:
64,192,37069,1,8,0:0:0:0:
448,192,37069,1,0,0:0:0:0:
320,192,37240,1,0,0:0:0:0:
64,192,37412,1,2,0:0:0:0:
192,192,37583,1,0,0:0:0:0:
320,192,37755,1,8,0:0:0:0:
448,192,37755,1,0,0:0:0:0:
192,192,37926,1,0,0:0:0:0:
64,192,38098,1,2,0:0:0:0:
320,192,38098,1,0,0:0:0:0:
448,192,38098,1,0,0:0:0:0:
192,192,38269,1,0,0:0:0:0:
64,192,38440,1,8,0:0:0:0:
448,192,38440,1,0,0:0:0:0:
192,192,38612,1,0,0:0:0:0:
448,192,38783,1,2,0:0:0:0:
320,192,38955,1,0,0:0:0:0:
64,192,39126,1,8,0:0:0:0:
192,192,39126,1,0,0:0:0:0:
320,192,39298,1,0,0:0:0:0:
64,192,39469,1,2,0:0:0:0:
192,192,39469,1,0,0:0:0:0:
448,192,39469,1,0,0:0:0:0:
320,192,39640,1,0,0:0:0:0:
64,192,39812,1,8,0:0:0:0:
448,192,39812,1,0,0:0:0:0:
192,192,39983,1,0,0:0:0:0:
320,192,40155,1,2,0:0:0:0:
64,192,40326,1,0,0:0:0:0:
192,192,40498,1,8,0:0:0:0:
448,192,40498,1,0,0:0:0:0:
320,192,40669,1,0,0:0:0:0:
448,192,40840,1,2,0:0:0:0:
192,192,41012,1,0,0:0:0:0:
64,192,41183,1,8,0:0:0:0:
448,192,41183,1,0,0:0:0:0:
320,192,41355,1,0,0:0:0:0:
192,192,41526,1,2,0:0:0:0:
320,192,41698,1,0,0:0:0:0:
64,192,41869,1,8,0:0:0:0:
448,192,41869,1,0,0:0:0:0:
192,192,42040,1,0,0:0:0:0:
64,192,42212,1,2,0:0:0:0:
448,192,42212,1,0,0:0:0:0:
320,192,42298,1,0,0:0:0:0:
192,192,42383,1,0,0:0:0:0:
64,192,42469,1,0,0:0:0:0:
192,192,42555,1,8,0:0:0:0:
320,192,42640,1,0,0:0:0:0:
448,192,42726,1,0,0:0:0:0:
320,192,42812,1,0,0:0:0:0:
192,192,42898,1,2,0:0:0:0:
64,192,42983,1,0,0:0:0:0:
448,192,43069,1,0,0:0:0:0:
320,192,43155,1,0,0:0:0:0:
192,192,43240,1,8,0:0:0:0:
64,192,43326,1,0,0:0:0:0:
192,192,43412,1,0,0:0:0:0:
320,192,43498,1,0,0:0:0:0:
64,192,43583,1,2,0:0:0:0:
448,192,43583,1,0,0:0:0:0:
192,192,43755,1,8,0:0:0:0:
320,192,43755,1,4,0:0:0:0:
64,192,43926,1,8,0:0:0:0:
192,192,43926,1,4,0:0:0:0:
448,192,43926,1,0,0:0:0:0:
320,192,44269,1,8,0:0:0:0:
448,192,44269,1,0,0:0:0:0:
64,192,44440,1,2,0:0:0:0:
192,192,44440,1,0,0:0:0:0:
320,192,44612,1,8,0:0:0:0:
448,192,44612,1,0,0:0:0:0:
64,192,44783,1,2,0:0:0:0:
192,192,44783,1,0,0:0:0:0:
64,192,44955,1,4,1:0:0:0:
320,192,44955,1,4,0:0:0:0:
448,192,44955,1,0,0:0:0:0:
192,192,45126,1,0,0:0:0:0:
320,192,45298,1,0,0:0:0:0:
64,192,45469,1,2,0:0:0:0:
448,192,45469,1,0,0:0:0:0:
192,192,45640,1,0,0:0:0:0:
320,192,45812,1,2,0:0:0:0:
448,192,45812,1,0,0:0:0:0:
64,192,45983,1,8,0:0:0:0:
192,192,45983,1,2,1:0:0:0:
448,192,45983,1,0,0:0:0:0:
320,192,46155,1,0,0:0:0:0:
64,192,46326,1,2,0:0:0:0:
448,192,46326,1,0,0:0:0:0:
192,192,46498,1,0,0:0:0:0:
320,192,46669,1,0,0:0:0:0:
64,192,46840,1,2,0:0:0:0:
448,192,46840,1,0,0:0:0:0:
320,192,47012,1,0,0:0:0:0:
64,192,47183,1,2,0:0:0:0:
192,192,47183,1,0,0:0:0:0:
320,192,47355,1,8,0:0:0:0:
448,192,47355,1,0,0:0:0:0:
192,192,47526,1,0,0:0:0:0:
64,192,47698,1,2,0:0:0:0:
448,192,47698,1,0,0:0:0:0:
320,192,47869,1,0,0:0:0:0:
192,192,48040,1,0,0:0:0:0:
320,192,48212,1,2,0:0:0:0:
448,192,48212,1,0,0:0:0:0:
64,192,48383,1,0,0:0:0:0:
192,192,48555,1,2,0:0:0:0:
320,192,48555,1,0,0:0:0:0:
64,192,48726,1,8,0:0:0:0:
448,192,48726,1,0,0:0:0:0:
320,192,48898,1,0,0:0:0:0:
192,192,49069,1,2,0:0:0:0:
448,192,49069,1,0,0:0:0:0:
64,192,49240,1,0,0:0:0:0:
192,192,49412,1,0,0:0:0:0:
64,192,49583,1,2,0:0:0:0:
320,192,49583,1,0,0:0:0:0:
448,192,49755,1,0,0:0:0:0:
64,192,49926,1,8,0:0:0:0:
192,192,49926,1,0,0:0:0:0:
64,192,50098,1,8,0:0:0:0:
192,192,50098,1,4,0:0:0:0:
320,192,50269,1,2,0:0:0:0:
64,192,50440,1,4,0:0:0:0:
192,192,50440,1,2,0:0:0:0:
448,192,50440,1,0,0:0:0:0:
320,192,50612,1,0,0:0:0:0:
192,192,50783,1,0,0:0:0:0:
64,192,50955,1,2,0:0:0:0:
320,192,50955,1,0,0:0:0:0:
448,192,51126,1,0,0:0:0:0:
64,192,51298,1,2,0:0:0:0:
192,192,51298,1,0,0:0:0:0:
192,192,51469,1,8,0:0:0:0:
320,192,51469,1,2,1:0:0:0:
448,192,51469,1,0,0:0:0:0:
64,192,51640,1,0,0:0:0:0:
192,192,51812,1,2,0:0:0:0:
448,192,51812,1,0,0:0:0:0:
320,192,51983,1,0,0:0:0:0:
448,192,52155,1,0,0:0:0:0:
64,192,52326,1,2,0:0:0:0:
192,192,52326,1,0,0:0:0:0:
320,192,52498,1,0,0:0:0:0:
192,192,52669,1,2,0:0:0:0:
448,192,52669,1,0,0:0:0:0:
64,192,52840,1,8,0:0:0:0:
320,192,52840,128,0,53183:0:0:0:0:
192,192,53183,1,4,1:0:0:0:
448,192,53183,1,4,0:0:0:0:
320,192,53355,1,0,0:0:0:0:
64,192,53526,128,8,53698:0:0:0:0:
192,192,53526,1,0,0:0:0:0:
448,192,53698,1,0,0:0:0:0:
320,192,53869,1,2,0:0:0:0:
192,192,54040,1,8,0:0:0:0:
448,192,54040,128,0,54212:0:0:0:0:
64,192,54212,1,2,0:0:0:0:
192,192,54383,128,8,54555:0:0:0:0:
320,192,54383,1,0,0:0:0:0:
64,192,54555,1,2,0:0:0:0:
320,192,54726,1,2,0:0:0:0:
192,192,54898,1,8,0:0:0:0:
448,192,54898,128,0,55240:0:0:0:0:
64,192,55069,1,0,0:0:0:0:
320,192,55240,1,2,0:0:0:0:
64,192,55412,1,8,0:0:0:0:
192,192,55412,128,0,55583:0:0:0:0:
448,192,55583,1,2,0:0:0:0:
64,192,55755,128,8,55926:0:0:0:0:
320,192,55755,1,0,0:0:0:0:
192,192,55926,1,2,0:0:0:0:
64,192,56098,1,4,0:0:0:0:
320,192,56098,1,8,0:0:0:0:
192,192,56269,1,4,0:0:0:0:
320,192,56269,1,8,0:0:0:0:
448,192,56269,1,0,0:0:0:0:
64,192,56612,1,2,0:0:0:0:
192,192,56783,1,4,0:0:0:0:
448,192,56783,1,8,0:0:0:0:
64,192,56955,1,8,0:0:0:0:
192,192,56955,1,4,0:0:0:0:
320,192,56955,1,0,0:0:0:0:
448,192,57298,1,2,0:0:0:0:
192,192,57469,1,8,0:0:0:0:
320,192,57469,1,4,0:0:0:0:
64,192,57640,1,4,0:0:0:0:
320,192,57640,1,8,0:0:0:0:
448,192,57640,1,0,0:0:0:0:
64,192,57983,1,2,0:0:0:0:
192,192,57983,128,0,58669:0:0:0:0:
448,192,57983,128,0,58669:0:0:0:0:
64,192,58669,1,4,1:0:0:0:
320,192,58669,1,8,0:0:0:0:
192,192,59012,1,4,0:0:0:0:
320,192,59012,1,8,0:0:0:0:
64,192,59355,1,8,0:0:0:0:
320,192,59355,1,4,0:0:0:0:
448,192,59355,1,0,0:0:0:0:
192,192,59698,1,2,0:0:0:0:
320,192,59698,1,0,0:0:0:0:
64,192,59869,1,8,0:0:0:0:
192,192,59869,1,4,0:0:0:0:
320,192,60212,1,4,0:0:0:0:
448,192,60212,1,8,0:0:0:0:
64,192,60383,1,8,0:0:0:0:
192,192,60383,1,4,0:0:0:0:
64,192,60726,1,8,0:0:0:0:
320,192,60726,1,4,0:0:0:0:
448,192,60726,1,0,0:0:0:0:
64,192,61069,1,2,0:0:0:0:
448,192,61069,1,0,0:0:0:0:
192,192,61155,1,2,0:0:0:0:
320,192,61240,1,2,0:0:0:0:
192,192,61326,1,2,0:0:0:0:
64,192,61412,1,4,0:0:0:0:
320,192,61412,1,4,1:0:0:0:
448,192,61412,1,0,0:0:0:0:
192,192,61583,1,2,0:0:0:0:
64,192,61755,1,8,0:0:0:0:
448,192,61755,1,0,0:0:0:0:
320,192,61926,1,2,0:0:0:0:
192,192,62098,1,2,0:0:0:0:
320,192,62269,1,2,0:0:0:0:
64,192,62440,1,8,0:0:0:0:
448,192,62440,1,0,0:0:0:0:
192,192,62612,1,2,0:0:0:0:
320,192,62783,1,2,0:0:0:0:
192,192,62955,1,2,0:0:0:0:
64,192,63126,1,8,0:0:0:0:
448,192,63126,1,0,0:0:0:0:
320,192,63298,1,2,0:0:0:0:
192,192,63469,1,2,0:0:0:0:
64,192,63640,1,2,0:0:0:0:
192,192,63812,1,8,0:0:0:0:
448,192,63812,1,0,0:0:0:0:
320,192,63983,1,2,0:0:0:0:
64,192,64155,1,4,0:0:0:0:
192,192,64155,1,8,0:0:0:0:
448,192,64155,1,0,0:0:0:0:
192,192,64498,1,4,0:0:0:0:
320,192,64498,1,8,0:0:0:0:
64,192,64840,1,8,0:0:0:0:
320,192,64840,1,4,0:0:0:0:
448,192,64840,1,0,0:0:0:0:
192,192,65183,1,2,0:0:0:0:
320,192,65183,1,0,0:0:0:0:
64,192,65355,1,8,0:0:0:0:
192,192,65355,1,4,0:0:0:0:
192,192,65698,1,4,0:0:0:0:
320,192,65698,1,8,0:0:0:0:
320,192,65869,1,8,0:0:0:0:
448,192,65869,1,4,0:0:0:0:
64,192,66212,1,8,0:0:0:0:
192,192,66212,1,4,0:0:0:0:
448,192,66212,1,0,0:0:0:0:
64,192,66555,1,2,0:0:0:0:
448,192,66555,1,0,0:0:0:0:
192,192,66640,1,2,0:0:0:0:
320,192,66726,1,2,0:0:0:0:
192,192,66812,1,2,0:0:0:0:
64,192,66898,1,4,0:0:0:0:
320,192,66898,1,4,1:0:0:0:
448,192,66898,1,0,0:0:0:0:
192,192,67069,1,2,0:0:0:0:
64,192,67240,1,8,0:0:0:0:
448,192,67240,1,0,0:0:0:0:
320,192,67412,1,2,0:0:0:0:
192,192,67583,1,2,0:0:0:0:
320,192,67755,1,2,0:0:0:0:
64,192,67926,1,8,0:0:0:0:
448,192,67926,1,0,0:0:0:0:
320,192,68098,1,2,0:0:0:0:
64,192,68269,1,2,0:0:0:0:
192,192,68440,1,2,0:0:0:0:
320,192,68612,1,8,0:0:0:0:
448,192,68612,1,0,0:0:0:0:
64,192,68783,1,2,0:0:0:0:
192,192,68955,1,2,0:0:0:0:
320,192,69126,1,2,0:0:0:0:
64,192,69298,1,8,0:0:0:0:
448,192,69298,1,0,0:0:0:0:
192,192,69469,1,8,0:0:0:0:
320,192,69469,1,0,0:0:0:0:
64,192,69640,1,4,0:0:0:0:
320,192,69640,1,4,1:0:0:0:
448,192,69640,1,0,0:0:0:0:
192,192,69812,1,2,0:0:0:0:
64,192,69983,1,8,0:0:0:0:
320,192,69983,1,0,0:0:0:0:
448,192,70155,1,2,0:0:0:0:
192,192,70326,1,2,0:0:0:0:
320,192,70498,1,2,0:0:0:0:
64,192,70669,1,8,0:0:0:0:
448,192,70669,1,0,0:0:0:0:
192,192,70840,1,2,0:0:0:0:
64,192,71012,1,4,0:0:0:0:
320,192,71012,1,4,1:0:0:0:
448,192,71012,1,0,0:0:0:0:
192,192,71183,1,2,0:0:0:0:
64,192,71355,1,8,0:0:0:0:
448,192,71355,1,0,0:0:0:0:
320,192,71526,1,2,0:0:0:0:
192,192,71698,1,2,0:0:0:0:
320,192,71869,1,2,0:0:0:0:
192,192,72040,1,8,0:0:0:0:
448,192,72040,1,0,0:0:0:0:
64,192,72212,1,2,0:0:0:0:
320,192,72212,1,0,0:0:0:0:
192,192,72383,1,2,0:0:0:0:
64,192,72555,1,4,0:0:0:0:
320,192,72555,1,8,0:0:0:0:
64,192,72726,1,8,0:0:0:0:
192,192,72726,1,4,0:0:0:0:
448,192,72726,1,0,0:0:0:0:
320,192,72898,1,2,0:0:0:0:
64,192,73069,1,2,0:0:0:0:
192,192,73240,1,4,0:0:0:0:
448,192,73240,1,8,0:0:0:0:
64,192,73412,1,8,0:0:0:0:
320,192,73412,1,4,0:0:0:0:
448,192,73412,1,0,0:0:0:0:
192,192,73755,1,2,0:0:0:0:
448,192,73755,1,0,0:0:0:0:
64,192,74098,1,8,0:0:0:0:
320,192,74098,1,0,0:0:0:0:
192,192,74440,1,8,0:0:0:0:
320,192,74440,1,0,0:0:0:0:
64,192,74783,1,8,0:0:0:0:
448,192,74783,1,0,0:0:0:0:
192,192,75126,1,4,1:0:0:0:
320,192,75126,1,8,0:0:0:0:
448,192,75126,1,0,0:0:0:0:
64,192,75469,1,4,0:0:0:0:
192,192,75469,1,8,0:0:0:0:
64,192,75812,1,8,0:0:0:0:
320,192,75812,1,4,0:0:0:0:
448,192,75812,1,0,0:0:0:0:
192,192,76155,1,2,0:0:0:0:
448,192,76155,1,0,0:0:0:0:
64,192,76326,1,8,0:0:0:0:
320,192,76326,1,4,0:0:0:0:
64,192,76669,1,4,0:0:0:0:
320,192,76669,1,8,0:0:0:0:
192,192,76840,1,8,0:0:0:0:
448,192,76840,1,4,0:0:0:0:
64,192,77183,1,8,0:0:0:0:
320,192,77183,1,4,0:0:0:0:
448,192,77183,1,0,0:0:0:0:
64,192,77526,1,0,0:0:0:0:
448,192,77526,1,0,0:0:0:0:
320,192,77612,1,2,0:0:0:0:
192,192,77698,1,2,0:0:0:0:
320,192,77783,1,2,0:0:0:0:
64,192,77869,1,4,0:0:0:0:
192,192,77869,1,4,1:0:0:0:
448,192,77869,1,0,0:0:0:0:
320,192,78040,1,2,0:0:0:0:
64,192,78212,1,8,0:0:0:0:
192,192,78212,1,0,0:0:0:0:
448,192,78383,1,2,0:0:0:0:
320,192,78555,1,2,0:0:0:0:
64,192,78726,1,2,0:0:0:0:
192,192,78898,1,8,0:0:0:0:
448,192,78898,1,0,0:0:0:0:
320,192,79069,1,2,0:0:0:0:
192,192,79240,1,2,0:0:0:0:
64,192,79412,1,2,0:0:0:0:
192,192,79583,1,8,0:0:0:0:
320,192,79583,1,0,0:0:0:0:
448,192,79755,1,2,0:0:0:0:
320,192,79926,1,2,0:0:0:0:
192,192,80098,1,2,0:0:0:0:
64,192,80269,1,8,0:0:0:0:
448,192,80269,1,0,0:0:0:0:
320,192,80440,1,2,0:0:0:0:
64,192,80612,1,4,0:0:0:0:
192,192,80612,1,8,0:0:0:0:
448,192,80612,1,0,0:0:0:0:
320,192,80955,1,4,0:0:0:0:
448,192,80955,1,8,0:0:0:0:
64,192,81298,1,8,0:0:0:0:
192,192,81298,1,4,0:0:0:0:
320,192,81298,1,0,0:0:0:0:
192,192,81640,1,2,0:0:0:0:
448,192,81640,1,0,0:0:0:0:
320,192,81812,1,8,0:0:0:0:
448,192,81812,1,4,0:0:0:0:
64,192,82155,1,8,0:0:0:0:
320,192,82155,1,4,0:0:0:0:
64,192,82326,1,8,0:0:0:0:
192,192,82326,1,4,0:0:0:0:
64,192,82669,1,8,0:0:0:0:
320,192,82669,1,4,0:0:0:0:
448,192,82669,1,0,0:0:0:0:
64,192,83012,1,2,0:0:0:0:
192,192,83012,1,0,0:0:0:0:
448,192,83098,1,2,0:0:0:0:
320,192,83183,1,2,0:0:0:0:
192,192,83269,1,2,0:0:0:0:
64,192,83355,1,4,1:0:0:0:
320,192,83355,1,4,0:0:0:0:
448,192,83355,1,0,0:0:0:0:
192,192,83526,1,2,0:0:0:0:
64,192,83698,1,8,0:0:0:0:
320,192,83698,1,0,0:0:0:0:
448,192,83869,1,2,0:0:0:0:
320,192,84040,1,2,0:0:0:0:
192,192,84212,1,2,0:0:0:0:
64,192,84383,1,8,0:0:0:0:
448,192,84383,1,0,0:0:0:0:
320,192,84555,1,2,0:0:0:0:
64,192,84726,1,2,0:0:0:0:
192,192,84898,1,2,0:0:0:0:
320,192,85069,1,8,0:0:0:0:
448,192,85069,1,0,0:0:0:0:
64,192,85240,1,2,0:0:0:0:
192,192,85412,1,2,0:0:0:0:
320,192,85583,1,2,0:0:0:0:
64,192,85755,1,8,0:0:0:0:
448,192,85755,1,0,0:0:0:0:
192,192,85926,1,8,0:0:0:0:
320,192,85926,1,0,0:0:0:0:
64,192,86098,1,4,1:0:0:0:
320,192,86098,1,4,0:0:0:0:
448,192,86098,1,0,0:0:0:0:
64,192,86440,1,8,0:0:0:0:
192,192,86440,1,0,0:0:0:0:
448,192,86612,1,2,0:0:0:0:
192,192,86783,1,2,0:0:0:0:
448,192,86955,1,2,0:0:0:0:
64,192,87126,1,8,0:0:0:0:
192,192,87126,1,0,0:0:0:0:
448,192,87298,1,2,0:0:0:0:
64,192,87469,1,4,0:0:0:0:
192,192,87469,1,4,1:0:0:0:
320,192,87469,1,0,0:0:0:0:
320,192,87812,1,8,0:0:0:0:
448,192,87812,1,0,0:0:0:0:
64,192,87983,1,2,0:0:0:0:
320,192,88155,1,2,0:0:0:0:
64,192,88326,1,2,0:0:0:0:
320,192,88498,1,8,0:0:0:0:
448,192,88498,1,0,0:0:0:0:
64,192,88669,1,2,0:0:0:0:
192,192,88840,1,4,0:0:0:0:
320,192,88840,1,4,1:0:0:0:
448,192,88840,1,0,0:0:0:0:
64,192,89183,1,8,0:0:0:0:
320,192,89183,1,0,0:0:0:0:
448,192,89355,1,2,0:0:0:0:
192,192,89526,1,2,0:0:0:0:
448,192,89698,1,2,0:0:0:0:
64,192,89869,1,8,0:0:0:0:
320,192,89869,1,0,0:0:0:0:
448,192,90040,1,2,0:0:0:0:
64,192,90212,1,4,0:0:0:0:
192,192,90212,1,4,1:0:0:0:
320,192,90212,1,0,0:0:0:0:
192,192,90555,1,8,0:0:0:0:
448,192,90555,1,0,0:0:0:0:
64,192,90726,1,2,0:0:0:0:
320,192,90898,1,2,0:0:0:0:
64,192,91069,1,2,0:0:0:0:
192,192,91240,1,8,0:0:0:0:
448,192,91240,1,0,0:0:0:0:
64,192,91412,1,2,0:0:0:0:
192,192,91583,1,4,1:0:0:0:
320,192,91583,1,4,0:0:0:0:
448,192,91583,1,0,0:0:0:0:
64,192,91755,1,2,0:0:0:0:
192,192,91926,1,8,0:0:0:0:
448,192,91926,1,0,0:0:0:0:
320,192,92098,1,2,0:0:0:0:
64,192,92269,1,8,0:0:0:0:
448,192,92269,1,0,0:0:0:0:
320,192,92440,1,2,0:0:0:0:
64,192,92612,1,8,0:0:0:0:
192,192,92612,1,0,0:0:0:0:
448,192,92783,1,2,0:0:0:0:
192,192,92955,1,8,0:0:0:0:
320,192,92955,1,0,0:0:0:0:
64,192,93126,1,2,0:0:0:0:
320,192,93298,1,8,0:0:0:0:
448,192,93298,1,0,0:0:0:0:
192,192,93469,1,2,0:0:0:0:
64,192,93640,1,8,0:0:0:0:
448,192,93640,1,0,0:0:0:0:
192,192,93812,1,2,0:0:0:0:
320,192,93983,1,8,0:0:0:0:
448,192,93983,1,0,0:0:0:0:
64,192,94155,1,2,0:0:0:0:
192,192,94155,1,0,0:0:0:0:
448,192,94326,1,2,0:0:0:0:
64,192,94498,1,8,0:0:0:0:
320,192,94498,1,4,0:0:0:0:
192,192,94669,1,4,0:0:0:0:
320,192,94669,1,8,0:0:0:0:
448,192,94669,1,0,0:0:0:0:
64,192,94840,1,0,0:0:0:0:
192,192,95012,1,2,0:0:0:0:
320,192,95183,1,8,0:0:0:0:
448,192,95183,1,4,0:0:0:0:
64,192,95355,1,4,0:0:0:0:
192,192,95355,1,8,0:0:0:0:
448,192,95355,1,0,0:0:0:0:
320,192,95526,1,2,0:0:0:0:
64,192,95698,1,8,0:0:0:0:
448,192,95698,1,0,0:0:0:0:
192,192,96040,1,8,0:0:0:0:
448,192,96040,1,0,0:0:0:0:
320,192,96383,1,8,0:0:0:0:
448,192,96383,1,0,0:0:0:0:
192,192,96726,1,8,0:0:0:0:
320,192,96726,1,0,0:0:0:0:
64,192,97069,1,8,0:0:0:0:
192,192,97069,1,0,0:0:0:0:
320,192,97240,1,8,0:0:0:0:
448,192,97240,1,0,0:0:0:0:
320,192,97583,1,8,0:0:0:0:
448,192,97583,1,0,0:0:0:0:
64,192,97755,1,8,0:0:0:0:
192,192,97755,1,0,0:0:0:0:
64,192,98098,1,8,0:0:0:0:
192,192,98098,1,0,0:0:0:0:
320,192,98269,1,8,0:0:0:0:
448,192,98269,1,0,0:0:0:0:
192,192,98612,1,8,0:0:0:0:
320,192,98612,1,0,0:0:0:0:
64,192,98783,1,8,0:0:0:0:
448,192,98783,1,0,0:0:0:0:
320,192,98955,1,2,0:0:0:0:
64,192,99126,128,4,99469:0:0:0:0:
192,192,99126,1,2,0:0:0:0:
320,192,99469,128,2,99812:0:0:0:0:
448,192,99469,1,4,0:0:0:0:
192,192,99812,1,8,0:0:0:0:
448,192,99812,1,0,0:0:0:0:
64,192,99983,1,8,0:0:0:0:
320,192,99983,1,0,0:0:0:0:
64,192,100326,1,8,0:0:0:0:
320,192,100326,1,0,0:0:0:0:
192,192,100498,1,8,0:0:0:0:
448,192,100498,1,0,0:0:0:0:
192,192,100840,1,8,0:0:0:0:
448,192,100840,1,0,0:0:0:0:
64,192,101012,1,8,0:0:0:0:
320,192,101012,1,0,0:0:0:0:
64,192,101355,1,8,0:0:0:0:
192,192,101355,1,0,0:0:0:0:
320,192,101526,1,8,0:0:0:0:
448,192,101526,1,0,0:0:0:0:
192,192,101698,1,2,0:0:0:0:
64,192,101869,128,2,102212:0:0:0:0:
320,192,101869,1,4,0:0:0:0:
192,192,102212,1,4,0:0:0:0:
448,192,102212,128,2,102555:0:0:0:0:
320,192,102555,1,2,0:0:0:0:
192,192,102726,1,2,0:0:0:0:
64,192,102898,1,2,0:0:0:0:
448,192,102898,1,0,0:0:0:0:
64,192,103240,1,2,0:0:0:0:
320,192,103240,1,0,0:0:0:0:
192,192,103412,1,2,0:0:0:0:
320,192,103583,1,2,0:0:0:0:
448,192,103755,1,2,0:0:0:0:
64,192,103926,128,8,104269:0:0:0:0:
320,192,103926,1,0,0:0:0:0:
192,192,104269,128,8,104612:0:0:0:0:
448,192,104269,1,0,0:0:0:0:
64,192,104612,1,8,0:0:0:0:
320,192,104612,128,0,104955:0:0:0:0:
192,192,104955,1,8,0:0:0:0:
448,192,104955,128,0,105298:0:0:0:0:
64,192,105298,1,2,0:0:0:0:
320,192,105298,1,0,0:0:0:0:
192,192,105469,1,0,0:0:0:0:
64,192,105640,1,8,0:0:0:0:
448,192,105640,1,0,0:0:0:0:
192,192,105812,1,0,0:0:0:0:
320,192,105898,1,0,0:0:0:0:
192,192,105983,1,2,0:0:0:0:
448,192,105983,1,0,0:0:0:0:
320,192,106155,1,0,0:0:0:0:
64,192,106326,1,8,0:0:0:0:
448,192,106326,1,0,0:0:0:0:
192,192,106498,1,0,0:0:0:0:
64,192,106669,1,2,0:0:0:0:
320,192,106669,1,0,0:0:0:0:
192,192,106840,1,0,0:0:0:0:
64,192,107012,1,8,0:0:0:0:
448,192,107012,1,0,0:0:0:0:
320,192,107183,1,0,0:0:0:0:
192,192,107269,1,0,0:0:0:0:
64,192,107355,1,2,0:0:0:0:
320,192,107355,1,0,0:0:0:0:
192,192,107526,1,0,0:0:0:0:
64,192,107698,1,8,0:0:0:0:
448,192,107698,1,0,0:0:0:0:
320,192,107869,1,0,0:0:0:0:
192,192,108040,1,2,0:0:0:0:
448,192,108040,1,0,0:0:0:0:
320,192,108212,1,0,0:0:0:0:
64,192,108383,1,8,0:0:0:0:
192,192,108383,1,0,0:0:0:0:
320,192,108555,1,0,0:0:0:0:
192,192,108640,1,2,0:0:0:0:
64,192,108726,1,2,0:0:0:0:
448,192,108726,1,0,0:0:0:0:
320,192,108898,1,2,0:0:0:0:
192,192,109069,1,8,0:0:0:0:
448,192,109069,1,0,0:0:0:0:
320,192,109240,1,0,0:0:0:0:
64,192,109412,1,2,0:0:0:0:
448,192,109412,1,0,0:0:0:0:
192,192,109583,1,0,0:0:0:0:
320,192,109755,1,8,0:0:0:0:
448,192,109755,1,0,0:0:0:0:
192,192,109926,1,0,0:0:0:0:
320,192,110012,1,2,0:0:0:0:
64,192,110098,1,2,0:0:0:0:
448,192,110098,1,0,0:0:0:0:
192,192,110269,1,2,0:0:0:0:
64,192,110440,1,8,0:0:0:0:
320,192,110440,1,0,0:0:0:0:
448,192,110612,1,0,0:0:0:0:
64,192,110783,1,2,0:0:0:0:
192,192,110783,1,0,0:0:0:0:
320,192,110955,1,0,0:0:0:0:
64,192,111126,1,8,0:0:0:0:
448,192,111126,1,0,0:0:0:0:
320,192,111298,1,0,0:0:0:0:
192,192,111383,1,2,0:0:0:0:
64,192,111469,1,2,0:0:0:0:
448,192,111469,1,0,0:0:0:0:
320,192,111640,1,2,0:0:0:0:
192,192,111812,1,8,0:0:0:0:
448,192,111812,1,0,0:0:0:0:
64,192,111983,1,0,0:0:0:0:
320,192,112155,1,0,0:0:0:0:
448,192,112155,1,0,0:0:0:0:
64,192,112326,1,0,0:0:0:0:
192,192,112498,1,8,0:0:0:0:
320,192,112498,1,0,0:0:0:0:
448,192,112669,1,0,0:0:0:0:
320,192,112755,1,2,0:0:0:0:
64,192,112840,1,2,0:0:0:0:
192,192,112840,1,0,0:0:0:0:
320,192,113012,1,2,0:0:0:0:
448,192,113012,1,0,0:0:0:0:
64,192,113183,1,8,0:0:0:0:
192,192,113183,1,0,0:0:0:0:
192,192,113355,1,2,0:0:0:0:
448,192,113355,1,0,0:0:0:0:
64,192,113526,1,4,1:0:0:0:
320,192,113526,1,4,0:0:0:0:
64,192,113698,1,2,0:0:0:0:
320,192,113698,1,0,0:0:0:0:
192,192,113869,1,8,0:0:0:0:
448,192,113869,1,0,0:0:0:0:
320,192,114040,1,2,0:0:0:0:
192,192,114126,1,2,0:0:0:0:
64,192,114212,1,2,0:0:0:0:
320,192,114212,1,0,0:0:0:0:
64,192,114383,1,2,0:0:0:0:
320,192,114383,1,0,0:0:0:0:
192,192,114555,1,8,0:0:0:0:
448,192,114555,1,0,0:0:0:0:
192,192,114898,1,2,0:0:0:0:
448,192,114898,1,0,0:0:0:0:
192,192,115069,1,2,0:0:0:0:
448,192,115069,1,0,0:0:0:0:
64,192,115240,1,8,0:0:0:0:
320,192,115240,1,0,0:0:0:0:
192,192,115412,1,2,0:0:0:0:
320,192,115498,1,2,0:0:0:0:
192,192,115583,1,2,0:0:0:0:
448,192,115583,1,0,0:0:0:0:
192,192,115755,1,2,0:0:0:0:
448,192,115755,1,0,0:0:0:0:
64,192,115926,1,8,0:0:0:0:
320,192,115926,1,0,0:0:0:0:
64,192,116269,1,2,0:0:0:0:
192,192,116269,1,0,0:0:0:0:
64,192,116440,1,2,0:0:0:0:
192,192,116440,1,0,0:0:0:0:
320,192,116612,1,8,0:0:0:0:
448,192,116612,1,0,0:0:0:0:
192,192,116783,1,2,0:0:0:0:
320,192,116869,1,2,0:0:0:0:
64,192,116955,1,2,0:0:0:0:
192,192,116955,1,0,0:0:0:0:
64,192,117126,1,2,0:0:0:0:
192,192,117126,1,0,0:0:0:0:
320,192,117298,1,8,0:0:0:0:
448,192,117298,1,0,0:0:0:0:
192,192,117640,1,2,0:0:0:0:
320,192,117640,1,0,0:0:0:0:
192,192,117812,1,2,0:0:0:0:
320,192,117812,1,0,0:0:0:0:
64,192,117983,1,8,0:0:0:0:
448,192,117983,1,0,0:0:0:0:
192,192,118155,1,2,0:0:0:0:
64,192,118240,1,2,0:0:0:0:
192,192,118326,1,2,0:0:0:0:
320,192,118326,1,0,0:0:0:0:
192,192,118498,1,2,0:0:0:0:
320,192,118498,1,0,0:0:0:0:
64,192,118669,1,8,0:0:0:0:
448,192,118669,1,0,0:0:0:0:
320,192,119012,1,2,0:0:0:0:
448,192,119012,1,0,0:0:0:0:
320,192,119183,1,2,0:0:0:0:
448,192,119183,1,0,0:0:0:0:
64,192,119355,1,8,0:0:0:0:
192,192,119355,1,0,0:0:0:0:
320,192,119526,1,2,0:0:0:0:
192,192,119612,1,2,0:0:0:0:
320,192,119698,1,2,0:0:0:0:
448,192,119698,1,0,0:0:0:0:
320,192,119869,1,2,0:0:0:0:
448,192,119869,1,0,0:0:0:0:
64,192,120040,1,8,0:0:0:0:
192,192,120040,1,0,0:0:0:0:
64,192,120383,1,2,0:0:0:0:
448,192,120383,1,0,0:0:0:0:
64,192,120555,1,2,0:0:0:0:
448,192,120555,1,0,0:0:0:0:
192,192,120726,1,8,0:0:0:0:
320,192,120726,1,0,0:0:0:0:
192,192,120898,1,2,0:0:0:0:
320,192,120983,1,2,0:0:0:0:
64,192,121069,1,2,0:0:0:0:
448,192,121069,1,0,0:0:0:0:
64,192,121240,1,2,0:0:0:0:
448,192,121240,1,0,0:0:0:0:
192,192,121412,1,8,0:0:0:0:
320,192,121412,1,0,0:0:0:0:
64,192,121755,1,2,0:0:0:0:
192,192,121755,1,0,0:0:0:0:
192,192,121926,1,2,0:0:0:0:
320,192,121926,1,0,0:0:0:0:
320,192,122098,1,8,0:0:0:0:
448,192,122098,1,0,0:0:0:0:
192,192,122355,1,2,0:0:0:0:
320,192,122440,1,2,0:0:0:0:
448,192,122440,1,0,0:0:0:0:
192,192,122612,1,2,0:0:0:0:
320,192,122612,1,0,0:0:0:0:
64,192,122783,1,8,0:0:0:0:
192,192,122783,1,0,0:0:0:0:
320,192,122955,1,2,0:0:0:0:
192,192,123126,1,0,0:0:0:0:
448,192,123126,1,0,0:0:0:0:
64,192,123298,1,8,0:0:0:0:
320,192,123298,1,0,0:0:0:0:
64,192,123469,1,8,0:0:0:0:
320,192,123469,1,0,0:0:0:0:
192,192,123812,1,2,0:0:0:0:
448,192,123812,1,0,0:0:0:0:
64,192,123983,1,8,0:0:0:0:
320,192,123983,1,0,0:0:0:0:
192,192,124069,1,2,0:0:0:0:
64,192,124155,1,8,0:0:0:0:
448,192,124155,1,0,0:0:0:0:
192,192,124326,1,2,0:0:0:0:
320,192,124326,1,0,0:0:0:0:
64,192,124498,128,4,125012:0:0:0:0:
192,192,124498,1,4,1:0:0:0:
448,192,124498,1,0,0:0:0:0:
320,192,124669,1,0,0:0:0:0:
192,192,124840,1,0,0:0:0:0:
320,192,125012,128,2,125869:0:0:0:0:
448,192,125012,1,0,0:0:0:0:
64,192,125183,1,0,0:0:0:0:
192,192,125355,1,2,0:0:0:0:
64,192,125526,1,2,1:0:0:0:
448,192,125526,1,8,0:0:0:0:
192,192,125698,1,0,0:0:0:0:
64,192,125869,128,2,126383:0:0:0:0:
448,192,125869,1,0,0:0:0:0:
320,192,126040,1,0,0:0:0:0:
192,192,126212,1,0,0:0:0:0:
320,192,126383,1,2,0:0:0:0:
448,192,126383,128,0,127240:0:0:0:0:
192,192,126555,1,0,0:0:0:0:
64,192,126726,1,2,0:0:0:0:
192,192,126898,1,8,0:0:0:0:
320,192,126898,1,0,0:0:0:0:
64,192,127069,1,0,0:0:0:0:
192,192,127240,128,2,127755:0:0:0:0:
320,192,127240,1,0,0:0:0:0:
64,192,127412,1,0,0:0:0:0:
448,192,127583,1,0,0:0:0:0:
64,192,127755,1,2,0:0:0:0:
320,192,127755,128,0,128612:0:0:0:0:
448,192,127926,1,0,0:0:0:0:
192,192,128098,1,2,0:0:0:0:
64,192,128269,1,8,0:0:0:0:
448,192,128269,1,0,0:0:0:0:
192,192,128440,1,0,0:0:0:0:
64,192,128612,128,2,129126:0:0:0:0:
448,192,128612,1,0,0:0:0:0:
192,192,128783,1,0,0:0:0:0:
320,192,128955,1,0,0:0:0:0:
192,192,129126,1,2,0:0:0:0:
448,192,129126,128,0,129983:0:0:0:0:
64,192,129298,1,0,0:0:0:0:
192,192,129469,1,8,0:0:0:0:
320,192,129469,1,0,0:0:0:0:
64,192,129640,1,4,0:0:0:0:
192,192,129640,1,8,0:0:0:0:
64,192,129812,1,2,0:0:0:0:
320,192,129812,1,0,0:0:0:0:
192,192,129983,128,2,130498:0:0:0:0:
320,192,129983,1,4,0:0:0:0:
64,192,130155,1,0,0:0:0:0:
320,192,130326,1,0,0:0:0:0:
64,192,130498,1,2,0:0:0:0:
448,192,130498,128,0,131355:0:0:0:0:
320,192,130669,1,0,0:0:0:0:
192,192,130840,1,2,0:0:0:0:
64,192,131012,1,2,1:0:0:0:
320,192,131012,1,8,0:0:0:0:
192,192,131183,1,0,0:0:0:0:
64,192,131355,128,2,131869:0:0:0:0:
320,192,131355,1,0,0:0:0:0:
448,192,131526,1,0,0:0:0:0:
192,192,131698,1,0,0:0:0:0:
320,192,131869,1,2,0:0:0:0:
448,192,131869,128,0,132383:0:0:0:0:
192,192,132040,1,0,0:0:0:0:
64,192,132212,1,2,0:0:0:0:
320,192,132212,1,0,0:0:0:0:
64,192,132383,1,8,0:0:0:0:
192,192,132383,128,0,132726:0:0:0:0:
64,192,132726,1,4,0:0:0:0:
320,192,132726,1,4,1:0:0:0:
448,192,132726,1,0,0:0:0:0:
192,192,132898,1,0,0:0:0:0:
320,192,133069,1,8,0:0:0:0:
448,192,133069,128,0,133240:0:0:0:0:
64,192,133240,1,0,0:0:0:0:
192,192,133412,1,2,0:0:0:0:
64,192,133583,128,8,133755:0:0:0:0:
320,192,133583,1,0,0:0:0:0:
448,192,133755,1,2,0:0:0:0:
192,192,133926,1,8,0:0:0:0:
320,192,133926,128,0,134098:0:0:0:0:
64,192,134098,1,2,0:0:0:0:
448,192,134269,1,2,0:0:0:0:
64,192,134440,1,8,0:0:0:0:
192,192,134440,128,0,134783:0:0:0:0:
448,192,134612,1,0,0:0:0:0:
320,192,134783,1,2,0:0:0:0:
64,192,134955,128,8,135126:0:0:0:0:
192,192,134955,1,0,0:0:0:0:
320,192,135126,1,2,0:0:0:0:
192,192,135298,1,8,0:0:0:0:
448,192,135298,128,0,135469:0:0:0:0:
64,192,135469,1,2,0:0:0:0:
320,192,135640,1,8,0:0:0:0:
448,192,135640,1,4,0:0:0:0:
64,192,135812,128,8,136155:0:0:0:0:
192,192,135812,1,4,0:0:0:0:
320,192,135812,1,0,0:0:0:0:
448,192,136155,1,2,0:0:0:0:
64,192,136326,1,8,0:0:0:0:
192,192,136326,1,4,0:0:0:0:
192,192,136498,1,4,0:0:0:0:
320,192,136498,1,8,0:0:0:0:
448,192,136498,128,0,136840:0:0:0:0:
64,192,136840,1,2,0:0:0:0:
192,192,137012,1,4,0:0:0:0:
320,192,137012,1,8,0:0:0:0:
64,192,137183,128,8,137526:0:0:0:0:
320,192,137183,1,4,0:0:0:0:
448,192,137183,128,0,137526:0:0:0:0:
192,192,137526,128,2,138212:0:0:0:0:
320,192,137526,128,0,138212:0:0:0:0:
64,192,138212,128,8,138555:0:0:0:0:
448,192,138212,1,4,1:0:0:0:
192,192,138555,128,8,138898:0:0:0:0:
448,192,138555,1,4,0:0:0:0:
64,192,138898,1,4,0:0:0:0:
320,192,138898,128,8,139240:0:0:0:0:
448,192,138898,1,0,0:0:0:0:
64,192,139240,1,2,0:0:0:0:
448,192,139240,1,0,0:0:0:0:
192,192,139412,1,4,0:0:0:0:
320,192,139412,1,8,0:0:0:0:
192,192,139755,1,8,0:0:0:0:
320,192,139755,1,4,0:0:0:0:
64,192,139926,1,4,0:0:0:0:
448,192,139926,1,8,0:0:0:0:
64,192,140269,1,4,0:0:0:0:
192,192,140269,128,8,140612:0:0:0:0:
320,192,140269,128,0,140612:0:0:0:0:
64,192,140612,1,2,0:0:0:0:
448,192,140612,1,0,0:0:0:0:
192,192,140698,1,2,0:0:0:0:
320,192,140783,1,2,0:0:0:0:
448,192,140869,1,2,0:0:0:0:
64,192,140955,1,4,1:0:0:0:
192,192,140955,1,4,0:0:0:0:
320,192,140955,1,0,0:0:0:0:
448,192,141126,1,2,0:0:0:0:
192,192,141298,1,8,0:0:0:0:
448,192,141298,1,0,0:0:0:0:
192,192,141469,1,2,0:0:0:0:
320,192,141640,1,2,0:0:0:0:
320,192,141812,1,2,0:0:0:0:
64,192,141983,1,8,0:0:0:0:
448,192,141983,1,0,0:0:0:0:
64,192,142155,1,2,0:0:0:0:
192,192,142326,1,2,0:0:0:0:
320,192,142326,1,0,0:0:0:0:
192,192,142498,1,2,0:0:0:0:
64,192,142669,1,8,0:0:0:0:
448,192,142669,1,0,0:0:0:0:
448,192,142840,1,2,0:0:0:0:
64,192,143012,128,2,143355:0:0:0:0:
320,192,143012,1,0,0:0:0:0:
320,192,143183,1,2,0:0:0:0:
192,192,143355,1,8,0:0:0:0:
448,192,143355,128,0,143698:0:0:0:0:
192,192,143526,1,2,0:0:0:0:
64,192,143698,1,8,0:0:0:0:
320,192,143698,128,4,144040:0:0:0:0:
192,192,144040,128,8,144383:0:0:0:0:
448,192,144040,1,4,0:0:0:0:
64,192,144383,128,4,144726:0:0:0:0:
320,192,144383,1,8,0:0:0:0:
448,192,144383,1,0,0:0:0:0:
192,192,144726,1,2,0:0:0:0:
448,192,144726,1,0,0:0:0:0:
64,192,144898,1,4,0:0:0:0:
320,192,144898,1,8,0:0:0:0:
64,192,145240,1,8,0:0:0:0:
448,192,145240,1,4,0:0:0:0:
192,192,145412,1,4,0:0:0:0:
320,192,145412,1,8,0:0:0:0:
64,192,145755,128,4,146098:0:0:0:0:
192,192,145755,1,8,0:0:0:0:
448,192,145755,128,0,146098:0:0:0:0:
192,192,146098,1,2,0:0:0:0:
320,192,146098,1,0,0:0:0:0:
64,192,146183,1,2,0:0:0:0:
448,192,146269,1,2,0:0:0:0:
192,192,146355,1,2,0:0:0:0:
64,192,146440,1,4,1:0:0:0:
320,192,146440,1,4,0:0:0:0:
448,192,146440,1,0,0:0:0:0:
192,192,146612,1,2,0:0:0:0:
192,192,146783,1,8,0:0:0:0:
448,192,146783,1,0,0:0:0:0:
448,192,146955,1,2,0:0:0:0:
64,192,147126,1,2,0:0:0:0:
64,192,147298,1,2,0:0:0:0:
192,192,147469,1,8,0:0:0:0:
320,192,147469,1,0,0:0:0:0:
320,192,147640,1,2,0:0:0:0:
192,192,147812,1,2,0:0:0:0:
448,192,147812,1,0,0:0:0:0:
448,192,147983,1,2,0:0:0:0:
64,192,148155,1,8,0:0:0:0:
320,192,148155,1,0,0:0:0:0:
64,192,148326,1,2,0:0:0:0:
192,192,148498,1,2,0:0:0:0:
192,192,148669,1,2,0:0:0:0:
320,192,148840,1,8,0:0:0:0:
448,192,148840,1,0,0:0:0:0:
64,192,149012,1,8,0:0:0:0:
192,192,149012,1,0,0:0:0:0:
64,192,149183,1,4,1:0:0:0:
320,192,149183,1,4,0:0:0:0:
448,192,149183,128,0,150555:0:0:0:0:
192,192,149355,1,2,0:0:0:0:
64,192,149526,1,8,0:0:0:0:
320,192,149526,1,0,0:0:0:0:
192,192,149698,1,2,0:0:0:0:
320,192,149869,1,2,0:0:0:0:
192,192,150040,1,2,0:0:0:0:
64,192,150212,1,8,0:0:0:0:
320,192,150212,1,0,0:0:0:0:
192,192,150383,1,2,0:0:0:0:
64,192,150555,128,4,151926:1:0:0:0:
320,192,150555,1,4,0:0:0:0:
192,192,150726,1,2,0:0:0:0:
320,192,150898,1,8,0:0:0:0:
448,192,150898,1,0,0:0:0:0:
192,192,151069,1,2,0:0:0:0:
448,192,151240,1,2,0:0:0:0:
320,192,151412,1,2,0:0:0:0:
192,192,151583,1,8,0:0:0:0:
448,192,151583,1,0,0:0:0:0:
320,192,151755,1,2,0:0:0:0:
192,192,151926,1,2,0:0:0:0:
64,192,152098,1,8,0:0:0:0:
320,192,152098,1,4,0:0:0:0:
192,192,152269,1,4,0:0:0:0:
320,192,152269,1,8,0:0:0:0:
448,192,152269,128,0,152612:0:0:0:0:
64,192,152440,1,2,0:0:0:0:
64,192,152612,1,2,0:0:0:0:
192,192,152783,1,8,0:0:0:0:
448,192,152783,1,4,0:0:0:0:
64,192,152955,128,4,153298:0:0:0:0:
192,192,152955,1,8,0:0:0:0:
320,192,152955,1,0,0:0:0:0:
320,192,153298,1,2,0:0:0:0:
448,192,153298,128,0,153469:0:0:0:0:
64,192,153640,1,8,0:0:0:0:
192,192,153640,128,0,153812:0:0:0:0:
320,192,153983,128,8,154155:0:0:0:0:
448,192,153983,1,0,0:0:0:0:
64,192,154326,128,8,154498:0:0:0:0:
192,192,154326,1,0,0:0:0:0:
192,192,154669,1,8,0:0:0:0:
320,192,154669,1,4,1:0:0:0:
448,192,154669,128,0,155012:0:0:0:0:
64,192,155012,128,8,155355:0:0:0:0:
192,192,155012,1,4,0:0:0:0:
192,192,155355,1,4,0:0:0:0:
320,192,155355,128,8,155698:0:0:0:0:
448,192,155355,1,0,0:0:0:0:
192,192,155698,1,2,0:0:0:0:
448,192,155698,1,0,0:0:0:0:
64,192,155869,1,4,0:0:0:0:
320,192,155869,1,8,0:0:0:0:
64,192,156212,1,8,0:0:0:0:
320,192,156212,1,4,0:0:0:0:
192,192,156383,1,4,0:0:0:0:
448,192,156383,1,8,0:0:0:0:
64,192,156726,128,4,157069:0:0:0:0:
320,192,156726,128,8,157069:0:0:0:0:
448,192,156726,1,0,0:0:0:0:
192,192,157069,1,0,0:0:0:0:
448,192,157069,1,0,0:0:0:0:
320,192,157155,1,2,0:0:0:0:
192,192,157240,1,2,0:0:0:0:
64,192,157326,1,2,0:0:0:0:
192,192,157412,1,4,1:0:0:0:
320,192,157412,1,4,0:0:0:0:
448,192,157412,1,0,0:0:0:0:
64,192,157583,1,2,0:0:0:0:
64,192,157755,1,8,0:0:0:0:
320,192,157755,1,0,0:0:0:0:
320,192,157926,1,2,0:0:0:0:
192,192,158098,1,2,0:0:0:0:
192,192,158269,1,2,0:0:0:0:
64,192,158440,1,8,0:0:0:0:
448,192,158440,1,0,0:0:0:0:
448,192,158612,1,2,0:0:0:0:
192,192,158783,1,2,0:0:0:0:
320,192,158783,1,0,0:0:0:0:
192,192,158955,1,2,0:0:0:0:
64,192,159126,1,8,0:0:0:0:
320,192,159126,1,0,0:0:0:0:
320,192,159298,1,2,0:0:0:0:
192,192,159469,1,2,0:0:0:0:
448,192,159469,128,0,159812:0:0:0:0:
192,192,159640,1,2,0:0:0:0:
64,192,159812,128,8,160155:0:0:0:0:
320,192,159812,1,0,0:0:0:0:
320,192,159983,1,2,0:0:0:0:
192,192,160155,128,8,160498:0:0:0:0:
448,192,160155,1,4,0:0:0:0:
320,192,160498,1,8,0:0:0:0:
448,192,160498,128,4,160840:0:0:0:0:
64,192,160840,128,4,161183:0:0:0:0:
192,192,160840,1,8,0:0:0:0:
320,192,160840,1,0,0:0:0:0:
192,192,161183,1,2,0:0:0:0:
448,192,161183,1,0,0:0:0:0:
320,192,161355,1,4,0:0:0:0:
448,192,161355,1,8,0:0:0:0:
64,192,161698,1,4,0:0:0:0:
320,192,161698,1,8,0:0:0:0:
64,192,161869,1,4,0:0:0:0:
192,192,161869,1,8,0:0:0:0:
64,192,162212,1,4,0:0:0:0:
192,192,162212,128,8,162555:0:0:0:0:
448,192,162212,128,0,162555:0:0:0:0:
64,192,162555,1,2,0:0:0:0:
320,192,162555,1,0,0:0:0:0:
192,192,162640,1,2,0:0:0:0:
448,192,162726,1,2,0:0:0:0:
320,192,162812,1,2,0:0:0:0:
64,192,162898,128,4,163583:0:0:0:0:
192,192,162898,1,4,1:0:0:0:
448,192,162898,1,0,0:0:0:0:
320,192,163069,1,2,0:0:0:0:
192,192,163240,1,8,0:0:0:0:
448,192,163240,1,0,0:0:0:0:
320,192,163412,1,2,0:0:0:0:
192,192,163583,1,2,0:0:0:0:
448,192,163583,128,0,164269:0:0:0:0:
320,192,163755,1,2,0:0:0:0:
64,192,163926,1,8,0:0:0:0:
192,192,163926,1,0,0:0:0:0:
320,192,164098,1,2,0:0:0:0:
64,192,164269,1,2,0:0:0:0:
192,192,164269,128,0,164955:0:0:0:0:
448,192,164440,1,2,0:0:0:0:
64,192,164612,1,8,0:0:0:0:
320,192,164612,1,0,0:0:0:0:
448,192,164783,1,2,0:0:0:0:
64,192,164955,1,2,0:0:0:0:
320,192,164955,128,0,165640:0:0:0:0:
448,192,165126,1,2,0:0:0:0:
64,192,165298,1,8,0:0:0:0:
192,192,165298,1,0,0:0:0:0:
192,192,165469,1,8,0:0:0:0:
448,192,165469,1,0,0:0:0:0:
64,192,165640,128,4,167012:0:0:0:0:
448,192,165640,1,4,1:0:0:0:
192,192,165812,1,2,0:0:0:0:
320,192,165983,1,8,0:0:0:0:
448,192,165983,1,0,0:0:0:0:
192,192,166155,1,2,0:0:0:0:
448,192,166326,1,2,0:0:0:0:
320,192,166498,1,2,0:0:0:0:
192,192,166669,1,8,0:0:0:0:
448,192,166669,1,0,0:0:0:0:
320,192,166840,1,2,0:0:0:0:
192,192,167012,1,4,1:0:0:0:
448,192,167012,128,4,168383:0:0:0:0:
320,192,167183,1,2,0:0:0:0:
64,192,167355,1,8,0:0:0:0:
192,192,167355,1,0,0:0:0:0:
320,192,167526,1,2,0:0:0:0:
192,192,167698,1,2,0:0:0:0:
64,192,167869,1,2,0:0:0:0:
192,192,168040,1,8,0:0:0:0:
320,192,168040,1,0,0:0:0:0:
64,192,168212,1,2,0:0:0:0:
192,192,168383,128,4,169755:1:0:0:0:
320,192,168383,1,4,0:0:0:0:
64,192,168555,1,2,0:0:0:0:
320,192,168726,1,8,0:0:0:0:
448,192,168726,1,0,0:0:0:0:
64,192,168898,1,2,0:0:0:0:
320,192,169069,1,2,0:0:0:0:
448,192,169240,1,2,0:0:0:0:
64,192,169412,1,8,0:0:0:0:
320,192,169412,1,0,0:0:0:0:
448,192,169583,1,2,0:0:0:0:
64,192,169755,1,4,1:0:0:0:
320,192,169755,128,4,171126:0:0:0:0:
448,192,169926,1,2,0:0:0:0:
64,192,170098,1,8,0:0:0:0:
192,192,170098,1,0,0:0:0:0:
448,192,170269,1,2,0:0:0:0:
64,192,170440,1,2,0:0:0:0:
192,192,170612,1,2,0:0:0:0:
64,192,170783,1,8,0:0:0:0:
448,192,170783,1,0,0:0:0:0:
192,192,170955,1,2,0:0:0:0:
64,192,171126,1,4,0:0:0:0:
448,192,171126,1,4,1:0:0:0:
64,192,171298,1,2,0:0:0:0:
192,192,171469,1,8,0:0:0:0:
448,192,171469,1,0,0:0:0:0:
192,192,171640,1,2,0:0:0:0:
64,192,171812,1,8,0:0:0:0:
320,192,171812,1,0,0:0:0:0:
320,192,171983,1,2,0:0:0:0:
192,192,172155,1,8,0:0:0:0:
448,192,172155,1,0,0:0:0:0:
448,192,172326,1,2,0:0:0:0:
64,192,172498,1,8,0:0:0:0:
320,192,172498,1,0,0:0:0:0:
320,192,172669,1,2,0:0:0:0:
192,192,172840,1,8,0:0:0:0:
448,192,172840,1,0,0:0:0:0:
192,192,173012,1,2,0:0:0:0:
64,192,173183,1,8,0:0:0:0:
320,192,173183,1,0,0:0:0:0:
64,192,173355,1,2,0:0:0:0:
192,192,173526,1,8,0:0:0:0:
448,192,173526,1,0,0:0:0:0:
64,192,173698,1,2,0:0:0:0:
320,192,173698,1,0,0:0:0:0:
448,192,173869,1,2,0:0:0:0:
64,192,174040,1,4,0:0:0:0:
192,192,174040,1,8,0:0:0:0:
64,192,174212,1,8,0:0:0:0:
320,192,174212,1,4,0:0:0:0:
448,192,174212,128,0,174555:0:0:0:0:
192,192,174383,1,2,0:0:0:0:
192,192,174555,1,2,0:0:0:0:
320,192,174726,1,4,0:0:0:0:
448,192,174726,1,8,0:0:0:0:
64,192,174898,128,8,175240:0:0:0:0:
192,192,174898,1,4,0:0:0:0:
448,192,174898,1,0,0:0:0:0:
320,192,175069,1,2,0:0:0:0:
192,192,175240,1,8,0:0:0:0:
448,192,175240,128,0,175412:0:0:0:0:
192,192,175583,128,8,175755:0:0:0:0:
320,192,175583,1,0,0:0:0:0:
64,192,175926,128,8,176269:0:0:0:0:
320,192,175926,1,0,0:0:0:0:
192,192,176269,1,8,0:0:0:0:
448,192,176269,128,0,176612:0:0:0:0:
64,192,176612,1,8,0:0:0:0:
192,192,176612,128,4,176783:1:0:0:0:
320,192,176612,1,0,0:0:0:0:
64,192,176955,1,8,0:0:0:0:
320,192,176955,128,4,177126:0:0:0:0:
64,192,177298,1,4,0:0:0:0:
192,192,177298,1,8,0:0:0:0:
448,192,177298,128,0,177640:0:0:0:0:
192,192,177640,1,2,0:0:0:0:
320,192,177640,1,0,0:0:0:0:
64,192,177812,128,4,178155:0:0:0:0:
448,192,177812,1,8,0:0:0:0:
192,192,178155,1,8,0:0:0:0:
448,192,178155,1,4,0:0:0:0:
64,192,178326,1,4,0:0:0:0:
320,192,178326,128,8,178498:0:0:0:0:
64,192,178669,1,4,0:0:0:0:
192,192,178669,1,8,0:0:0:0:
448,192,178669,128,0,179012:0:0:0:0:
64,192,179012,1,2,0:0:0:0:
320,192,179012,1,0,0:0:0:0:
192,192,179098,1,2,0:0:0:0:
448,192,179183,1,2,0:0:0:0:
320,192,179269,1,2,0:0:0:0:
64,192,179355,128,4,180383:1:0:0:0:
192,192,179355,1,4,0:0:0:0:
448,192,179355,1,0,0:0:0:0:
320,192,179526,1,2,0:0:0:0:
192,192,179698,1,8,0:0:0:0:
448,192,179698,1,0,0:0:0:0:
320,192,179869,1,2,0:0:0:0:
192,192,180040,1,2,0:0:0:0:
320,192,180212,1,2,0:0:0:0:
192,192,180383,128,8,180555:0:0:0:0:
448,192,180383,1,0,0:0:0:0:
320,192,180555,128,2,180726:0:0:0:0:
192,192,180726,1,2,0:0:0:0:
448,192,180726,128,0,181412:0:0:0:0:
64,192,180898,1,2,0:0:0:0:
192,192,181069,1,8,0:0:0:0:
320,192,181069,1,0,0:0:0:0:
64,192,181240,1,2,0:0:0:0:
192,192,181412,128,2,181755:0:0:0:0:
320,192,181412,1,0,0:0:0:0:
64,192,181583,1,2,0:0:0:0:
320,192,181755,128,8,182098:0:0:0:0:
448,192,181755,1,0,0:0:0:0:
192,192,181926,1,2,0:0:0:0:
64,192,182098,128,8,182269:0:0:0:0:
448,192,182098,1,4,0:0:0:0:
192,192,182440,128,8,182612:0:0:0:0:
448,192,182440,1,4,0:0:0:0:
64,192,182783,1,4,0:0:0:0:
320,192,182783,128,8,183126:0:0:0:0:
448,192,182783,1,0,0:0:0:0:
64,192,183126,1,2,0:0:0:0:
192,192,183126,1,0,0:0:0:0:
320,192,183298,1,4,0:0:0:0:
448,192,183298,128,8,183640:0:0:0:0:
64,192,183640,128,8,183812:0:0:0:0:
192,192,183640,1,4,0:0:0:0:
320,192,183812,128,4,183983:0:0:0:0:
448,192,183812,1,8,0:0:0:0:
64,192,184155,1,4,0:0:0:0:
192,192,184155,128,8,184498:0:0:0:0:
448,192,184155,1,0,0:0:0:0:
64,192,184498,1,2,0:0:0:0:
320,192,184498,1,0,0:0:0:0:
448,192,184583,1,2,0:0:0:0:
192,192,184669,1,2,0:0:0:0:
320,192,184755,1,2,0:0:0:0:
64,192,184840,1,4,1:0:0:0:
192,192,184840,1,4,0:0:0:0:
448,192,184840,128,0,185526:0:0:0:0:
320,192,185012,1,2,0:0:0:0:
64,192,185183,1,8,0:0:0:0:
192,192,185183,1,0,0:0:0:0:
320,192,185355,1,2,0:0:0:0:
64,192,185526,1,2,0:0:0:0:
192,192,185526,128,0,186212:0:0:0:0:
448,192,185698,1,2,0:0:0:0:
64,192,185869,1,8,0:0:0:0:
320,192,185869,1,0,0:0:0:0:
448,192,186040,1,2,0:0:0:0:
64,192,186212,1,2,0:0:0:0:
320,192,186212,128,0,186898:0:0:0:0:
192,192,186383,1,2,0:0:0:0:
64,192,186555,1,8,0:0:0:0:
448,192,186555,1,0,0:0:0:0:
192,192,186726,1,2,0:0:0:0:
64,192,186898,128,2,187583:0:0:0:0:
448,192,186898,1,0,0:0:0:0:
192,192,187069,1,2,0:0:0:0:
320,192,187240,1,8,0:0:0:0:
448,192,187240,1,0,0:0:0:0:
192,192,187412,1,8,0:0:0:0:
448,192,187412,1,0,0:0:0:0:
192,192,187583,1,4,0:0:0:0:
320,192,187583,1,4,1:0:0:0:
64,192,187926,1,8,0:0:0:0:
448,192,187926,128,0,188098:0:0:0:0:
192,192,188098,128,2,188269:0:0:0:0:
64,192,188269,128,2,188612:0:0:0:0:
320,192,188269,1,0,0:0:0:0:
192,192,188440,1,2,0:0:0:0:
320,192,188612,128,8,188955:0:0:0:0:
448,192,188612,1,0,0:0:0:0:
192,192,188783,1,2,0:0:0:0:
64,192,188955,1,4,0:0:0:0:
448,192,188955,128,4,189126:1:0:0:0:
192,192,189126,128,2,189298:0:0:0:0:
320,192,189298,1,8,0:0:0:0:
448,192,189298,1,0,0:0:0:0:
64,192,189469,128,2,189640:0:0:0:0:
448,192,189640,1,2,0:0:0:0:
192,192,189812,1,2,0:0:0:0:
320,192,189812,128,0,190326:0:0:0:0:
64,192,189983,1,8,0:0:0:0:
448,192,189983,1,0,0:0:0:0:
192,192,190155,1,2,0:0:0:0:
64,192,190326,1,4,1:0:0:0:
448,192,190326,1,4,0:0:0:0:
320,192,190498,1,2,0:0:0:0:
192,192,190583,1,0,0:0:0:0:
64,192,190669,1,8,0:0:0:0:
448,192,190669,1,0,0:0:0:0:
320,192,190783,1,0,0:0:0:0:
192,192,190898,1,0,0:0:0:0:
64,192,191012,128,2,191183:0:0:0:0:
320,192,191012,1,0,0:0:0:0:
192,192,191183,128,2,191355:0:0:0:0:
320,192,191355,128,8,191698:0:0:0:0:
448,192,191355,1,0,0:0:0:0:
64,192,191698,128,4,192040:0:0:0:0:
192,192,191698,1,4,1:0:0:0:
320,192,192040,1,8,0:0:0:0:
448,192,192040,128,0,192383:0:0:0:0:
192,192,192212,1,2,0:0:0:0:
64,192,192383,1,2,0:0:0:0:
320,192,192383,1,0,0:0:0:0:
192,192,192555,1,2,0:0:0:0:
448,192,192555,1,0,0:0:0:0:
64,192,192726,1,8,0:0:0:0:
448,192,192726,1,0,0:0:0:0:
320,192,192898,1,2,0:0:0:0:
64,192,193069,128,4,193240:1:0:0:0:
192,192,193069,1,4,0:0:0:0:
448,192,193069,1,0,0:0:0:0:
320,192,193240,1,2,0:0:0:0:
192,192,193412,128,8,193583:0:0:0:0:
448,192,193412,1,0,0:0:0:0:
64,192,193755,1,8,0:0:0:0:
320,192,193755,128,0,193926:0:0:0:0:
192,192,194098,1,8,0:0:0:0:
448,192,194098,128,0,194269:0:0:0:0:
64,192,194440,1,8,0:0:0:0:
320,192,194440,128,0,194612:0:0:0:0:
192,192,194783,128,8,194955:0:0:0:0:
448,192,194783,1,0,0:0:0:0:
64,192,195126,128,8,195298:0:0:0:0:
320,192,195126,1,0,0:0:0:0:
192,192,195469,128,8,195640:0:0:0:0:
448,192,195469,1,0,0:0:0:0:
64,192,195640,1,2,0:0:0:0:
320,192,195726,1,2,0:0:0:0:
448,192,195812,1,2,0:0:0:0:
64,192,195983,1,8,0:0:0:0:
192,192,195983,1,4,0:0:0:0:
192,192,196155,1,4,0:0:0:0:
320,192,196155,1,8,0:0:0:0:
448,192,196155,1,0,0:0:0:0:
64,192,196326,1,2,0:0:0:0:
448,192,196498,1,2,0:0:0:0:
192,192,196669,1,8,0:0:0:0:
320,192,196669,1,4,0:0:0:0:
64,192,196840,1,4,0:0:0:0:
192,192,196840,1,8,0:0:0:0:
448,192,196840,1,0,0:0:0:0:
320,192,197012,1,2,0:0:0:0:
64,192,197183,128,8,197355:0:0:0:0:
192,192,197183,1,0,0:0:0:0:
320,192,197269,1,0,0:0:0:0:
448,192,197355,1,2,0:0:0:0:
64,192,197526,128,8,197698:0:0:0:0:
192,192,197526,1,0,0:0:0:0:
320,192,197612,1,0,0:0:0:0:
448,192,197698,1,2,0:0:0:0:
64,192,197869,128,8,198040:0:0:0:0:
192,192,197869,1,0,0:0:0:0:
320,192,197955,1,0,0:0:0:0:
448,192,198040,128,2,198212:0:0:0:0:
64,192,198212,128,8,198555:0:0:0:0:
192,192,198212,1,0,0:0:0:0:
192,192,198383,1,8,0:0:0:0:
320,192,198383,1,0,0:0:0:0:
320,192,198555,1,4,1:0:0:0:
448,192,198555,128,4,199069:0:0:0:0:
192,192,198726,1,0,0:0:0:0:
320,192,198898,1,0,0:0:0:0:
64,192,199069,1,2,0:0:0:0:
192,192,199069,128,0,199926:0:0:0:0:
448,192,199240,1,0,0:0:0:0:
320,192,199412,1,2,0:0:0:0:
64,192,199583,1,8,0:0:0:0:
448,192,199583,1,0,0:0:0:0:
320,192,199755,1,0,0:0:0:0:
64,192,199926,1,2,0:0:0:0:
448,192,199926,128,0,200440:0:0:0:0:
192,192,200098,1,0,0:0:0:0:
320,192,200269,1,0,0:0:0:0:
64,192,200440,128,2,201298:0:0:0:0:
192,192,200440,1,0,0:0:0:0:
320,192,200612,1,0,0:0:0:0:
448,192,200783,1,2,0:0:0:0:
192,192,200955,1,8,0:0:0:0:
320,192,200955,1,0,0:0:0:0:
448,192,201126,1,0,0:0:0:0:
192,192,201298,1,2,0:0:0:0:
320,192,201298,128,0,201812:0:0:0:0:
448,192,201469,1,0,0:0:0:0:
64,192,201640,1,0,0:0:0:0:
192,192,201812,128,2,202669:0:0:0:0:
448,192,201812,1,0,0:0:0:0:
64,192,201983,1,0,0:0:0:0:
320,192,202155,1,2,0:0:0:0:
64,192,202326,1,8,0:0:0:0:
448,192,202326,1,0,0:0:0:0:
320,192,202498,1,0,0:0:0:0:
64,192,202669,1,2,0:0:0:0:
448,192,202669,128,0,203183:0:0:0:0:
320,192,202840,1,0,0:0:0:0:
192,192,203012,1,0,0:0:0:0:
64,192,203183,128,2,204040:0:0:0:0:
320,192,203183,1,0,0:0:0:0:
448,192,203355,1,0,0:0:0:0:
192,192,203526,1,8,0:0:0:0:
320,192,203526,1,0,0:0:0:0:
320,192,203698,1,8,0:0:0:0:
448,192,203698,1,4,0:0:0:0:
192,192,203869,1,2,0:0:0:0:
448,192,203869,1,0,0:0:0:0:
192,192,204040,1,2,0:0:0:0:
320,192,204040,128,4,204555:0:0:0:0:
448,192,204212,1,0,0:0:0:0:
192,192,204383,1,0,0:0:0:0:
64,192,204555,128,2,205412:0:0:0:0:
448,192,204555,1,0,0:0:0:0:
192,192,204726,1,0,0:0:0:0:
320,192,204898,1,2,0:0:0:0:
192,192,205069,1,2,1:0:0:0:
448,192,205069,1,8,0:0:0:0:
320,192,205240,1,0,0:0:0:0:
192,192,205412,1,2,0:0:0:0:
448,192,205412,128,0,205926:0:0:0:0:
64,192,205583,1,0,0:0:0:0:
320,192,205755,1,0,0:0:0:0:
64,192,205926,128,2,206440:0:0:0:0:
192,192,205926,1,0,0:0:0:0:
320,192,206098,1,0,0:0:0:0:
192,192,206269,1,2,0:0:0:0:
448,192,206269,1,0,0:0:0:0:
320,192,206440,128,8,206783:0:0:0:0:
448,192,206440,1,0,0:0:0:0:
64,192,206783,1,4,1:0:0:0:
192,192,206783,1,4,0:0:0:0:
448,192,206783,1,0,0:0:0:0:
320,192,206955,1,0,0:0:0:0:
64,192,207126,128,8,207298:0:0:0:0:
192,192,207126,1,0,0:0:0:0:
448,192,207298,1,0,0:0:0:0:
320,192,207469,1,2,0:0:0:0:
192,192,207640,1,8,0:0:0:0:
448,192,207640,128,0,207812:0:0:0:0:
64,192,207812,1,2,0:0:0:0:
192,192,207983,128,8,208155:0:0:0:0:
320,192,207983,1,0,0:0:0:0:
448,192,208155,1,2,0:0:0:0:
64,192,208326,1,2,0:0:0:0:
192,192,208498,1,8,0:0:0:0:
320,192,208498,128,0,208840:0:0:0:0:
448,192,208669,1,0,0:0:0:0:
64,192,208840,1,2,0:0:0:0:
192,192,209012,1,8,0:0:0:0:
448,192,209012,128,0,209183:0:0:0:0:
320,192,209183,1,2,0:0:0:0:
64,192,209355,128,8,209526:0:0:0:0:
192,192,209355,1,0,0:0:0:0:
448,192,209526,1,2,0:0:0:0:
64,192,209698,1,8,0:0:0:0:
192,192,209698,1,4,0:0:0:0:
192,192,209869,1,4,0:0:0:0:
320,192,209869,128,8,210212:0:0:0:0:
448,192,209869,1,0,0:0:0:0:
64,192,210212,1,2,0:0:0:0:
320,192,210383,1,4,0:0:0:0:
448,192,210383,1,8,0:0:0:0:
64,192,210555,1,4,0:0:0:0:
192,192,210555,128,8,210898:0:0:0:0:
448,192,210555,1,0,0:0:0:0:
448,192,210898,1,2,0:0:0:0:
192,192,211069,1,8,0:0:0:0:
320,192,211069,1,4,0:0:0:0:
64,192,211240,1,4,0:0:0:0:
320,192,211240,1,8,0:0:0:0:
448,192,211240,1,0,0:0:0:0:
64,192,211583,1,2,0:0:0:0:
192,192,211583,128,0,212269:0:0:0:0:
448,192,211583,1,0,0:0:0:0:
320,192,211926,128,0,212269:0:0:0:0:
64,192,212269,1,2,0:0:0:0:
448,192,212269,1,0,0:0:0:0:
192,192,212440,1,2,0:0:0:0:
320,192,212526,1,2,0:0:0:0:
64,192,212612,1,2,0:0:0:0:
448,192,212612,1,0,0:0:0:0:
192,192,212783,1,2,0:0:0:0:
320,192,212869,1,2,0:0:0:0:
64,192,212955,1,4,1:0:0:0:
192,192,212955,1,8,0:0:0:0:
448,192,212955,1,0,0:0:0:0:
320,192,213297,1,4,0:0:0:0:
448,192,213297,1,8,0:0:0:0:
64,192,213640,1,8,0:0:0:0:
192,192,213640,1,4,0:0:0:0:
320,192,213640,1,0,0:0:0:0:
320,192,213983,1,2,0:0:0:0:
448,192,213983,1,0,0:0:0:0:
64,192,214155,1,8,0:0:0:0:
192,192,214155,1,4,0:0:0:0:
320,192,214497,1,4,0:0:0:0:
448,192,214497,1,8,0:0:0:0:
64,192,214669,1,8,0:0:0:0:
192,192,214669,1,4,0:0:0:0:
64,192,215012,1,8,0:0:0:0:
320,192,215012,1,4,0:0:0:0:
448,192,215012,1,0,0:0:0:0:
64,192,215355,1,2,0:0:0:0:
448,192,215355,1,0,0:0:0:0:
192,192,215440,1,2,0:0:0:0:
320,192,215526,1,2,0:0:0:0:
448,192,215612,1,2,0:0:0:0:
64,192,215697,1,4,0:0:0:0:
192,192,215697,1,4,1:0:0:0:
320,192,215697,1,0,0:0:0:0:
448,192,215869,1,2,0:0:0:0:
64,192,216040,1,8,0:0:0:0:
320,192,216040,1,0,0:0:0:0:
192,192,216212,1,2,0:0:0:0:
64,192,216383,1,2,0:0:0:0:
448,192,216383,1,0,0:0:0:0:
320,192,216555,1,2,0:0:0:0:
192,192,216726,1,8,0:0:0:0:
448,192,216726,1,0,0:0:0:0:
64,192,216897,1,2,0:0:0:0:
320,192,217069,1,2,0:0:0:0:
448,192,217069,1,0,0:0:0:0:
192,192,217240,1,2,0:0:0:0:
64,192,217412,1,8,0:0:0:0:
448,192,217412,1,0,0:0:0:0:
320,192,217583,1,2,0:0:0:0:
64,192,217755,1,2,0:0:0:0:
192,192,217755,1,0,0:0:0:0:
448,192,217926,1,2,0:0:0:0:
64,192,218097,1,8,0:0:0:0:
320,192,218097,1,0,0:0:0:0:
192,192,218269,1,2,0:0:0:0:
64,192,218440,1,4,0:0:0:0:
320,192,218440,1,8,0:0:0:0:
448,192,218440,1,0,0:0:0:0:
192,192,218783,1,4,0:0:0:0:
320,192,218783,1,8,0:0:0:0:
64,192,219126,1,8,0:0:0:0:
192,192,219126,1,4,0:0:0:0:
448,192,219126,1,0,0:0:0:0:
64,192,219469,1,2,0:0:0:0:
320,192,219469,1,0,0:0:0:0:
192,192,219640,1,8,0:0:0:0:
448,192,219640,1,4,0:0:0:0:
64,192,219983,1,4,0:0:0:0:
192,192,219983,1,8,0:0:0:0:
320,192,220155,1,8,0:0:0:0:
448,192,220155,1,4,0:0:0:0:
64,192,220497,1,8,0:0:0:0:
192,192,220497,1,4,0:0:0:0:
448,192,220497,1,0,0:0:0:0:
64,192,220840,1,2,0:0:0:0:
448,192,220840,1,0,0:0:0:0:
320,192,220926,1,2,0:0:0:0:
192,192,221012,1,2,0:0:0:0:
64,192,221097,1,2,0:0:0:0:
192,192,221183,1,4,0:0:0:0:
320,192,221183,1,4,1:0:0:0:
448,192,221183,1,0,0:0:0:0:
64,192,221355,1,2,0:0:0:0:
192,192,221526,1,8,0:0:0:0:
448,192,221526,1,0,0:0:0:0:
320,192,221697,1,2,0:0:0:0:
64,192,221869,1,2,0:0:0:0:
448,192,221869,1,0,0:0:0:0:
192,192,222040,1,2,0:0:0:0:
320,192,222212,1,8,0:0:0:0:
448,192,222212,1,0,0:0:0:0:
64,192,222383,1,2,0:0:0:0:
192,192,222555,1,2,0:0:0:0:
448,192,222555,1,0,0:0:0:0:
320,192,222726,1,2,0:0:0:0:
64,192,222897,1,8,0:0:0:0:
448,192,222897,1,0,0:0:0:0:
192,192,223069,1,2,0:0:0:0:
64,192,223240,1,2,0:0:0:0:
320,192,223240,1,0,0:0:0:0:
448,192,223412,1,2,0:0:0:0:
64,192,223583,1,8,0:0:0:0:
192,192,223583,1,0,0:0:0:0:
192,192,223755,1,8,0:0:0:0:
320,192,223755,1,0,0:0:0:0:
64,192,223926,1,4,0:0:0:0:
320,192,223926,1,2,0:0:0:0:
448,192,223926,1,0,0:0:0:0:
192,192,224097,1,2,0:0:0:0:
64,192,224269,1,8,0:0:0:0:
320,192,224269,1,0,0:0:0:0:
448,192,224440,1,2,0:0:0:0:
64,192,224612,1,2,0:0:0:0:
320,192,224612,1,0,0:0:0:0:
192,192,224783,1,2,0:0:0:0:
64,192,224955,1,8,0:0:0:0:
448,192,224955,1,0,0:0:0:0:
192,192,225126,1,2,0:0:0:0:
64,192,225297,1,4,0:0:0:0:
320,192,225297,1,2,0:0:0:0:
448,192,225297,1,0,0:0:0:0:
192,192,225469,1,2,0:0:0:0:
64,192,225640,1,8,0:0:0:0:
448,192,225640,1,0,0:0:0:0:
320,192,225812,1,2,0:0:0:0:
64,192,225983,1,2,0:0:0:0:
192,192,225983,1,0,0:0:0:0:
320,192,226155,1,2,0:0:0:0:
192,192,226326,1,8,0:0:0:0:
448,192,226326,1,0,0:0:0:0:
64,192,226497,1,2,0:0:0:0:
320,192,226497,1,0,0:0:0:0:
192,192,226669,1,2,0:0:0:0:
64,192,226840,1,4,0:0:0:0:
320,192,226840,1,8,0:0:0:0:
64,192,227012,1,8,0:0:0:0:
192,192,227012,1,4,0:0:0:0:
448,192,227012,1,0,0:0:0:0:
320,192,227183,1,2,0:0:0:0:
192,192,227355,1,2,0:0:0:0:
320,192,227526,1,4,0:0:0:0:
448,192,227526,1,8,0:0:0:0:
64,192,227697,1,8,0:0:0:0:
192,192,227697,1,4,0:0:0:0:
320,192,227697,1,0,0:0:0:0:
192,192,228040,1,2,0:0:0:0:
448,192,228040,1,0,0:0:0:0:
64,192,228383,1,8,0:0:0:0:
320,192,228383,1,0,0:0:0:0:
320,192,228726,1,8,0:0:0:0:
448,192,228726,1,0,0:0:0:0:
64,192,229069,1,8,0:0:0:0:
192,192,229069,1,0,0:0:0:0:
192,192,229240,1,8,0:0:0:0:
320,192,229240,1,0,0:0:0:0:
64,192,229412,1,4,1:0:0:0:
320,192,229412,1,8,0:0:0:0:
448,192,229412,1,0,0:0:0:0:
192,192,229755,1,4,0:0:0:0:
448,192,229755,1,8,0:0:0:0:
64,192,230097,1,8,0:0:0:0:
192,192,230097,1,4,0:0:0:0:
320,192,230097,1,0,0:0:0:0:
64,192,230440,1,2,0:0:0:0:
448,192,230440,1,0,0:0:0:0:
192,192,230612,1,8,0:0:0:0:
448,192,230612,1,4,0:0:0:0:
64,192,230955,1,4,0:0:0:0:
448,192,230955,1,8,0:0:0:0:
64,192,231126,1,8,0:0:0:0:
320,192,231126,1,4,0:0:0:0:
192,192,231469,1,8,0:0:0:0:
320,192,231469,1,4,0:0:0:0:
448,192,231469,1,0,0:0:0:0:
64,192,231812,1,0,0:0:0:0:
192,192,231812,1,0,0:0:0:0:
448,192,231897,1,2,0:0:0:0:
320,192,231983,1,2,0:0:0:0:
192,192,232069,1,2,0:0:0:0:
64,192,232155,1,4,0:0:0:0:
320,192,232155,1,4,1:0:0:0:
448,192,232155,1,0,0:0:0:0:
192,192,232326,1,2,0:0:0:0:
64,192,232497,1,8,0:0:0:0:
320,192,232497,1,0,0:0:0:0:
320,192,232669,1,2,0:0:0:0:
192,192,232840,1,2,0:0:0:0:
448,192,232840,1,0,0:0:0:0:
192,192,233012,1,2,0:0:0:0:
64,192,233183,1,8,0:0:0:0:
320,192,233183,1,0,0:0:0:0:
64,192,233355,1,2,0:0:0:0:
192,192,233526,1,2,0:0:0:0:
448,192,233526,1,0,0:0:0:0:
448,192,233697,1,2,0:0:0:0:
64,192,233869,1,8,0:0:0:0:
320,192,233869,1,0,0:0:0:0:
320,192,234040,1,2,0:0:0:0:
192,192,234212,1,2,0:0:0:0:
448,192,234212,1,0,0:0:0:0:
192,192,234383,1,2,0:0:0:0:
64,192,234555,1,8,0:0:0:0:
320,192,234555,1,0,0:0:0:0:
64,192,234726,1,2,0:0:0:0:
192,192,234897,1,4,0:0:0:0:
320,192,234897,1,8,0:0:0:0:
448,192,234897,1,0,0:0:0:0:
64,192,235240,1,4,0:0:0:0:
192,192,235240,1,8,0:0:0:0:
64,192,235583,1,8,0:0:0:0:
320,192,235583,1,4,0:0:0:0:
448,192,235583,1,0,0:0:0:0:
64,192,235926,1,2,0:0:0:0:
192,192,235926,1,0,0:0:0:0:
64,192,236097,1,8,0:0:0:0:
320,192,236097,1,4,0:0:0:0:
320,192,236440,1,8,0:0:0:0:
448,192,236440,1,4,0:0:0:0:
192,192,236612,1,8,0:0:0:0:
448,192,236612,1,4,0:0:0:0:
64,192,236955,1,8,0:0:0:0:
192,192,236955,1,4,0:0:0:0:
320,192,236955,1,0,0:0:0:0:
64,192,237297,1,2,0:0:0:0:
192,192,237297,1,0,0:0:0:0:
448,192,237383,1,2,0:0:0:0:
320,192,237469,1,2,0:0:0:0:
192,192,237555,1,2,0:0:0:0:
64,192,237640,1,4,1:0:0:0:
320,192,237640,1,4,0:0:0:0:
448,192,237640,1,0,0:0:0:0:
320,192,237812,1,2,0:0:0:0:
64,192,237983,1,8,0:0:0:0:
192,192,237983,1,0,0:0:0:0:
320,192,238155,1,2,0:0:0:0:
192,192,238326,1,2,0:0:0:0:
320,192,238326,1,0,0:0:0:0:
64,192,238497,1,2,0:0:0:0:
64,192,238669,1,8,0:0:0:0:
192,192,238669,1,0,0:0:0:0:
320,192,238840,1,2,0:0:0:0:
320,192,239012,1,2,0:0:0:0:
448,192,239012,1,0,0:0:0:0:
64,192,239183,1,2,0:0:0:0:
64,192,239355,1,8,0:0:0:0:
192,192,239355,1,0,0:0:0:0:
320,192,239526,1,2,0:0:0:0:
192,192,239697,1,2,0:0:0:0:
320,192,239697,1,0,0:0:0:0:
64,192,239869,1,2,0:0:0:0:
64,192,240040,1,8,0:0:0:0:
192,192,240040,1,0,0:0:0:0:
320,192,240212,1,8,0:0:0:0:
448,192,240212,1,0,0:0:0:0:
64,192,240383,1,4,1:0:0:0:
192,192,240383,1,4,0:0:0:0:
448,192,240383,1,0,0:0:0:0:
64,192,240726,1,8,0:0:0:0:
448,192,240726,1,0,0:0:0:0:
192,192,240897,1,2,0:0:0:0:
320,192,241069,1,2,0:0:0:0:
448,192,241069,1,0,0:0:0:0:
64,192,241240,1,2,0:0:0:0:
192,192,241412,1,8,0:0:0:0:
448,192,241412,1,0,0:0:0:0:
320,192,241583,1,2,0:0:0:0:
64,192,241755,1,4,0:0:0:0:
192,192,241755,1,4,1:0:0:0:
448,192,241755,1,0,0:0:0:0:
64,192,242097,1,8,0:0:0:0:
448,192,242097,1,0,0:0:0:0:
320,192,242269,1,2,0:0:0:0:
64,192,242440,1,2,0:0:0:0:
192,192,242440,1,0,0:0:0:0:
448,192,242612,1,2,0:0:0:0:
64,192,242783,1,8,0:0:0:0:
320,192,242783,1,0,0:0:0:0:
192,192,242955,1,2,0:0:0:0:
64,192,243126,1,4,0:0:0:0:
320,192,243126,1,4,1:0:0:0:
448,192,243126,1,0,0:0:0:0:
192,192,243469,1,8,0:0:0:0:
448,192,243469,1,0,0:0:0:0:
64,192,243640,1,2,0:0:0:0:
320,192,243812,1,2,0:0:0:0:
448,192,243812,1,0,0:0:0:0:
192,192,243983,1,2,0:0:0:0:
64,192,244155,1,8,0:0:0:0:
448,192,244155,1,0,0:0:0:0:
320,192,244326,1,2,0:0:0:0:
64,192,244497,1,4,0:0:0:0:
192,192,244497,1,4,1:0:0:0:
448,192,244497,1,0,0:0:0:0:
64,192,244840,1,8,0:0:0:0:
320,192,244840,1,0,0:0:0:0:
448,192,245012,1,2,0:0:0:0:
64,192,245183,1,2,0:0:0:0:
192,192,245183,1,0,0:0:0:0:
320,192,245355,1,2,0:0:0:0:
64,192,245526,1,8,0:0:0:0:
448,192,245526,1,0,0:0:0:0:
192,192,245697,1,2,0:0:0:0:
64,192,245869,1,4,1:0:0:0:
320,192,245869,1,4,0:0:0:0:
448,192,245869,1,0,0:0:0:0:
192,192,246040,1,2,0:0:0:0:
64,192,246212,1,8,0:0:0:0:
320,192,246212,1,0,0:0:0:0:
320,192,246383,1,2,0:0:0:0:
192,192,246555,1,8,0:0:0:0:
448,192,246555,1,0,0:0:0:0:
192,192,246726,1,2,0:0:0:0:
64,192,246897,1,8,0:0:0:0:
320,192,246897,1,0,0:0:0:0:
64,192,247069,1,2,0:0:0:0:
192,192,247240,1,8,0:0:0:0:
448,192,247240,1,0,0:0:0:0:
192,192,247412,1,2,0:0:0:0:
64,192,247583,1,8,0:0:0:0:
320,192,247583,1,0,0:0:0:0:
320,192,247755,1,2,0:0:0:0:
192,192,247926,1,8,0:0:0:0:
448,192,247926,1,0,0:0:0:0:
448,192,248097,1,2,0:0:0:0:
64,192,248269,1,8,0:0:0:0:
320,192,248269,1,0,0:0:0:0:
192,192,248440,1,2,0:0:0:0:
448,192,248440,1,0,0:0:0:0:
320,192,248612,1,2,0:0:0:0:
192,192,248783,1,4,0:0:0:0:
448,192,248783,1,8,0:0:0:0:
64,192,248955,1,8,0:0:0:0:
320,192,248955,128,4,249297:0:0:0:0:
448,192,248955,1,0,0:0:0:0:
192,192,249126,1,2,0:0:0:0:
64,192,249297,1,2,0:0:0:0:
192,192,249469,1,4,0:0:0:0:
448,192,249469,1,8,0:0:0:0:
64,192,249640,128,8,249983:0:0:0:0:
320,192,249640,1,4,0:0:0:0:
448,192,249640,1,0,0:0:0:0:
192,192,249812,1,2,0:0:0:0:
320,192,249983,1,8,0:0:0:0:
448,192,249983,1,0,0:0:0:0:
64,192,250326,1,8,0:0:0:0:
192,192,250326,1,0,0:0:0:0:
192,192,250669,1,8,0:0:0:0:
320,192,250669,1,0,0:0:0:0:
320,192,251012,1,8,0:0:0:0:
448,192,251012,1,0,0:0:0:0:
64,192,251355,1,4,1:0:0:0:
192,192,251355,128,4,254440:0:0:0:0:
320,192,251355,128,0,254440:0:0:0:0:
64,192,254783,128,2,255126:0:0:0:0:
192,192,254783,1,4,0:0:0:0:
320,192,255126,1,4,0:0:0:0:
448,192,255126,128,2,255469:0:0:0:0:
64,192,255469,1,8,0:0:0:0:
192,192,255469,1,4,1:0:0:0:
192,192,255812,1,8,0:0:0:0:
320,192,255812,1,4,0:0:0:0:
64,192,256155,1,4,0:0:0:0:
320,192,256155,1,8,0:0:0:0:
448,192,256155,1,0,0:0:0:0:
192,192,256497,1,2,0:0:0:0:
448,192,256497,1,0,0:0:0:0:
64,192,256669,1,8,0:0:0:0:
320,192,256669,1,4,0:0:0:0:
192,192,257012,1,8,0:0:0:0:
448,192,257012,1,4,0:0:0:0:
64,192,257183,1,8,0:0:0:0:
320,192,257183,1,4,0:0:0:0:
64,192,257526,1,8,0:0:0:0:
192,192,257526,1,4,0:0:0:0:
448,192,257526,1,0,0:0:0:0:
64,192,257869,1,2,0:0:0:0:
448,192,257869,1,0,0:0:0:0:
192,192,257955,1,2,0:0:0:0:
320,192,258040,1,2,0:0:0:0:
192,192,258126,1,2,0:0:0:0:
64,192,258212,128,4,259240:1:0:0:0:
320,192,258212,1,4,0:0:0:0:
448,192,258212,1,0,0:0:0:0:
192,192,258383,1,2,0:0:0:0:
320,192,258555,1,8,0:0:0:0:
448,192,258555,1,0,0:0:0:0:
192,192,258726,1,2,0:0:0:0:
448,192,258897,1,2,0:0:0:0:
320,192,259069,1,2,0:0:0:0:
192,192,259240,128,8,259412:0:0:0:0:
448,192,259240,1,0,0:0:0:0:
320,192,259412,128,2,259583:0:0:0:0:
64,192,259583,1,2,0:0:0:0:
448,192,259583,128,0,260269:0:0:0:0:
192,192,259755,1,2,0:0:0:0:
64,192,259926,1,8,0:0:0:0:
320,192,259926,1,0,0:0:0:0:
192,192,260097,1,2,0:0:0:0:
64,192,260269,1,2,0:0:0:0:
320,192,260269,128,0,260612:0:0:0:0:
192,192,260440,1,2,0:0:0:0:
64,192,260612,128,8,260955:0:0:0:0:
448,192,260612,1,0,0:0:0:0:
192,192,260783,1,8,0:0:0:0:
320,192,260783,1,0,0:0:0:0:
320,192,260955,1,8,0:0:0:0:
448,192,260955,1,4,0:0:0:0:
192,192,261297,1,8,0:0:0:0:
320,192,261297,1,4,0:0:0:0:
64,192,261640,1,4,0:0:0:0:
192,192,261640,1,8,0:0:0:0:
448,192,261640,1,0,0:0:0:0:
192,192,261983,1,2,0:0:0:0:
320,192,261983,1,0,0:0:0:0:
64,192,262155,1,8,0:0:0:0:
448,192,262155,1,4,0:0:0:0:
64,192,262497,1,8,0:0:0:0:
320,192,262497,1,4,0:0:0:0:
192,192,262669,1,8,0:0:0:0:
448,192,262669,1,4,0:0:0:0:
64,192,263012,1,8,0:0:0:0:
320,192,263012,1,4,0:0:0:0:
448,192,263012,1,0,0:0:0:0:
64,192,263355,1,2,0:0:0:0:
192,192,263355,1,0,0:0:0:0:
448,192,263440,1,2,0:0:0:0:
320,192,263526,1,2,0:0:0:0:
192,192,263612,1,2,0:0:0:0:
64,192,263697,128,4,264383:0:0:0:0:
320,192,263697,1,4,1:0:0:0:
448,192,263697,1,0,0:0:0:0:
192,192,263869,1,2,0:0:0:0:
320,192,264040,1,8,0:0:0:0:
448,192,264040,1,0,0:0:0:0:
192,192,264212,1,2,0:0:0:0:
320,192,264383,128,2,265069:0:0:0:0:
448,192,264383,1,0,0:0:0:0:
64,192,264555,1,2,0:0:0:0:
192,192,264726,1,8,0:0:0:0:
448,192,264726,1,0,0:0:0:0:
64,192,264897,1,2,0:0:0:0:
192,192,265069,128,2,265755:0:0:0:0:
448,192,265069,1,0,0:0:0:0:
320,192,265240,1,2,0:0:0:0:
64,192,265412,1,8,0:0:0:0:
448,192,265412,1,0,0:0:0:0:
320,192,265583,1,2,0:0:0:0:
64,192,265755,1,2,0:0:0:0:
448,192,265755,128,0,266440:0:0:0:0:
192,192,265926,1,2,0:0:0:0:
64,192,266097,1,8,0:0:0:0:
320,192,266097,1,0,0:0:0:0:
64,192,266269,1,8,0:0:0:0:
192,192,266269,1,0,0:0:0:0:
192,192,266440,1,4,1:0:0:0:
320,192,266440,1,4,0:0:0:0:
64,192,266783,1,8,0:0:0:0:
448,192,266783,1,0,0:0:0:0:
192,192,266955,1,2,0:0:0:0:
64,192,267126,1,2,0:0:0:0:
320,192,267126,128,0,267469:0:0:0:0:
192,192,267297,1,2,0:0:0:0:
64,192,267469,128,8,267812:0:0:0:0:
448,192,267469,1,0,0:0:0:0:
192,192,267640,1,2,0:0:0:0:
320,192,267812,1,4,1:0:0:0:
448,192,267812,128,4,268497:0:0:0:0:
64,192,267983,1,2,0:0:0:0:
192,192,268155,1,8,0:0:0:0:
320,192,268155,1,0,0:0:0:0:
64,192,268326,1,2,0:0:0:0:
192,192,268497,128,2,268840:0:0:0:0:
320,192,268497,1,0,0:0:0:0:
448,192,268669,1,2,0:0:0:0:
64,192,268840,128,8,269183:0:0:0:0:
320,192,268840,1,0,0:0:0:0:
320,192,269012,1,2,0:0:0:0:
192,192,269183,1,4,1:0:0:0:
448,192,269183,1,4,0:0:0:0:
192,192,269355,1,2,0:0:0:0:
320,192,269355,1,0,0:0:0:0:
320,192,269526,1,8,0:0:0:0:
448,192,269526,1,0,0:0:0:0:
64,192,269697,1,2,0:0:0:0:
192,192,269697,1,0,0:0:0:0:
320,192,269869,1,2,0:0:0:0:
448,192,269869,1,0,0:0:0:0:
192,192,270040,1,2,0:0:0:0:
320,192,270040,1,0,0:0:0:0:
64,192,270212,1,8,0:0:0:0:
192,192,270212,1,0,0:0:0:0:
320,192,270383,1,2,0:0:0:0:
448,192,270383,1,0,0:0:0:0:
64,192,270555,1,2,0:0:0:0:
192,192,270555,1,0,0:0:0:0:
192,192,270726,1,2,0:0:0:0:
320,192,270726,1,0,0:0:0:0:
320,192,270897,1,8,0:0:0:0:
448,192,270897,1,0,0:0:0:0:
64,192,271069,1,2,0:0:0:0:
192,192,271069,1,0,0:0:0:0:
320,192,271240,1,2,0:0:0:0:
448,192,271240,1,0,0:0:0:0:
192,192,271412,1,2,0:0:0:0:
320,192,271412,1,0,0:0:0:0:
64,192,271583,1,8,0:0:0:0:
192,192,271583,1,0,0:0:0:0:
320,192,271755,1,2,0:0:0:0:
448,192,271755,1,0,0:0:0:0:
64,192,271926,1,4,1:0:0:0:
192,192,271926,128,4,272612:0:0:0:0:
448,192,271926,1,0,0:0:0:0:
320,192,272097,1,2,0:0:0:0:
64,192,272269,1,8,0:0:0:0:
448,192,272269,1,0,0:0:0:0:
448,192,272440,1,2,0:0:0:0:
64,192,272612,1,8,0:0:0:0:
320,192,272612,128,0,273297:0:0:0:0:
64,192,272783,1,2,0:0:0:0:
192,192,272955,1,8,0:0:0:0:
448,192,272955,1,0,0:0:0:0:
448,192,273126,1,2,0:0:0:0:
64,192,273297,128,8,273983:0:0:0:0:
192,192,273297,1,0,0:0:0:0:
192,192,273469,1,2,0:0:0:0:
320,192,273640,1,8,0:0:0:0:
448,192,273640,1,0,0:0:0:0:
320,192,273812,1,2,0:0:0:0:
192,192,273983,1,8,0:0:0:0:
448,192,273983,128,0,274669:0:0:0:0:
192,192,274155,1,2,0:0:0:0:
64,192,274326,1,2,0:0:0:0:
320,192,274326,1,0,0:0:0:0:
64,192,274497,1,2,0:0:0:0:
192,192,274669,1,2,0:0:0:0:
320,192,274840,1,8,0:0:0:0:
448,192,274840,1,4,0:0:0:0:
64,192,275012,1,4,0:0:0:0:
192,192,275012,1,8,0:0:0:0:
448,192,275012,1,0,0:0:0:0:
320,192,275183,1,2,0:0:0:0:
320,192,275355,1,2,0:0:0:0:
64,192,275526,1,4,0:0:0:0:
192,192,275526,1,8,0:0:0:0:
64,192,275697,1,4,0:0:0:0:
320,192,275697,1,8,0:0:0:0:
448,192,275697,1,0,0:0:0:0:
192,192,275869,1,2,0:0:0:0:
64,192,276040,128,2,276383:0:0:0:0:
448,192,276040,1,0,0:0:0:0:
192,192,276212,1,8,0:0:0:0:
320,192,276212,1,0,0:0:0:0:
192,192,276383,1,2,0:0:0:0:
448,192,276383,128,0,276726:0:0:0:0:
64,192,276726,1,8,0:0:0:0:
320,192,276726,128,0,277069:0:0:0:0:
64,192,277069,1,8,0:0:0:0:
192,192,277069,128,0,277412:0:0:0:0:
64,192,277412,128,4,279469:0:0:0:0:
320,192,277412,1,4,1:0:0:0:
448,192,277412,128,0,279469:0:0:0:0:
320,192,278612,1,2,0:0:0:0:
192,192,278697,1,2,0:0:0:0:
320,192,278783,128,2,279469:0:0:0:0:
