osu file format v14

[General]
AudioFilename: audio.mp3
AudioLeadIn: 0
PreviewTime: 76126
Countdown: 0
SampleSet: Soft
StackLeniency: 0.2
Mode: 0
LetterboxInBreaks: 0
WidescreenStoryboard: 1

[Editor]
Bookmarks: 1379,10143,22952,23036,23120,23289,23373,23457,23542,23626,23710,23879,23963,24132,24300,24384,24553,24637,24722,24806,24890,24974,25059,25143,25227,25311,25396,25480,25564,25648,25733,25817,25901,25986,26070,26154,26238,26407,26575,26660,26828,26913,26997,27081,27165,27250,27418,27502,27587,27671,27839,28008,28177,28345,28514,28598,28682,28851,28935,29019,29104,29188,29272,29441,29525,29609,29693,29862,29946,30030,30115,30199,30283,30368,30536,30620,30705,30789,30873,30957,31042,31126,31210,31379,31463,31547,31632,31716,31800,31884,32053,32137,32222,32306,32390,32474,32559,32727,32896,33064,33148,33233,33317,33401,33486,33570,33738,55311,76884,98457,120030,141519,168570,177250,179356,211716,233289,254862,276435,287222,298008,319581,341154
DistanceSpacing: 0.5
BeatDivisor: 6
GridSize: 4
TimelineZoom: 2.2

[Metadata]
Title:White Eternity (Soleily & Epsilon Remix)
TitleUnicode:White Eternity (Soleily & Epsilon Remix)
Artist:Nitta Emi
ArtistUnicode:新田恵海
Creator:Nathan
Version:Yuuki
Source:アストラエアの白き永遠
Tags:sukinathan captin1 captin FAVORITE ASTRAL ARIA アストラル アリア Astralair no Shiroki Towa yuuki elfin RUNE galgame opening full soleily remix drumstep dnb drum and bass
BeatmapID:1099369
BeatmapSetID:517402

[Difficulty]
HPDrainRate:6
CircleSize:4
OverallDifficulty:9
ApproachRate:9.2
SliderMultiplier:1.92
SliderTickRate:1

[Events]
//Background and Video events
0,0,"pakupaku.png",0,0
//Break Periods
2,23152,33131
//Storyboard Layer 0 (Background)
//Storyboard Layer 1 (Fail)
//Storyboard Layer 2 (Pass)
//Storyboard Layer 3 (Foreground)
//Storyboard Sound Samples

[TimingPoints]
31,337.078651685393,4,2,1,60,1,0
1379,-133.333333333333,4,2,1,60,0,0
17559,-133.333333333333,4,2,1,60,0,0
18907,-117.647058823529,4,2,1,70,0,0
20255,-100,4,2,1,80,0,0
21604,-166.666666666667,4,2,1,60,0,0
64834,-166.666666666667,4,2,0,60,0,0
64918,-166.666666666667,4,2,1,60,0,0
66098,-133.333333333333,4,2,1,60,0,0
67362,-133.333333333333,4,2,0,60,0,0
67446,-133.333333333333,4,2,1,60,0,0
70227,-133.333333333333,4,2,0,60,0,0
70311,-133.333333333333,4,2,1,60,0,0
72839,-100,4,2,1,70,0,0
76547,-80,4,2,1,60,0,0
76884,-80,4,2,1,70,0,1
118514,-100,4,2,1,70,0,1
118682,-100,4,2,1,60,0,0
119188,-100,4,2,1,60,0,0
119693,-80,4,2,1,60,0,0
120030,-133.333333333333,4,2,1,60,0,0
141604,-100,4,2,1,60,0,0
150705,-90.9090909090909,4,2,1,60,0,0
152053,-100,4,2,1,60,0,0
156098,-90.9090909090909,4,2,1,60,0,0
157783,-100,4,2,1,60,0,0
158120,-166.666666666667,4,2,1,60,0,0
158626,-100,4,2,1,60,0,0
158795,-90.9090909090909,4,2,1,60,0,0
159132,-100,4,2,1,60,0,0
159469,-166.666666666667,4,2,1,60,0,0
159974,-100,4,2,1,60,0,0
160143,-90.9090909090909,4,2,1,60,0,0
160817,-166.666666666667,4,2,1,60,0,0
161323,-100,4,2,1,60,0,0
161491,-90.9090909090909,4,2,1,60,0,0
162165,-166.666666666667,4,2,1,60,0,0
162671,-100,4,2,1,60,0,0
163177,-83.3333333333333,4,2,1,60,0,0
165873,-133.333333333333,4,2,1,60,0,0
168570,-83.3333333333333,4,2,1,70,0,1
171266,-100,4,2,1,70,0,1
171941,-83.3333333333333,4,2,1,70,0,1
172278,-66.6666666666667,4,2,1,70,0,1
172615,-83.3333333333333,4,2,1,70,0,1
176660,-83.3333333333333,4,2,1,60,0,0
178008,-133.333333333333,4,2,3,60,0,0
179356,-76.9230769230769,4,2,3,70,0,1
182053,-100,4,2,3,70,0,1
183064,-62.5,4,2,3,70,0,1
183401,-71.4285714285714,4,2,3,70,0,1
184750,-76.9230769230769,4,2,3,70,0,1
187446,-100,4,2,1,60,0,0
190143,-80,4,2,1,70,0,1
220986,-71.4285714285714,4,2,1,70,0,1
222502,-80,4,2,1,70,0,1
231941,-100,4,2,1,60,0,0
233289,-133.333333333333,4,2,1,45,0,0
250480,-117.647058823529,4,2,1,60,0,0
252165,-100,4,2,1,60,0,0
253851,-100,4,2,1,45,0,0
254862,-111.111111111111,4,2,1,45,0,0
261604,-111.111111111111,4,2,1,50,0,0
262952,-111.111111111111,4,2,1,55,0,0
265648,-111.111111111111,4,2,1,60,0,0
271042,-100,4,2,1,60,0,0
276098,-76.9230769230769,4,2,1,60,0,0
276435,-76.9230769230769,4,2,1,60,0,1
277278,-76.9230769230769,4,2,1,60,0,0
277615,-100,4,2,1,60,0,1
278120,-76.9230769230769,4,2,1,60,0,1
278457,-83.3333333333333,4,2,1,60,0,0
278963,-62.5,4,2,1,60,0,0
279132,-76.9230769230769,4,2,1,60,0,1
279806,-100,4,2,1,60,0,1
280311,-76.9230769230769,4,2,1,60,0,1
282671,-76.9230769230769,4,2,1,60,0,0
283008,-76.9230769230769,4,2,1,60,0,1
284188,-33.3333333333333,4,2,1,60,0,0
284525,-76.9230769230769,4,2,1,60,0,1
285368,-76.9230769230769,4,2,1,60,0,0
285705,-100,4,2,1,60,0,1
286210,-76.9230769230769,4,2,1,60,0,1
288064,-76.9230769230769,4,2,1,60,0,0
288401,-100,4,2,1,60,0,1
288907,-76.9230769230769,4,2,1,60,0,1
289244,-133.333333333333,4,2,1,60,0,0
289918,-66.6666666666667,4,2,1,60,0,1
290929,-66.6666666666667,4,2,1,60,0,0
291098,-100,4,2,1,60,0,1
292278,-76.9230769230769,4,2,1,60,0,1
298008,-80,4,2,1,60,0,0
318233,-100,4,2,1,60,0,0
319244,-80,4,2,1,60,0,0
319581,-100,4,2,1,60,0,0
330368,-111.111111111111,4,2,1,60,0,0

[Colours]
Combo1 : 199,6,204
Combo2 : 255,213,248
Combo3 : 202,255,250
Combo4 : 243,120,222
Combo5 : 253,136,130
Combo6 : 245,14,14

[HitObjects]
10,302,1379,6,0,P|81:298|144:333,1,144.000005493164,6|0,3:2|0:0,0:0:0:0:
243,384,1884,1,0,0:0:0:0:
243,384,1969,1,0,0:0:0:0:
243,384,2053,2,0,P|252:321|243:291,1,72.0000027465821,8|0,0:0|0:0,0:0:0:0:
10,302,2390,2,0,P|81:298|144:333,2,144.000005493164,2|0|0,0:0|0:0|3:0,0:0:0:0:
157,195,3401,1,10,0:0:0:0:
157,195,3738,1,0,0:0:0:0:
501,302,4075,6,0,P|430:298|368:333,1,144.000005493164,2|0,3:2|0:0,0:0:0:0:
269,384,4581,1,0,0:0:0:0:
269,384,4665,1,0,0:0:0:0:
269,384,4750,2,0,P|260:321|269:291,1,72.0000027465821,8|0,0:0|0:0,0:0:0:0:
501,302,5087,2,0,P|430:298|368:333,2,144.000005493164,2|0|0,0:0|0:0|3:0,0:0:0:0:
355,195,6098,1,10,0:0:0:0:
355,195,6435,1,0,3:0:0:0:
427,29,6604,1,8,0:0:0:0:
344,108,6772,6,0,L|488:125,1,144.000005493164,2|0,3:2|0:0,0:0:0:0:
468,229,7278,1,0,0:0:0:0:
468,229,7362,1,0,0:0:0:0:
468,229,7446,2,0,L|479:326,1,72.0000027465821,8|0,0:0|0:0,0:0:0:0:
344,108,7783,2,0,L|488:125,2,144.000005493164,2|0|0,0:0|0:0|3:0,0:0:0:0:
481,32,8795,1,10,0:0:0:0:
481,32,9132,1,0,0:0:0:0:
167,108,9469,6,0,L|24:125,1,144.000005493164,2|0,3:2|0:0,0:0:0:0:
44,229,9974,1,0,0:0:0:0:
44,229,10059,1,0,0:0:0:0:
44,229,10143,2,0,L|33:326,1,72.0000027465821,8|0,0:0|0:0,0:0:0:0:
167,108,10480,2,0,L|24:125,2,144.000005493164,2|0|0,0:0|0:0|3:0,0:0:0:0:
31,32,11491,1,10,0:0:0:0:
31,32,11828,1,0,3:0:0:0:
167,108,11997,1,8,0:0:0:0:
149,111,12081,1,8,0:0:0:0:
130,113,12165,38,0,L|53:123,1,72.0000027465821,6|0,3:2|0:0,0:0:0:0:
175,215,12502,2,0,L|98:225,1,72.0000027465821
215,311,12839,1,8,0:0:0:0:
130,113,13177,6,0,L|53:123,1,72.0000027465821,2|0,0:0|0:0,0:0:0:0:
175,215,13514,2,0,L|98:225,1,72.0000027465821
215,311,13851,1,0,3:0:0:0:
130,113,14188,6,0,L|53:123,1,72.0000027465821,10|0,0:0|0:0,0:0:0:0:
175,215,14525,2,0,L|98:225,1,72.0000027465821
382,113,14862,6,0,L|459:123,1,72.0000027465821,2|0,3:2|0:0,0:0:0:0:
337,215,15199,2,0,L|414:225,1,72.0000027465821
297,311,15536,1,8,0:0:0:0:
382,113,15873,38,0,L|459:123,1,72.0000027465821,2|0,0:0|0:0,0:0:0:0:
337,215,16210,2,0,L|414:225,1,72.0000027465821
297,311,16547,1,0,3:0:0:0:
382,113,16884,6,0,L|459:123,1,72.0000027465821,10|0,0:0|0:0,0:0:0:0:
297,311,17222,1,0,3:0:0:0:
408,224,17390,1,8,0:0:0:0:
259,129,17559,6,0,L|253:88,3,36.0000013732911,4|0|0|0,3:2|1:0|1:0|1:0,1:0:0:0:
323,192,17896,2,0,L|317:233,3,36.0000013732911,0|0|0|0,1:0|1:0|1:0|1:0,1:0:0:0:
297,311,18233,5,8,1:0:0:0:
275,324,18317,1,0,1:0:0:0:
250,327,18401,1,0,1:0:0:0:
225,320,18486,1,0,1:0:0:0:
203,307,18570,1,0,1:0:0:0:
181,294,18654,1,0,1:0:0:0:
156,291,18738,1,0,1:0:0:0:
131,298,18823,1,0,1:0:0:0:
112,314,18907,38,0,L|61:324,3,40.8000007781983,0|0|0|0,1:0|1:0|1:0|1:0,1:0:0:0:
177,208,19244,2,0,L|228:218,3,40.8000007781983,0|0|0|0,3:0|1:0|1:0|1:0,1:0:0:0:
90,128,19581,5,8,1:0:0:0:
92,116,19665,1,0,1:0:0:0:
95,104,19750,1,0,1:0:0:0:
98,92,19834,1,0,1:0:0:0:
101,80,19918,1,0,1:0:0:0:
104,68,20002,1,0,1:0:0:0:
107,56,20087,1,0,1:0:0:0:
110,44,20171,1,0,1:0:0:0:
112,32,20255,5,4,3:2:0:0:
148,20,20339,1,0,1:0:0:0:
185,31,20424,1,0,1:0:0:0:
205,63,20508,1,0,1:0:0:0:
196,100,20592,1,0,1:0:0:0:
187,137,20677,1,0,1:0:0:0:
207,169,20761,1,0,1:0:0:0:
244,180,20845,1,0,1:0:0:0:
280,168,20929,1,8,1:0:0:0:
300,134,21014,1,0,1:0:0:0:
334,116,21098,1,0,1:0:0:0:
372,115,21182,1,0,1:0:0:0:
408,132,21266,6,0,P|431:135|455:130,1,48,8|0,1:0|1:0,0:0:0:0:
429,0,21435,2,0,P|426:23|431:47,1,48,8|0,1:0|1:0,0:0:0:0:
510,200,21604,37,4,3:2:0:0:
432,224,21772,1,0,0:0:0:0:
354,196,21941,1,0,0:0:0:0:
512,74,22109,1,0,1:0:0:0:
345,72,22278,2,0,P|330:72|316:75,2,28.7999991210938,0|0|0,1:0|1:0|1:0,1:0:0:0:
432,224,22615,2,0,P|432:195|430:166,1,57.5999982421876,0|0,1:0|1:0,1:0:0:0:
431,47,22952,5,4,3:2:0:0:
425,148,33738,6,0,L|295:137,1,115.199996484375,6|0,3:2|0:0,0:0:0:0:
220,210,34413,1,0,0:0:0:0:
451,228,34750,2,0,L|321:217,1,115.199996484375,2|0,0:0|0:0,0:0:0:0:
246,290,35424,1,2,0:0:0:0:
457,258,35761,1,2,0:0:0:0:
328,81,36098,1,2,0:0:0:0:
87,148,36435,6,0,L|217:137,1,115.199996484375,2|0,0:0|0:0,0:0:0:0:
292,210,37109,1,0,0:0:0:0:
61,228,37446,2,0,L|191:217,1,115.199996484375,2|0,0:0|0:0,0:0:0:0:
266,290,38120,1,2,0:0:0:0:
55,258,38457,1,2,0:0:0:0:
184,81,38795,1,2,0:0:0:0:
205,333,39132,38,0,L|75:344,1,115.199996484375,2|0,0:0|0:0,0:0:0:0:
16,275,39806,1,0,0:0:0:0:
307,288,40143,2,0,L|437:299,1,115.199996484375,2|0,0:0|0:0,0:0:0:0:
496,230,40817,1,2,0:0:0:0:
205,243,41154,1,2,0:0:0:0:
307,38,41491,1,2,0:0:0:0:
395,190,41828,6,0,P|360:217|268:208,1,115.199996484375,2|0,0:0|0:0,0:0:0:0:
117,114,42502,1,0,0:0:0:0:
117,114,42839,2,0,P|152:87|244:96,1,115.199996484375,2|0,0:0|0:0,0:0:0:0:
395,190,43514,1,2,0:0:0:0:
202,261,43851,1,2,0:0:0:0:
310,61,44188,1,2,0:0:0:0:
469,227,44525,6,0,L|455:353,1,115.199996484375,2|0,0:0|0:0,0:0:0:0:
220,345,45199,1,0,0:0:0:0:
387,155,45536,2,0,L|373:281,1,115.199996484375,2|0,0:0|0:0,0:0:0:0:
138,273,46210,1,2,0:0:0:0:
310,123,46547,1,2,0:0:0:0:
202,323,46884,1,2,0:0:0:0:
43,157,47222,6,0,L|57:31,1,115.199996484375,2|0,0:0|0:0,0:0:0:0:
292,39,47896,1,0,0:0:0:0:
125,229,48233,2,0,L|139:103,1,115.199996484375,2|0,0:0|0:0,0:0:0:0:
374,111,48907,1,2,0:0:0:0:
202,261,49244,1,2,0:0:0:0:
310,61,49581,1,2,0:0:0:0:
481,210,49918,38,0,L|345:224,1,115.199996484375,2|0,0:0|0:0,0:0:0:0:
242,150,50424,2,0,L|310:157,1,57.5999982421876,2|0,0:0|0:0,0:0:0:0:
338,316,50761,2,0,L|270:308,1,57.5999982421876,2|0,0:0|0:0,0:0:0:0:
115,350,51098,2,0,P|94:274|169:249,1,172.799994726563,2|0,0:0|0:0,0:0:0:0:
357,354,51941,1,0,0:0:0:0:
435,304,52109,2,0,L|445:244,2,57.5999982421876,2|0|0,0:0|0:0|0:0,0:0:0:0:
289,284,52615,6,0,L|275:166,1,115.199996484375,2|0,0:0|0:0,0:0:0:0:
202,29,53120,2,0,L|188:147,1,115.199996484375,2|0,0:0|0:0,0:0:0:0:
8,233,53626,2,0,P|60:230|121:193,1,115.199996484375,2|0,0:0|0:0,0:0:0:0:
119,75,54300,1,2,0:0:0:0:
425,131,54637,1,2,0:0:0:0:
223,369,54974,1,2,0:0:0:0:
263,74,55311,6,0,P|261:139|271:197,1,115.199996484375,4|0,3:2|0:0,0:0:0:0:
337,293,55817,1,2,0:0:0:0:
267,223,55986,1,0,0:0:0:0:
172,249,56154,1,0,0:0:0:0:
337,293,56323,2,0,B|419:258|417:335|514:296,1,172.799994726563,2|0,0:0|0:0,0:0:0:0:
466,209,56997,1,2,0:0:0:0:
487,113,57165,1,0,0:0:0:0:
504,301,57334,5,2,0:0:0:0:
487,113,57502,1,0,0:0:0:0:
338,293,57671,1,2,0:0:0:0:
466,209,57839,1,0,0:0:0:0:
325,140,58008,38,0,P|274:159|211:164,1,115.199996484375,2|0,0:0|0:0,0:0:0:0:
39,139,58514,2,0,P|66:147|92:158,1,57.5999982421876,2|0,0:0|0:0,0:0:0:0:
278,310,58851,2,0,P|251:298|224:290,1,57.5999982421876,2|0,0:0|0:0,0:0:0:0:
10,298,59188,6,0,B|61:302|96:286|96:286|80:308,1,115.199996484375,2|0,0:0|0:0,0:0:0:0:
163,359,59693,1,0,0:0:0:0:
209,234,59862,2,0,P|214:262|224:290,1,57.5999982421876,2|0,0:0|0:0,0:0:0:0:
169,70,60199,1,2,0:0:0:0:
140,163,60368,1,0,0:0:0:0:
62,29,60536,1,2,0:0:0:0:
238,139,60705,6,0,B|271:141|296:129|296:129|326:129|365:140,1,115.199996484375,2|0,0:0|0:0,0:0:0:0:
438,174,61210,2,0,L|447:91,1,57.5999982421876,2|0,0:0|0:0,0:0:0:0:
244,57,61547,2,0,L|235:-26,1,57.5999982421876,2|0,0:0|0:0,0:0:0:0:
344,193,61884,2,0,L|350:135,1,57.5999982421876,2|0,0:0|0:0,0:0:0:0:
155,19,62222,1,2,0:0:0:0:
244,57,62390,1,0,0:0:0:0:
167,118,62559,2,0,L|182:244,1,115.199996484375,2|0,0:0|0:0,0:0:0:0:
321,168,63064,2,0,P|288:164|255:155,1,57.5999982421876,2|0,0:0|0:0,0:0:0:0:
53,281,63401,6,0,P|105:257|162:248,1,115.199996484375,2|0,0:0|0:0,0:0:0:0:
280,317,63907,2,0,P|273:289|270:260,1,57.5999982421876,2|0,0:0|0:0,0:0:0:0:
66,165,64244,1,0,0:0:0:0:
244,74,64413,1,2,0:0:0:0:
137,62,64581,38,0,P|160:114|167:154,1,86.3999973632813,2|0,0:0|0:0,0:0:0:0:
162,169,64918,2,0,B|194:174|194:174|225:162,2,57.5999982421876
15,139,65424,2,0,L|84:135,1,57.5999982421876,2|0,0:0|0:0,0:0:0:0:
226,252,65761,2,0,L|157:256,1,57.5999982421876,2|0,0:0|0:0,0:0:0:0:
136,22,66098,6,0,P|215:20|272:89,1,144.000005493164,4|0,3:2|1:0,0:0:0:0:
351,152,66604,1,0,0:0:0:0:
249,83,66772,1,0,0:0:0:0:
360,30,66941,1,0,1:0:0:0:
351,152,67109,2,0,L|361:277,1,108.000004119873,0|0,1:0|0:0,0:0:0:0:
363,297,67446,6,0,P|426:282|467:280,1,72.0000027465821,0|0,1:0|0:0,0:0:0:0:
251,194,67783,2,0,P|215:188|180:178,1,72.0000027465821,0|0,1:0|0:0,0:0:0:0:
12,109,68120,1,0,0:0:0:0:
178,148,68289,1,0,1:0:0:0:
58,282,68457,1,0,1:0:0:0:
82,186,68626,1,0,0:0:0:0:
136,335,68795,6,0,B|207:315|198:378|294:358,1,144.000005493164,0|0,1:0|1:0,0:0:0:0:
58,282,69300,2,0,P|49:331|50:370,1,72.0000027465821
82,186,69637,2,0,P|46:193|10:195,1,72.0000027465821,0|0,1:0|1:0,0:0:0:0:
218,218,69974,38,0,P|208:164|209:111,1,108.000004119873,0|0,1:0|0:0,0:0:0:0:
217,83,70311,1,0,1:0:0:0:
231,243,70480,1,0,1:0:0:0:
335,158,70648,2,0,P|370:150|406:148,1,72.0000027465821
256,328,70986,2,0,P|220:326|184:318,2,72.0000027465821,0|0|0,1:0|1:0|1:0,0:0:0:0:
346,344,71407,1,0,1:0:0:0:
346,344,71491,6,0,L|357:245,1,72.0000027465821,4|0,3:2|0:0,0:0:0:0:
335,159,71828,1,8,0:0:0:0:
443,206,71997,1,0,1:0:0:0:
457,203,72081,1,0,1:0:0:0:
471,200,72165,1,0,1:0:0:0:
335,159,72334,1,0,3:0:0:0:
427,67,72502,1,8,0:0:0:0:
407,62,72587,1,0,1:0:0:0:
388,58,72671,1,0,1:0:0:0:
367,53,72755,1,0,1:0:0:0:
346,48,72839,6,0,L|281:34,3,48,4|0|0|0,3:2|1:0|1:0|1:0,1:0:0:0:
260,109,73177,1,8,1:0:0:0:
244,145,73261,1,0,1:0:0:0:
250,183,73345,1,0,1:0:0:0:
266,218,73429,1,0,1:0:0:0:
258,257,73514,1,0,1:0:0:0:
233,287,73598,1,0,1:0:0:0:
194,295,73682,1,0,3:0:0:0:
154,290,73766,1,0,1:0:0:0:
123,264,73851,1,8,1:0:0:0:
83,268,73935,1,0,1:0:0:0:
48,287,74019,2,0,P|37:329|37:357,1,48,0|0,1:0|1:0,1:0:0:0:
189,218,74188,5,4,3:2:0:0:
177,176,74272,1,0,1:0:0:0:
193,136,74356,1,0,1:0:0:0:
228,110,74441,1,0,1:0:0:0:
270,114,74525,1,8,1:0:0:0:
305,137,74609,1,0,1:0:0:0:
317,178,74693,2,0,P|328:220|324:245,1,48,0|0,1:0|1:0,1:0:0:0:
162,58,74862,37,4,3:2:0:0:
126,25,74946,1,0,1:0:0:0:
78,20,75030,1,0,1:0:0:0:
35,43,75115,1,0,1:0:0:0:
13,85,75199,2,0,P|2:127|2:155,1,48,8|0,1:0|1:0,1:0:0:0:
200,264,75368,2,0,P|196:240|188:217,1,48,4|0,3:2|1:0,1:0:0:0:
96,107,75536,5,2,1:2:0:0:
109,237,75705,1,0,1:0:0:0:
112,260,75789,1,0,1:0:0:0:
115,283,75873,1,2,1:2:0:0:
191,129,76042,1,0,1:0:0:0:
187,105,76126,1,0,1:0:0:0:
183,81,76210,2,0,L|176:31,1,48,2|0,1:2|0:0,0:0:0:0:
23,251,76379,2,0,L|30:301,1,48,2|0,1:2|0:0,0:0:0:0:
188,217,76547,6,0,B|250:201|314:204|314:204|273:172,1,180,6|0,0:0|0:0,0:0:0:0:
152,151,76884,6,0,L|132:276,1,120,6|0,3:2|0:0,0:0:0:0:
59,74,77222,1,8,0:0:0:0:
284,148,77390,2,0,L|294:207,1,60
254,326,77559,1,0,0:0:0:0:
437,288,77727,1,0,3:0:0:0:
299,127,77896,1,10,0:0:0:0:
271,345,78064,1,2,0:0:0:0:
271,345,78148,1,0,0:0:0:0:
271,345,78233,38,0,L|141:332,1,120,0|0,3:0|0:0,0:0:0:0:
68,124,78570,1,10,0:0:0:0:
179,41,78738,1,0,0:0:0:0:
198,71,78823,1,0,0:0:0:0:
208,105,78907,2,0,P|205:134|196:167,1,60,2|0,0:0|0:0,0:0:0:0:
100,260,79075,1,0,3:0:0:0:
87,34,79244,1,10,0:0:0:0:
289,147,79413,1,0,0:0:0:0:
30,150,79581,6,0,B|76:117|76:117|208:132,1,180,2|0,3:2|0:0,0:0:0:0:
199,131,79918,2,0,L|213:255,1,120,8|0,0:0|0:0,0:0:0:0:
436,234,80255,1,0,0:0:0:0:
445,199,80339,1,0,0:0:0:0:
454,165,80424,1,0,3:0:0:0:
470,333,80592,1,8,0:0:0:0:
370,153,80761,6,0,P|409:96|526:117,1,180,6|0,3:2|0:0,0:0:0:0:
510,101,81098,1,0,3:0:0:0:
316,45,81266,1,8,0:0:0:0:
373,309,81435,1,0,0:0:0:0:
169,192,81604,1,0,0:0:0:0:
204,186,81688,1,0,0:0:0:0:
239,180,81772,2,0,L|332:167,1,60,0|0,3:0|0:0,0:0:0:0:
496,241,81941,1,8,0:0:0:0:
367,38,82109,2,0,P|356:73|350:98,1,60,2|8,3:2|0:0,0:0:0:0:
404,303,82278,6,0,L|395:171,1,120,6|0,3:2|0:0,0:0:0:0:
128,111,82615,1,10,0:0:0:0:
249,302,82783,1,2,0:0:0:0:
249,302,82868,1,0,0:0:0:0:
249,302,82952,2,0,P|264:262|267:232,1,60
209,104,83120,2,0,L|219:170,1,60,0|0,3:0|0:0,0:0:0:0:
255,329,83289,1,8,0:0:0:0:
70,180,83457,1,2,0:0:0:0:
249,207,83626,38,0,L|392:195,1,120,2|0,3:2|0:0,0:0:0:0:
423,341,83963,1,10,0:0:0:0:
504,104,84132,1,2,0:0:0:0:
469,93,84216,1,0,0:0:0:0:
433,94,84300,2,0,P|407:102|376:121,1,60
327,337,84469,2,0,P|333:310|332:274,1,60,0|0,3:0|0:0,0:0:0:0:
223,165,84637,2,0,L|92:178,1,120,8|2,0:0|0:0,0:0:0:0:
32,34,84890,1,0,0:0:0:0:
32,34,84974,6,0,P|92:50|100:165,1,180,2|0,3:2|0:0,0:0:0:0:
80,149,85311,1,10,0:0:0:0:
269,327,85480,1,2,0:0:0:0:
208,135,85648,1,0,0:0:0:0:
174,365,85817,1,2,3:2:0:0:
285,42,85986,1,8,0:0:0:0:
366,346,86154,6,0,B|374:280|374:280|408:243|408:243|419:154,1,180,6|0,3:2|0:0,0:0:0:0:
401,146,86491,1,8,0:0:0:0:
478,334,86660,1,8,0:0:0:0:
226,314,86828,1,0,3:0:0:0:
497,215,86997,1,2,0:0:0:0:
497,215,87081,1,8,0:0:0:0:
497,215,87165,1,0,3:0:0:0:
242,41,87334,1,10,0:0:0:0:
300,360,87502,2,0,L|316:286,1,60,0|8,3:0|0:0,0:0:0:0:
358,144,87671,6,0,B|279:177|266:132|180:163,1,180,6|0,3:2|0:0,0:0:0:0:
161,193,88008,1,8,0:0:0:0:
36,47,88177,1,0,0:0:0:0:
36,47,88261,1,0,0:0:0:0:
36,47,88345,2,0,P|75:63|99:80,1,60
182,162,88514,1,0,3:0:0:0:
84,341,88682,2,0,B|63:283|63:283|82:228,1,120,10|2,0:0|0:0,0:0:0:0:
204,174,88935,1,0,0:0:0:0:
204,174,89019,38,0,L|334:170,1,120,0|0,3:0|0:0,0:0:0:0:
482,265,89356,1,10,0:0:0:0:
462,31,89525,1,0,0:0:0:0:
294,269,89693,1,2,0:0:0:0:
317,297,89778,1,0,0:0:0:0:
342,321,89862,2,0,P|370:340|401:351,1,60,0|0,3:0|0:0,0:0:0:0:
500,296,90030,1,8,0:0:0:0:
350,90,90199,1,0,0:0:0:0:
224,321,90368,6,0,B|185:357|185:357|168:224,1,180,2|0,3:2|0:0,0:0:0:0:
164,196,90705,1,8,0:0:0:0:
334,47,90873,2,0,L|322:112,1,60
316,311,91042,2,0,L|328:246,1,60
225,97,91210,1,0,3:0:0:0:
136,321,91379,1,8,0:0:0:0:
349,229,91547,6,0,P|402:178|368:82,1,180,6|0,3:2|0:0,0:0:0:0:
373,85,91884,1,0,3:0:0:0:
417,314,92053,1,8,0:0:0:0:
152,226,92222,1,0,0:0:0:0:
329,151,92390,2,0,L|335:228,1,60
345,368,92559,1,0,3:0:0:0:
136,200,92727,1,8,0:0:0:0:
355,130,92896,1,0,3:0:0:0:
390,136,92980,1,8,0:0:0:0:
425,142,93064,6,0,B|459:181|459:181|460:243|425:304,1,180,6|0,3:2|0:0,0:0:0:0:
404,304,93401,1,8,0:0:0:0:
167,179,93570,2,0,B|222:154|222:154|283:166,1,120,2|0,0:0|0:0,0:0:0:0:
435,340,93907,2,0,B|380:365|380:365|319:353,1,120,2|8,3:2|0:0,0:0:0:0:
191,134,94244,1,2,0:0:0:0:
425,142,94413,38,0,L|407:262,1,120,4|0,3:2|0:0,0:0:0:0:
217,332,94750,1,8,0:0:0:0:
95,157,94918,1,0,0:0:0:0:
102,192,95002,1,0,0:0:0:0:
109,227,95087,2,0,L|121:290,1,60
246,159,95255,2,0,L|258:96,1,60,0|0,3:0|0:0,0:0:0:0:
31,102,95424,1,10,0:0:0:0:
226,256,95592,1,2,0:0:0:0:
95,157,95761,6,0,L|228:147,1,120,6|0,3:2|0:0,0:0:0:0:
473,245,96098,1,8,0:0:0:0:
290,26,96266,1,0,0:0:0:0:
281,61,96351,1,0,0:0:0:0:
272,95,96435,2,0,B|259:155|259:155|285:215,1,120,4|0,3:2|0:0,0:0:0:0:
496,229,96772,1,8,0:0:0:0:
224,291,96941,1,4,3:2:0:0:
400,146,97109,6,0,L|410:217,1,60,8|0,0:0|0:0,0:0:0:0:
268,361,97278,1,0,3:0:0:0:
268,361,97362,1,0,0:0:0:0:
268,361,97446,6,0,L|278:290,1,60,10|0,0:0|0:0,0:0:0:0:
293,107,97615,1,0,3:0:0:0:
257,85,97699,1,0,0:0:0:0:
215,83,97783,1,2,3:2:0:0:
175,98,97868,1,8,0:0:0:0:
145,127,97952,2,0,P|138:161|134:193,1,60,0|0,3:0|0:0,0:0:0:0:
52,358,98120,2,0,P|47:328|41:298,1,60,10|0,0:0|0:0,0:0:0:0:
301,185,98289,1,0,3:0:0:0:
342,192,98373,1,8,0:0:0:0:
383,199,98457,5,4,3:2:0:0:
285,346,98626,2,0,B|255:342|255:342|228:347|228:347|203:335|203:335|166:330,1,120,2|8,0:1|0:0,0:0:0:0:
51,211,98963,2,0,B|91:205|111:195|111:195|139:230|139:230|172:223|218:235,1,180,2|0,0:1|0:0,0:0:0:0:
322,268,99300,1,0,3:0:0:0:
194,126,99469,1,8,0:0:0:0:
394,14,99637,2,0,B|384:78,1,60,2|0,0:1|0:0,0:0:0:0:
312,159,99806,5,0,3:0:0:0:
488,193,99974,2,0,B|463:190|463:190|452:182|452:182|430:180,1,60,2|0,0:1|0:0,0:0:0:0:
194,126,100143,1,8,0:0:0:0:
361,263,100311,2,0,B|324:258|324:258|299:267|299:267|258:235|258:235|233:240|233:240|194:234,1,180,2|0,0:1|0:0,0:0:0:0:
101,187,100648,1,0,3:0:0:0:
309,102,100817,2,0,B|320:132|320:132|305:179,1,60,8|0,0:0|0:0,0:0:0:0:
183,315,100986,1,0,0:0:0:0:
211,320,101070,1,0,0:0:0:0:
239,326,101154,69,2,3:2:0:0:
101,187,101323,1,0,0:0:0:0:
128,384,101491,1,10,0:0:0:0:
300,247,101660,1,0,0:0:0:0:
34,354,101828,2,0,B|6:303|6:303|35:195,1,120,2|0,0:0|3:0,0:0:0:0:
44,51,102165,1,8,0:0:0:0:
300,247,102334,1,4,3:2:0:0:
310,29,102502,6,0,B|299:48|299:48|290:56|290:56|277:78,2,60,2|0|0,0:1|0:0|3:0,0:0:0:0:
175,13,102755,2,0,B|178:36|178:36|176:48|176:48|180:73,2,60,2|8|0,0:1|0:0|0:0,0:0:0:0:
44,51,103008,2,0,B|60:66|60:66|66:77|66:77|86:94,1,60,2|0,0:1|0:0,0:0:0:0:
201,313,103177,2,0,B|199:291|199:291|201:279|201:279|197:254,1,60,2|0,0:1|0:0,0:0:0:0:
188,158,103345,1,0,3:0:0:0:
25,223,103514,2,0,L|110:217,1,60,8|0,0:0|0:0,0:0:0:0:
305,146,103682,1,0,3:0:0:0:
312,225,103766,1,8,0:0:0:0:
319,304,103851,69,4,3:2:0:0:
177,42,104019,2,0,B|185:74|185:74|179:93|179:93|189:111|189:111|187:168,1,120,2|8,0:1|0:0,0:0:0:0:
198,319,104356,2,0,B|176:270|176:270|190:199|190:199|239:251,1,180,2|0,0:1|0:0,0:0:0:0:
286,301,104693,1,0,3:0:0:0:
85,187,104862,1,8,0:0:0:0:
292,119,105030,2,0,B|299:178,1,60,2|0,0:1|0:0,0:0:0:0:
109,331,105199,5,0,3:0:0:0:
286,301,105368,2,0,B|267:303|267:303|255:310|255:310|228:312,1,60,2|0,0:1|0:0,0:0:0:0:
21,268,105536,1,8,0:0:0:0:
134,21,105705,2,0,B|166:78|187:132|187:132|177:149|123:215,1,180,2|0,0:1|0:0,0:0:0:0:
149,188,106042,1,0,3:0:0:0:
0,113,106210,2,0,B|36:102|36:102|65:109,1,60,8|0,0:0|0:0,0:0:0:0:
277,158,106379,1,0,0:0:0:0:
283,128,106463,1,0,0:0:0:0:
269,101,106547,69,2,3:2:0:0:
149,188,106716,1,0,0:0:0:0:
148,8,106884,1,10,0:0:0:0:
313,233,107053,2,0,B|372:249|372:249|456:217,1,120,2|0,0:0|0:0,0:0:0:0:
148,8,107390,2,0,L|144:109,1,60,2|0,3:2|0:0,0:0:0:0:
139,264,107559,1,8,0:0:0:0:
322,43,107727,6,0,B|363:5|363:5|371:168,1,180,4|0,3:2|0:0,0:0:0:0:
296,209,108064,2,0,P|281:209|266:207,2,30,10|0|0,0:0|0:0|0:0,0:0:0:0:
452,83,108233,2,0,B|481:77|512:85,1,60,10|0,0:0|0:0,0:0:0:0:
479,273,108401,2,0,B|505:222|505:222|468:155,1,120,2|0,3:2|0:0,0:0:0:0:
364,68,108654,1,8,0:0:0:0:
364,68,108738,2,0,L|371:153,1,60,0|0,3:0|0:0,0:0:0:0:
386,350,108907,1,8,0:0:0:0:
188,172,109075,1,0,3:0:0:0:
175,212,109160,1,8,0:0:0:0:
189,251,109244,69,6,3:2:0:0:
243,68,109413,2,0,B|215:79|215:79|186:71|186:71|160:80|160:80|126:75,1,120,2|8,0:1|0:0,0:0:0:0:
10,184,109750,2,0,B|66:194|66:194|101:175|101:175|80:219|106:259,1,180,2|0,0:1|0:0,0:0:0:0:
175,212,110087,1,0,3:0:0:0:
54,43,110255,2,0,P|49:76|58:122,1,60,8|0,0:0|0:0,0:0:0:0:
258,247,110424,2,0,P|262:213|254:168,1,60,2|0,0:1|0:0,0:0:0:0:
270,30,110592,5,0,3:0:0:0:
136,106,110761,2,0,B|158:105|158:105|175:109|175:109|217:104,1,60,2|0,0:1|0:0,0:0:0:0:
424,166,110929,1,8,0:0:0:0:
258,247,111098,2,0,B|292:237|316:221|316:221|343:241|343:241|369:231|369:231|389:249|419:250,1,180,2|0,0:1|0:0,0:0:0:0:
424,166,111435,1,0,3:0:0:0:
315,384,111604,2,0,L|311:309,1,60,8|0,0:0|0:0,0:0:0:0:
378,94,111772,1,0,0:0:0:0:
404,80,111856,1,0,0:0:0:0:
435,81,111941,69,2,3:2:0:0:
419,250,112109,1,0,0:0:0:0:
280,35,112278,1,10,0:0:0:0:
155,277,112446,2,0,B|126:231|126:231|162:156,1,120,0|2,0:0|0:0,0:0:0:0:
280,35,112783,2,0,P|290:89|283:130,1,60,0|0,3:0|0:0,0:0:0:0:
308,259,112952,1,8,0:0:0:0:
50,102,113120,1,4,3:2:0:0:
209,193,113289,6,0,B|188:188|188:188|177:178|177:178|155:172,2,60,2|0|0,0:1|0:0|3:0,0:0:0:0:
0,274,113542,2,0,B|14:258|14:258|28:254|28:254|45:238,2,60,2|8|0,0:1|0:0|0:0,0:0:0:0:
40,43,113795,2,0,B|47:65|47:65|44:79|44:79|50:102,1,60,2|0,0:1|0:0,0:0:0:0:
200,251,113963,2,0,B|206:229|206:229|203:215|203:215|209:192,1,60,2|0,0:1|0:0,0:0:0:0:
295,19,114132,1,0,3:0:0:0:
154,81,114300,2,0,L|238:92,1,60,8|0,0:0|0:0,0:0:0:0:
481,234,114469,1,0,3:2:0:0:
481,157,114553,1,8,0:0:0:0:
482,80,114637,69,6,3:2:0:0:
357,226,114806,2,0,B|362:192|362:192|352:170|352:170|360:144|360:144|356:109,1,120,2|8,0:1|0:0,0:0:0:0:
173,91,115143,2,0,B|161:129|161:129|270:122|270:122|249:80,1,180,2|0,0:1|0:0,0:0:0:0:
212,9,115480,1,0,3:0:0:0:
357,226,115648,2,0,B|332:224|332:224|318:228|318:228|298:227,1,60,8|0,0:0|0:0,0:0:0:0:
45,26,115817,2,0,B|70:24|70:24|84:28|84:28|104:27,1,60,2|0,0:1|0:0,0:0:0:0:
325,14,115986,5,4,3:2:0:0:
366,16,116070,1,0,1:0:0:0:
401,38,116154,1,2,1:0:0:0:
420,75,116238,1,0,1:0:0:0:
419,117,116323,1,8,1:0:0:0:
401,155,116407,1,0,1:0:0:0:
364,175,116491,1,2,1:0:0:0:
322,173,116575,1,0,1:0:0:0:
284,192,116660,1,0,1:0:0:0:
255,222,116744,1,0,1:0:0:0:
246,262,116828,1,0,1:0:0:0:
257,302,116913,1,0,1:0:0:0:
288,329,116997,6,0,P|323:332|362:355,1,60,8|0,1:0|1:0,0:0:0:0:
476,201,117165,2,0,P|448:212|418:213,1,60,0|0,1:0|1:0,1:0:0:0:
426,384,117334,6,0,B|440:325|440:325|409:260|409:260|423:192,1,180,4|0,3:2|0:0,0:0:0:0:
432,120,117671,1,8,0:0:0:0:
241,25,117839,2,0,B|255:92,1,60,2|0,0:0|0:0,0:0:0:0:
313,225,118008,1,0,3:0:0:0:
313,225,118092,1,0,0:0:0:0:
313,225,118177,2,0,B|327:158,1,60
358,26,118345,1,8,0:0:0:0:
208,190,118514,5,4,3:2:0:0:
190,172,118598,1,0,0:0:0:0:
170,158,118682,1,0,1:0:0:0:
146,156,118766,1,0,0:0:0:0:
121,158,118851,1,0,1:0:0:0:
99,168,118935,1,0,1:0:0:0:
80,183,119019,1,0,1:0:0:0:
69,204,119104,1,0,1:0:0:0:
65,227,119188,6,0,B|39:228|39:228|11:216,1,48,0|0,1:0|1:0,1:0:0:0:
198,337,119356,2,0,B|223:341|223:341|252:332,1,48,0|0,1:0|1:0,1:0:0:0:
54,325,119525,1,0,3:0:0:0:
189,73,119693,38,0,B|224:134|224:134|213:243,1,180,4|0,0:0|0:0,0:0:0:0:
272,302,120030,6,0,L|418:284,1,144.000005493164,6|0,0:0|0:0,0:0:0:0:
492,325,120536,1,0,0:0:0:0:
491,237,120705,2,0,L|500:162,1,72.0000027465821
402,123,121042,2,0,L|410:194,1,72.0000027465821
335,242,121379,2,0,P|304:259|188:278,1,144.000005493164
10,181,122053,2,0,L|163:203,1,144.000005493164,2|2,0:0|0:0,0:0:0:0:
219,143,122559,1,2,0:0:0:0:
44,114,122727,6,0,L|61:270,1,144.000005493164,2|0,0:0|0:0,0:0:0:0:
127,308,123233,1,0,0:0:0:0:
202,270,123401,2,0,P|240:276|276:290,1,72.0000027465821
343,333,123738,2,0,P|378:326|412:314,1,72.0000027465821
460,246,124075,2,0,L|469:100,1,144.000005493164
276,79,124750,2,0,P|302:122|392:139,1,144.000005493164
286,36,125255,1,2,0:0:0:0:
212,135,125424,6,0,L|225:279,1,144.000005493164,2|0,0:0|0:0,0:0:0:0:
63,295,125929,2,0,B|102:274|102:274|211:293,1,144.000005493164,2|0,0:0|0:0,0:0:0:0:
447,225,126604,1,2,0:0:0:0:
447,225,126772,2,0,L|368:237,1,72.0000027465821,2|0,0:0|0:0,0:0:0:0:
260,348,127109,2,0,L|339:336,1,72.0000027465821,2|0,0:0|0:0,0:0:0:0:
363,217,127446,2,0,P|319:181|225:191,1,144.000005493164,2|0,0:0|0:0,0:0:0:0:
56,305,128120,38,0,B|31:342|49:369|82:373|127:355|141:319|98:272|60:232|80:152,1,288.000010986329,2|0,0:0|0:0,0:0:0:0:
205,58,129132,1,2,0:0:0:0:
141,107,129300,2,0,L|297:121,1,144.000005493164,2|0,0:0|0:0,0:0:0:0:
348,185,129806,2,0,P|397:170|429:165,1,72.0000027465821
487,228,130143,2,0,L|466:371,1,144.000005493164,2|0,0:0|0:0,0:0:0:0:
228,327,130648,1,0,0:0:0:0:
228,327,130817,6,0,P|162:325|74:354,1,144.000005493164,2|0,0:0|0:0,0:0:0:0:
22,295,131323,1,0,0:0:0:0:
74,229,131491,2,0,L|81:147,1,72.0000027465821
161,137,131828,2,0,L|154:208,1,72.0000027465821
213,267,132165,2,0,B|265:257|265:257|352:281,1,144.000005493164
447,358,132839,2,0,L|422:204,1,144.000005493164,2|0,0:0|0:0,0:0:0:0:
512,162,133345,1,0,0:0:0:0:
353,131,133514,6,0,P|311:152|209:174,1,144.000005493164,2|0,0:0|0:0,0:0:0:0:
133,136,134019,1,0,0:0:0:0:
133,136,134188,2,0,L|61:127,1,72.0000027465821
14,228,134525,2,0,L|96:218,1,72.0000027465821
140,291,134862,2,0,L|302:309,1,144.000005493164
498,275,135536,2,0,P|461:238|358:241,1,144.000005493164
255,345,136042,1,2,0:0:0:0:
242,244,136210,6,0,L|222:91,1,144.000005493164,2|0,0:0|0:0,0:0:0:0:
388,126,136716,2,0,B|340:143|340:143|233:126,1,144.000005493164,2|0,0:0|0:0,0:0:0:0:
42,53,137390,1,2,0:0:0:0:
42,53,137559,2,0,L|32:134,1,72.0000027465821,2|0,0:0|0:0,0:0:0:0:
88,230,137896,2,0,L|78:311,1,72.0000027465821,2|0,0:0|0:0,0:0:0:0:
183,359,138233,2,0,P|231:323|320:348,1,144.000005493164,2|0,0:0|0:0,0:0:0:0:
480,201,138907,38,0,B|329:233|351:140|198:179,1,288.000010986329,2|0,0:0|0:0,0:0:0:0:
155,329,139918,1,0,0:0:0:0:
238,370,140087,1,0,0:0:0:0:
238,370,140255,2,0,P|278:341|256:244,1,144.000005493164,2|0,0:0|0:0,0:0:0:0:
197,193,140761,2,0,L|116:177,2,72.0000027465821,2|0|0,0:0|0:0|0:0,0:0:0:0:
291,156,141266,2,0,P|301:120|306:83,1,72.0000027465821,2|0,0:0|0:0,0:0:0:0:
71,103,141604,6,0,P|93:173|104:301,1,192,6|0,3:2|3:0,0:0:0:0:
42,372,142109,1,0,0:0:0:0:
293,338,142278,2,0,P|245:333|198:323,1,96,0|0,3:0|0:0,0:0:0:0:
71,103,142615,2,0,P|67:79|70:55,2,48,0|0|0,3:0|0:0|0:0,0:0:0:0:
259,92,142952,5,0,3:0:0:0:
95,217,143120,1,0,0:0:0:0:
95,217,143205,1,0,0:0:0:0:
95,217,143289,2,0,L|198:207,1,96,0|0,3:0|0:0,0:0:0:0:
433,350,143626,2,0,L|385:344,1,48,0|0,3:0|0:0,0:0:0:0:
279,328,143795,1,0,0:0:0:0:
351,105,143963,2,0,B|390:137|390:137|376:265,1,144,0|0,3:0|0:0,0:0:0:0:
388,249,144300,6,0,P|434:239|482:236,1,96,0|0,3:0|0:0,0:0:0:0:
231,139,144637,2,0,P|184:149|136:151,1,96,0|0,3:0|0:0,0:0:0:0:
363,10,144974,2,0,P|352:56|350:104,1,96,0|0,3:0|0:0,0:0:0:0:
417,341,145311,37,0,3:0:0:0:
417,341,145480,2,0,L|367:338,1,48,2|0,0:0|0:0,0:0:0:0:
310,230,145648,1,0,3:0:0:0:
310,230,145817,2,0,L|260:227,1,48,2|0,0:0|0:0,0:0:0:0:
177,317,145986,1,0,3:0:0:0:
177,317,146154,2,0,L|127:314,1,48,2|0,0:0|0:0,0:0:0:0:
49,359,146323,2,0,B|33:312|33:312|68:242,1,96,0|0,3:0|0:0,0:0:0:0:
115,39,146660,2,0,B|121:87|121:87|102:126|102:126|113:178,1,144,2|0,3:0|0:0,0:0:0:0:
197,227,146997,6,0,B|262:211|336:211|336:211|286:171,1,192,4|0,3:2|3:0,0:0:0:0:
430,118,147502,1,0,0:0:0:0:
324,304,147671,2,0,P|260:308|200:321,1,96,0|0,3:0|0:0,0:0:0:0:
11,265,148008,2,0,P|58:262|106:255,1,96,0|0,3:0|0:0,0:0:0:0:
228,313,148345,5,0,3:0:0:0:
121,117,148514,1,0,0:0:0:0:
357,218,148682,2,0,P|316:190|207:214,1,144,0|0,3:0|0:0,0:0:0:0:
215,217,149019,1,0,3:0:0:0:
91,39,149188,1,0,0:0:0:0:
318,1,149356,2,0,L|307:112,1,96,0|0,3:0|0:0,0:0:0:0:
284,299,149693,5,0,3:0:0:0:
444,184,149862,2,0,B|456:234|456:234|427:293,1,96,2|0,0:0|3:0,0:0:0:0:
151,244,150199,2,0,B|139:194|139:194|168:135,1,96,2|0,0:0|3:0,0:0:0:0:
308,96,150536,1,0,0:0:0:0:
52,89,150705,38,0,B|66:89|66:89|79:86|79:86|104:89,1,52.8000016113282,2|0,3:2|0:0,0:0:0:0:
278,203,150873,2,0,B|253:200|253:200|240:203|240:203|225:203,1,52.8000016113282,2|0,0:0|0:0,0:0:0:0:
90,325,151042,5,0,3:0:0:0:
251,299,151210,2,0,P|303:299|369:321,1,105.600003222656,2|0,0:0|3:0,0:0:0:0:
158,153,151547,2,0,P|107:167|54:167,2,105.600003222656,2|0|2,0:0|3:0|0:0,0:0:0:0:
340,14,152053,2,0,B|297:71|297:71|337:167,1,144,2|0,3:2|0:0,0:0:0:0:
427,153,152390,6,0,B|328:122|335:228|204:186,1,192,4|0,3:2|3:0,0:0:0:0:
183,287,152896,1,0,0:0:0:0:
428,333,153064,2,0,P|404:295|396:240,1,96,0|0,3:0|0:0,0:0:0:0:
299,16,153401,2,0,P|291:63|266:103,1,96,0|0,3:0|0:0,0:0:0:0:
88,259,153738,6,0,P|141:198|207:194,1,144,0|0,3:0|0:0,0:0:0:0:
208,212,154075,2,0,L|220:311,1,96,0|0,3:0|0:0,0:0:0:0:
49,126,154413,1,0,3:0:0:0:
51,106,154497,1,0,0:0:0:0:
53,86,154581,1,0,0:0:0:0:
218,108,154750,2,0,L|287:101,2,48,0|0|0,3:0|0:0|0:0,0:0:0:0:
275,236,155087,37,0,3:0:0:0:
144,69,155255,2,0,B|128:114|128:114|158:180,1,96,2|0,0:0|3:0,0:0:0:0:
25,327,155592,2,0,B|41:282|41:282|11:216,1,96,2|0,0:0|3:0,0:0:0:0:
275,236,155929,1,0,0:0:0:0:
42,90,156098,6,0,B|45:112|45:112|40:130|40:130|44:158,1,52.8000016113282,2|0,3:2|0:0,0:0:0:0:
151,296,156266,2,0,B|148:274|148:274|153:256|153:256|149:228,1,52.8000016113282,2|0,0:0|0:0,0:0:0:0:
249,86,156435,5,0,3:0:0:0:
158,319,156604,2,0,L|32:328,2,105.600003222656,2|0|2,0:0|3:0|0:0,0:0:0:0:
271,357,157109,1,0,3:0:0:0:
187,184,157278,1,0,3:0:0:0:
377,203,157446,1,0,3:0:0:0:
158,319,157615,1,0,3:0:0:0:
405,289,157783,6,0,P|349:285|288:271,1,96,4|0,3:2|0:0,0:0:0:0:
106,118,158120,38,0,B|168:79|168:79|245:96,1,143.999995605469,8|0,0:0|0:0,0:0:0:0:
237,94,158626,2,0,L|244:155,1,48,0|0,3:0|0:0,0:0:0:0:
290,341,158795,54,0,B|284:292|303:244|303:244|281:262|247:262,1,158.400004833985,14|0,0:0|0:0,0:0:0:0:
124,314,159132,38,0,L|28:308,1,96,6|0,3:2|0:0,0:0:0:0:
242,141,159469,6,0,P|317:120|381:157,1,143.999995605469,8|0,0:0|0:0,0:0:0:0:
373,148,159974,2,0,L|379:77,1,48,0|0,3:0|0:0,0:0:0:0:
165,49,160143,22,0,B|124:85|124:85|121:138|144:186,1,158.400004833985,14|0,0:0|0:0,0:0:0:0:
206,342,160480,38,0,P|220:281|219:218,1,105.600003222656,6|0,3:2|0:0,0:0:0:0:
32,32,160817,6,0,L|18:199,1,143.999995605469,8|0,0:0|0:0,0:0:0:0:
19,175,161323,2,0,L|80:168,1,48,0|0,3:0|0:0,0:0:0:0:
248,198,161491,22,0,B|201:210|162:184|162:184|157:221|128:240,1,158.400004833985,14|0,0:0|0:0,0:0:0:0:
240,92,161828,6,0,L|247:197,1,105.600003222656,6|0,3:2|0:0,0:0:0:0:
10,326,162165,6,0,B|81:300|79:357|149:338,1,143.999995605469,8|0,0:0|0:0,0:0:0:0:
148,338,162671,2,0,P|146:305|151:277,1,48,0|0,3:0|0:0,0:0:0:0:
354,188,162839,54,0,P|373:232|365:283,1,96,10|0,0:0|0:0,0:0:0:0:
243,327,163092,1,8,0:0:0:0:
243,327,163177,6,0,B|236:210|236:210|295:257,1,172.799994726563,6|0,3:2|0:0,0:0:0:0:
338,361,163514,69,10,0:0:0:0:
135,287,163682,1,0,3:0:0:0:
354,188,163851,1,8,0:0:0:0:
117,283,164019,1,0,3:0:0:0:
351,372,164188,1,8,0:0:0:0:
99,279,164356,1,0,3:0:0:0:
372,192,164525,69,14,0:0:0:0:
129,70,164693,1,0,3:0:0:0:
389,193,164862,1,8,0:0:0:0:
83,275,165030,1,0,3:0:0:0:
409,196,165199,5,14,0:0:0:0:
35,161,165368,1,8,0:0:0:0:
236,332,165536,1,8,0:0:0:0:
264,40,165705,1,8,0:0:0:0:
283,188,165873,22,0,L|205:181,2,72.0000027465821,6|0|0,3:2|0:0|0:0,0:0:0:0:
413,317,166379,1,0,0:0:0:0:
418,232,166547,2,0,B|364:238|364:238|334:270|334:270|282:279,1,144.000005493164,2|0,1:2|0:0,0:0:0:0:
17,77,167222,5,0,3:0:0:0:
95,149,167390,2,0,L|101:208,2,54.0000020599366,2|0|2,0:0|0:0|0:0,0:0:0:0:
345,85,167896,6,0,L|192:102,1,144.000005493164,8|0,0:0|0:0,0:0:0:0:
193,212,168401,2,0,L|198:187,2,24.0000009155274
201,264,168570,22,0,L|128:256,1,57.5999982421876,6|0,3:2|0:0,0:0:0:0:
88,315,168738,2,0,B|59:296|47:273|47:273|80:236|70:158,1,172.799994726563,2|0,0:0|0:0,0:0:0:0:
32,90,169075,1,0,0:0:0:0:
225,217,169244,2,0,P|231:189|238:160,1,57.5999982421876,10|0,0:1|0:0,0:0:0:0:
166,39,169413,2,0,P|171:67|178:95,1,57.5999982421876,2|0,0:1|0:0,0:0:0:0:
291,270,169581,2,2,B|231:247|178:248|178:248|184:273|231:305,1,172.799994726563,2|0,0:1|0:0,0:1:0:0:
316,353,169918,5,0,3:0:0:0:
378,109,170087,1,0,0:0:0:0:
316,353,170255,1,0,0:0:0:0:
472,178,170424,2,0,P|435:184|402:198,1,57.5999982421876
269,220,170592,2,2,B|328:233|328:233|370:270|370:270|466:290,1,172.799994726563,10|0,0:1|0:0,0:1:0:0:
500,257,170929,1,2,0:0:0:0:
189,256,171098,1,2,0:0:0:0:
344,20,171266,70,0,B|370:50|370:50|367:89|334:134|334:134|330:179|353:230|353:230|385:201|404:166,1,288,6|2,3:1|0:1,0:1:0:0:
492,67,171941,2,0,P|448:58|390:108,1,115.199996484375,10|0,0:1|0:1,0:0:0:0:
200,254,172278,2,0,L|213:337,1,72.0000027465821,2|0,0:0|0:0,0:0:0:0:
133,359,172446,2,0,L|121:287,1,72.0000027465821,2|0,0:1|0:0,0:0:0:0:
84,153,172615,6,2,B|146:161|146:161|190:145|190:145|280:156,1,172.799994726563,4|2,3:1|0:1,0:1:0:0:
346,142,172952,2,2,P|294:114|210:187,1,172.799994726563,2|0,0:1|0:0,0:1:0:0:
321,242,173289,70,0,L|388:233,1,57.5999982421876,14|0,0:0|0:0,0:0:0:0:
455,273,173457,2,0,L|522:264,1,57.5999982421876,2|0,0:0|0:0,0:0:0:0:
303,264,173626,2,0,L|370:255,1,57.5999982421876,2|0,0:0|0:0,0:0:0:0:
437,295,173795,2,0,L|504:286,1,57.5999982421876,2|0,0:0|0:0,0:0:0:0:
283,288,173963,6,0,P|275:265|266:228,1,57.5999982421876,6|0,3:2|0:0,0:0:0:0:
304,92,174132,2,0,B|344:60|344:60|326:182,1,172.799994726563,2|0,0:0|0:0,0:0:0:0:
326,180,174469,1,0,0:0:0:0:
101,150,174637,2,0,P|75:139|50:124,1,57.5999982421876,10|0,0:1|0:0,0:0:0:0:
231,100,174806,2,0,P|257:87|281:72,1,57.5999982421876,2|0,0:1|0:0,0:0:0:0:
189,183,174974,2,2,B|171:234|171:234|187:356,1,172.799994726563,2|0,0:1|0:0,0:1:0:0:
106,321,175311,69,0,3:0:0:0:
305,217,175480,1,0,0:0:0:0:
127,81,175648,1,0,0:0:0:0:
201,270,175817,2,0,L|268:279,1,57.5999982421876
496,162,175986,6,0,B|466:163|447:175|447:175|406:152|406:152|378:168|351:169|351:169|341:142,1,172.799994726563,14|0,0:1|0:0,0:0:0:0:
275,120,176323,1,2,0:0:0:0:
494,239,176491,1,2,0:0:0:0:
450,51,176660,5,6,3:2:0:0:
450,51,178008,5,0,3:0:0:0:
369,120,178177,1,0,0:0:0:0:
372,141,178261,1,0,0:0:0:0:
376,162,178345,2,0,L|387:243,1,72.0000027465821
446,327,178682,2,0,P|404:283|301:299,1,144.000005493164,8|0,0:0|3:0,0:0:0:0:
160,350,179188,1,0,0:0:0:0:
160,350,179272,1,0,0:0:0:0:
160,350,179356,38,0,P|125:352|76:343,1,62.3999971435548,6|0,3:2|0:0,0:0:0:0:
36,209,179525,2,0,B|98:220|143:183|143:183|123:222|136:253,1,187.199991430664,2|0,0:0|0:0,0:0:0:0:
223,227,179862,1,0,3:0:0:0:
9,113,180030,6,0,L|74:106,1,62.3999971435548,14|0,0:1|0:0,0:0:0:0:
306,192,180199,2,0,B|315:223|315:223|302:277,1,62.3999971435548,2|0,0:1|0:0,0:0:0:0:
120,380,180368,70,0,B|136:253|136:253|176:317,1,187.199991430664,2|0,0:1|0:0,0:0:0:0:
385,338,180705,6,0,B|364:335|346:330|346:330|308:343|308:343|281:334|256:333,1,124.79999428711,6|0,3:2|0:0,0:0:0:0:
47,307,180957,2,0,B|67:304|86:299|86:299|124:312|124:312|151:303|176:302,1,124.79999428711,6|0,3:2|0:0,0:0:0:0:
307,252,181210,1,6,3:2:0:0:
0,205,181379,70,0,B|50:220|86:200|86:200|128:214|128:214|199:198,1,187.199991430664,12|0,0:0|0:0,0:0:0:0:
160,18,181716,2,0,P|90:38|169:100,1,187.199991430664,2|0,0:1|0:0,0:0:0:0:
278,256,182053,6,0,B|271:228|289:203|289:203|265:172|276:125|276:125|268:100|263:77|263:77|254:106|231:119,1,240,6|0,3:1|0:0,0:0:0:0:
360,153,182559,69,2,3:1:0:0:
159,301,182727,1,12,0:0:0:0:
382,353,182896,1,2,3:1:0:0:
121,199,183064,6,0,B|154:194|154:194|170:202|170:202|203:198,1,76.8,2|0,0:0|0:0,0:0:0:0:
352,254,183233,2,0,B|319:259|319:259|303:251|303:251|278:255,1,76.8,2|0,3:1|0:0,0:0:0:0:
35,261,183401,70,0,B|-14:229|-14:229|-3:143|-3:143|50:124,1,201.599993847656,6|2,3:1|0:1,0:0:0:0:
191,89,183738,2,0,B|131:63|131:63|121:198,1,201.599993847656,6|0,3:1|0:0,0:0:0:0:
189,335,184075,6,0,L|194:268,1,67.1999979492188,14|0,0:0|0:0,0:0:0:0:
282,144,184244,2,0,L|276:210,1,67.1999979492188,2|0,0:0|0:0,0:0:0:0:
186,354,184413,2,0,L|120:348,1,67.1999979492188,2|0,0:0|0:0,0:0:0:0:
284,125,184581,2,0,L|350:131,1,67.1999979492188,2|0,0:0|0:0,0:0:0:0:
452,364,184750,70,0,P|451:330|462:293,1,62.3999971435548,6|0,3:2|0:0,0:0:0:0:
492,210,184918,2,0,B|394:177|414:270|272:214,1,187.199991430664,2|0,0:0|0:0,0:0:0:0:
214,228,185255,1,0,3:0:0:0:
458,303,185424,6,0,B|432:322|432:322|401:327,1,62.3999971435548,14|0,0:1|0:0,0:0:0:0:
284,125,185592,2,0,B|258:106|258:106|227:101,1,62.3999971435548,2|0,0:1|0:0,0:0:0:0:
36,298,185761,70,0,B|88:299|116:253|116:253|127:304|173:318,1,187.199991430664,2|0,3:1|0:0,0:0:0:0:
34,199,186098,5,6,3:2:0:0:
97,380,186266,1,2,0:0:0:0:
214,228,186435,1,2,0:0:0:0:
36,298,186604,2,0,P|71:293|104:268,1,62.3999971435548,0|0,3:0|0:0,0:0:0:0:
210,134,186772,69,12,0:0:0:0:
53,142,186941,2,0,B|43:160|37:168|37:168|36:182|34:199,1,62.3999971435548,2|0,0:0|0:0,0:0:0:0:
202,323,187109,2,0,B|222:321|232:323|232:323|245:317|260:310,1,62.3999971435548,2|0,3:2|0:0,0:0:0:0:
297,104,187278,2,0,B|285:86|282:77|282:77|270:69|257:59,1,62.3999971435548,2|0,0:0|0:0,0:0:0:0:
128,188,187446,5,6,3:2:0:0:
256,192,187530,12,0,189132,0:0:0:0:
211,283,189469,6,0,L|162:278,2,48,8|0|0,0:0|0:0|0:0,0:0:0:0:
126,364,189806,1,8,0:0:0:0:
324,159,189974,1,8,0:0:0:0:
303,160,190059,1,8,0:0:0:0:
282,162,190143,6,0,L|154:174,1,120,6|0,3:2|0:0,0:0:0:0:
0,310,190480,1,8,0:0:0:0:
213,338,190648,2,0,P|212:308|209:279,1,60
59,202,190817,2,0,P|56:164|56:129,1,60
198,68,190986,1,0,3:0:0:0:
98,301,191154,1,10,0:0:0:0:
332,284,191323,1,2,0:0:0:0:
332,284,191407,1,0,0:0:0:0:
332,284,191491,6,0,P|385:289|470:295,1,120,0|0,3:0|0:0,0:0:0:0:
253,175,191828,1,10,0:0:0:0:
378,26,191997,1,0,0:0:0:0:
386,60,192081,1,0,0:0:0:0:
391,95,192165,2,0,L|382:173,1,60,2|0,0:0|0:0,0:0:0:0:
332,284,192334,1,0,3:0:0:0:
492,150,192502,1,10,0:0:0:0:
275,55,192671,1,0,0:0:0:0:
428,219,192839,6,0,B|395:208|376:188|376:188|317:210|253:209,1,180,2|0,3:2|0:0,0:0:0:0:
259,209,193177,1,8,0:0:0:0:
83,350,193345,1,0,0:0:0:0:
117,361,193429,1,0,0:0:0:0:
153,353,193514,1,0,0:0:0:0:
0,198,193682,1,0,3:0:0:0:
215,101,193851,1,8,0:0:0:0:
117,282,194019,38,0,B|127:153|127:153|139:177|164:192,1,180,6|0,3:2|0:0,0:0:0:0:
160,189,194356,1,0,3:0:0:0:
338,256,194525,2,0,L|208:267,1,120,8|0,0:0|0:0,0:0:0:0:
178,369,194778,1,0,0:0:0:0:
178,369,194862,2,0,L|262:361,1,60
343,156,195030,1,0,0:0:0:0:
117,282,195199,1,8,0:0:0:0:
344,314,195368,2,0,B|347:290|347:290|338:256,1,60,2|8,3:2|0:0,0:0:0:0:
221,48,195536,6,0,B|206:105|206:105|220:165,1,120,6|0,3:2|0:0,0:0:0:0:
430,269,195873,1,10,0:0:0:0:
232,345,196042,1,2,0:0:0:0:
232,345,196126,1,0,0:0:0:0:
232,345,196210,2,0,L|227:263,1,60
219,164,196379,1,0,3:0:0:0:
430,269,196547,1,8,0:0:0:0:
131,278,196716,1,2,0:0:0:0:
323,162,196884,6,0,L|328:301,1,120,2|0,3:2|0:0,0:0:0:0:
219,164,197222,1,10,0:0:0:0:
433,70,197390,1,2,0:0:0:0:
401,55,197474,1,0,0:0:0:0:
365,51,197559,2,0,P|320:64|287:86,1,60
131,278,197727,2,0,P|158:290|187:297,1,60,0|0,3:0|0:0,0:0:0:0:
374,208,197896,2,0,L|236:195,1,120,8|2,0:0|0:0,0:0:0:0:
121,136,198148,1,0,0:0:0:0:
121,136,198233,6,0,B|166:178|166:178|155:42,1,180,2|0,3:2|0:0,0:0:0:0:
154,31,198570,1,10,0:0:0:0:
39,254,198738,1,2,0:0:0:0:
246,109,198907,1,0,0:0:0:0:
33,22,199075,1,2,3:2:0:0:
241,285,199244,1,8,0:0:0:0:
0,144,199413,38,0,B|100:113|79:195|203:165,1,180,6|0,3:2|0:0,0:0:0:0:
207,163,199750,1,8,0:0:0:0:
10,322,199918,1,8,0:0:0:0:
159,72,200087,1,0,3:0:0:0:
266,346,200255,1,2,0:0:0:0:
266,346,200339,1,8,0:0:0:0:
266,346,200424,1,0,3:0:0:0:
0,144,200592,1,10,0:0:0:0:
198,261,200761,2,0,P|206:225|208:198,1,60,0|8,3:0|0:0,0:0:0:0:
52,32,200929,6,0,L|178:47,1,120,6|0,3:2|0:0,0:0:0:0:
377,69,201266,1,8,0:0:0:0:
106,217,201435,1,0,0:0:0:0:
106,217,201519,1,0,0:0:0:0:
106,217,201604,2,0,P|105:188|102:157,1,60
279,32,201772,2,0,P|276:61|275:91,1,60,0|0,3:0|0:0,0:0:0:0:
368,256,201941,1,10,0:0:0:0:
171,46,202109,1,2,0:0:0:0:
228,309,202278,6,0,B|252:256|252:256|236:181,1,120,0|0,3:0|0:0,0:0:0:0:
63,29,202615,1,10,0:0:0:0:
274,91,202783,1,0,0:0:0:0:
239,97,202868,1,0,0:0:0:0:
204,102,202952,2,0,L|119:116,1,60,2|0,0:0|0:0,0:0:0:0:
0,226,203120,2,0,L|59:235,1,60,0|0,3:0|0:0,0:0:0:0:
228,309,203289,1,10,0:0:0:0:
41,131,203457,1,0,0:0:0:0:
275,226,203626,6,0,B|211:202|149:219|149:219|152:242|142:269,1,180,2|0,3:2|0:0,0:0:0:0:
59,235,203963,1,8,0:0:0:0:
237,369,204132,1,0,0:0:0:0:
237,369,204216,1,0,0:0:0:0:
237,369,204300,2,0,P|232:332|226:289,1,60
211,68,204469,1,0,3:0:0:0:
380,205,204637,1,8,0:0:0:0:
50,143,204806,38,0,B|87:147|87:147|113:160|113:160|143:139|143:139|169:156|169:156|238:160,1,180,6|0,3:2|0:0,0:0:0:0:
239,160,205143,1,0,3:0:0:0:
98,45,205311,1,8,0:0:0:0:
288,262,205480,1,0,0:0:0:0:
255,276,205564,1,0,0:0:0:0:
219,275,205648,2,0,P|193:269|163:253,1,60
333,36,205817,2,0,P|359:21|388:14,1,60,0|0,3:0|0:0,0:0:0:0:
488,265,205986,1,8,0:0:0:0:
246,100,206154,2,0,L|237:169,1,60,0|8,3:0|0:0,0:0:0:0:
377,304,206323,6,0,B|384:267|371:234|371:234|399:201|399:201|388:173|393:135,1,180,6|0,3:2|0:0,0:0:0:0:
391,108,206660,1,8,0:0:0:0:
259,326,206828,2,0,B|284:280|284:280|269:213,1,120,2|0,0:0|0:0,0:0:0:0:
512,116,207165,2,0,B|487:162|487:162|501:228,1,120,2|8,3:2|0:0,0:0:0:0:
246,100,207502,1,2,0:0:0:0:
495,324,207671,6,0,L|340:297,1,120,4|0,3:2|0:0,0:0:0:0:
152,156,208008,1,8,0:0:0:0:
113,343,208177,1,0,0:0:0:0:
113,343,208261,1,0,0:0:0:0:
113,343,208345,2,0,P|142:347|172:348,1,60
376,303,208514,1,2,3:2:0:0:
152,156,208682,1,10,0:0:0:0:
359,42,208851,1,2,0:0:0:0:
257,319,209019,6,0,L|245:183,1,120,6|0,3:2|0:0,0:0:0:0:
249,27,209356,1,8,0:0:0:0:
0,64,209525,1,2,0:0:0:0:
30,82,209609,1,0,0:0:0:0:
63,94,209693,2,0,B|125:116|125:116|204:108,1,120,4|0,3:2|0:0,0:0:0:0:
369,202,210030,1,10,0:0:0:0:
130,17,210199,1,0,3:0:0:0:
352,33,210368,38,0,L|346:102,1,60,8|0,0:0|0:0,0:0:0:0:
265,284,210536,1,0,3:0:0:0:
265,284,210620,1,0,0:0:0:0:
265,284,210705,2,0,L|259:224,1,60,14|0,0:0|0:0,0:0:0:0:
179,110,210873,2,0,L|248:116,1,60,0|0,3:0|0:0,0:0:0:0:
512,188,211042,1,2,3:2:0:0:
470,192,211126,1,8,0:0:0:0:
428,196,211210,2,0,L|368:201,1,60,0|0,3:0|0:0,0:0:0:0:
192,354,211379,1,10,0:0:0:0:
226,377,211463,1,0,0:0:0:0:
267,384,211547,1,0,3:0:0:0:
307,372,211632,1,8,0:0:0:0:
338,345,211716,53,4,3:2:0:0:
287,119,211884,2,0,B|300:166|300:166|291:199|291:199|295:244,1,120,2|8,0:1|0:0,0:0:0:0:
458,358,212222,2,2,B|477:319|477:319|461:289|461:289|476:261|462:206|462:206|441:191,1,180,2|0,0:1|0:0,0:1:0:0:
425,171,212559,1,0,3:0:0:0:
221,178,212727,2,0,P|182:166|156:153,1,60,8|0,0:0|0:0,0:0:0:0:
303,31,212896,2,0,P|316:69|320:97,1,60,2|0,0:1|0:0,0:0:0:0:
337,310,213064,5,0,3:0:0:0:
104,215,213233,2,0,B|135:187|135:187|232:198,1,120,2|8,0:1|0:0,0:0:0:0:
500,135,213570,2,0,L|437:143,1,60,2|0,0:1|0:0,0:0:0:0:
354,118,213738,1,0,0:0:0:0:
346,159,213823,1,0,0:0:0:0:
339,200,213907,1,0,3:0:0:0:
63,68,214075,1,8,0:0:0:0:
225,270,214244,2,0,L|155:263,1,60
68,141,214413,70,0,B|23:114|23:114|164:99,1,180,2|0,3:2|0:0,0:0:0:0:
174,77,214750,1,8,0:0:0:0:
249,273,214918,2,0,B|267:234|267:234|257:203|257:203|268:158,1,120,2|0,0:0|0:0,0:0:0:0:
448,103,215255,1,0,3:0:0:0:
179,111,215424,1,8,0:0:0:0:
354,343,215592,6,0,L|420:353,1,60,4|0,3:2|0:0,0:0:0:0:
212,370,215761,2,0,L|146:360,1,60,2|0,0:1|0:0,0:0:0:0:
257,151,215929,2,0,B|280:207|280:207|263:276,1,120,0|8,3:0|0:0,1:0:0:0:
423,66,216266,1,2,0:1:0:0:
423,66,216351,1,0,0:0:0:0:
423,66,216435,2,0,B|391:64|391:64|352:77,1,60,2|0,0:1|0:0,0:0:0:0:
258,297,216604,1,0,3:0:0:0:
461,149,216772,1,8,0:0:0:0:
204,14,216941,1,0,3:0:0:0:
220,89,217025,1,8,0:0:0:0:
237,164,217109,69,4,3:2:0:0:
11,101,217278,2,0,B|48:102|48:102|76:115|76:115|99:106|99:106|144:109,1,120,2|8,0:1|0:0,0:0:0:0:
99,310,217615,2,2,B|49:327|49:327|68:278|68:278|63:242|86:187,1,180,2|0,0:1|0:0,0:1:0:0:
113,190,217952,1,0,3:0:0:0:
429,148,218120,2,0,P|394:138|362:124,1,60,8|0,0:0|0:0,0:0:0:0:
198,256,218289,2,0,P|225:244|254:237,1,60,2|0,0:1|0:0,0:0:0:0:
409,311,218457,5,0,3:0:0:0:
316,70,218626,2,0,P|293:115|323:189,1,120,2|8,0:1|0:0,0:0:0:0:
208,364,218963,2,0,L|219:292,1,60,2|0,0:1|0:0,0:0:0:0:
127,213,219132,1,0,0:0:0:0:
169,205,219216,1,0,0:0:0:0:
211,198,219300,1,0,3:0:0:0:
454,223,219469,1,8,0:0:0:0:
151,82,219637,2,0,L|220:95,1,60
380,305,219806,70,0,B|260:280|260:280|288:341,1,180,2|0,3:2|0:0,0:0:0:0:
293,357,220143,2,0,L|215:363,1,60,10|0,0:0|0:0,0:0:0:0:
18,252,220311,1,0,0:0:0:0:
58,240,220396,1,0,0:0:0:0:
98,250,220480,1,0,0:0:0:0:
129,277,220564,1,0,0:0:0:0:
141,316,220648,1,0,3:0:0:0:
307,105,220817,1,8,0:0:0:0:
459,324,220986,6,0,B|419:325|394:309|394:309|369:318|369:318|349:295|349:295|309:284|250:301,1,201.599993847656,4|0,3:2|0:0,0:0:0:0:
196,338,221323,2,0,L|188:380,2,33.5999989746094,10|0|0,0:0|0:0|0:0,0:0:0:0:
248,220,221491,2,0,L|237:138,1,67.1999979492188,10|0,0:0|0:0,0:0:0:0:
59,330,221660,1,0,3:0:0:0:
336,315,221828,1,2,0:0:0:0:
381,325,221913,1,8,0:0:0:0:
427,336,221997,1,0,3:0:0:0:
234,118,222165,1,10,0:0:0:0:
193,358,222334,1,8,0:0:0:0:
193,358,222418,1,8,0:0:0:0:
193,358,222502,69,4,3:2:0:0:
66,191,222671,2,0,B|106:192|106:192|135:204|135:204|182:186,1,120,2|8,0:1|0:0,0:0:0:0:
423,275,223008,2,0,B|391:273|356:287|356:287|332:262|332:262|296:278|239:272,1,180,2|0,0:1|0:0,0:0:0:0:
235,255,223345,1,0,3:0:0:0:
448,126,223514,2,0,P|461:157|471:193,1,60,8|0,0:0|0:0,0:0:0:0:
323,371,223682,2,0,P|331:342|343:314,1,60,2|0,0:1|0:0,0:0:0:0:
195,167,223851,5,0,3:0:0:0:
471,296,224019,2,0,B|413:313|413:313|351:287,1,120,2|8,0:1|0:0,0:0:0:0:
315,49,224356,2,0,L|321:119,1,60,2|0,0:1|0:0,0:0:0:0:
274,272,224525,1,0,0:0:0:0:
278,230,224609,1,0,0:0:0:0:
282,188,224693,1,0,3:0:0:0:
42,227,224862,1,8,0:0:0:0:
260,160,225030,2,0,L|178:142,1,60
122,333,225199,70,0,B|92:368|92:368|70:235,1,180,2|0,3:2|0:0,0:0:0:0:
85,212,225536,1,10,0:0:0:0:
332,283,225705,2,0,B|288:281|288:281|265:290|265:290|193:284,1,120,2|0,0:0|0:0,0:0:0:0:
47,346,226042,1,0,3:0:0:0:
140,94,226210,1,8,0:0:0:0:
350,260,226379,6,0,L|357:328,1,60,4|0,3:2|0:0,0:0:0:0:
402,132,226547,2,0,L|409:64,1,60,2|0,0:1|0:0,0:0:0:0:
293,355,226716,2,0,B|343:317|343:317|352:247,1,120,0|8,3:0|0:0,0:0:0:0:
221,61,227053,1,2,0:1:0:0:
221,61,227137,1,0,0:0:0:0:
221,61,227222,2,0,B|215:92|215:92|230:134,1,60,2|0,0:1|0:0,0:0:0:0:
326,272,227390,1,0,3:0:0:0:
104,169,227559,1,8,0:0:0:0:
338,85,227727,1,0,3:0:0:0:
413,102,227811,1,8,0:0:0:0:
489,120,227896,69,4,3:2:0:0:
382,328,228064,2,0,B|386:292|386:292|395:268|395:268|387:244|387:244|388:212,1,120,2|8,0:1|0:0,0:0:0:0:
313,1,228401,2,2,P|266:38|299:164,1,180,2|0,0:1|0:0,0:1:0:0:
296,165,228738,1,0,3:0:0:0:
95,231,228907,2,0,P|71:226|33:216,1,60,8|0,0:0|0:0,0:0:0:0:
160,80,229075,2,0,P|167:108|173:138,1,60,2|0,0:1|0:0,0:0:0:0:
185,321,229244,5,4,3:2:0:0:
214,350,229328,1,0,1:0:0:0:
255,356,229413,1,0,1:0:0:0:
295,346,229497,1,0,1:0:0:0:
325,316,229581,1,8,1:0:0:0:
332,274,229665,1,0,1:0:0:0:
310,237,229750,1,0,1:0:0:0:
300,196,229834,1,0,1:0:0:0:
306,154,229918,1,0,1:0:0:0:
332,121,230002,1,0,1:0:0:0:
371,106,230087,1,0,3:0:0:0:
412,111,230171,1,0,1:0:0:0:
447,133,230255,2,0,L|456:195,1,60,8|0,1:0|1:0,1:0:0:0:
310,237,230424,2,0,L|301:299,1,60,0|0,1:0|1:0,1:0:0:0:
102,226,230592,70,0,B|169:217|169:217|203:226|203:226|285:214,1,180,4|0,3:2|0:0,0:0:0:0:
300,196,230929,1,8,0:0:0:0:
482,75,231098,1,0,0:0:0:0:
482,75,231182,1,0,0:0:0:0:
482,75,231266,2,0,P|440:65|407:51,1,60,0|0,3:0|0:0,0:0:0:0:
278,106,231435,1,0,0:0:0:0:
354,330,231604,1,8,0:0:0:0:
450,147,231772,2,0,L|382:152,1,60,4|0,3:2|0:0,0:0:0:0:
251,212,231941,21,2,0:0:0:0:
227,207,232025,1,0,0:0:0:0:
203,202,232109,1,0,0:0:0:0:
179,197,232193,1,0,1:0:0:0:
155,192,232278,1,0,1:0:0:0:
131,187,232362,1,0,1:0:0:0:
107,182,232446,6,0,L|113:229,1,48,2|0,1:2|1:0,1:0:0:0:
196,342,232615,2,0,L|190:295,1,48,2|0,1:2|1:0,1:0:0:0:
166,114,232783,1,2,1:2:0:0:
42,302,232952,1,0,1:0:0:0:
280,228,233120,1,0,1:0:0:0:
313,233,233205,1,0,1:0:0:0:
346,238,233289,5,4,3:2:0:0:
326,154,233457,1,0,0:0:0:0:
389,94,233626,1,0,1:0:0:0:
423,192,233795,1,0,0:0:0:0:
423,192,233879,1,0,0:0:0:0:
423,192,233963,1,0,0:0:0:0:
423,192,234047,1,0,0:0:0:0:
423,192,234132,1,0,1:0:0:0:
306,71,234300,1,0,1:0:0:0:
479,118,234469,1,0,0:0:0:0:
479,118,234553,1,0,0:0:0:0:
479,118,234637,5,0,1:0:0:0:
241,129,234806,1,0,0:0:0:0:
383,11,234974,1,0,1:0:0:0:
423,192,235143,2,0,L|428:242,3,36.0000013732911
433,270,235480,1,0,1:0:0:0:
241,129,235648,1,0,1:0:0:0:
332,163,235817,1,0,0:0:0:0:
332,163,235901,1,0,0:0:0:0:
332,163,235986,37,0,1:0:0:0:
306,72,236154,1,0,0:0:0:0:
241,129,236323,1,0,1:0:0:0:
222,49,236491,1,0,0:0:0:0:
222,49,236575,1,0,0:0:0:0:
222,49,236660,1,0,0:0:0:0:
222,49,236744,1,0,0:0:0:0:
222,49,236828,1,0,1:0:0:0:
158,105,236997,1,0,1:0:0:0:
386,98,237165,6,0,L|433:96,3,36.0000013732911,0|0|0|0,1:0|0:0|0:0|0:0,0:0:0:0:
465,93,237502,1,0,1:0:0:0:
306,64,237671,2,0,P|305:98|310:149,1,72.0000027465821,0|0,1:0|0:0,0:0:0:0:
308,246,238008,2,0,P|278:228|232:206,1,72.0000027465821,0|0,0:0|1:0,0:0:0:0:
391,199,238345,1,0,1:0:0:0:
148,157,238514,1,0,1:0:0:0:
148,157,238598,1,0,1:0:0:0:
148,157,238682,6,0,P|178:140|220:111,1,72.0000027465821,0|0,1:0|0:0,0:0:0:0:
163,255,239019,1,0,1:0:0:0:
85,230,239188,1,0,0:0:0:0:
85,230,239272,1,0,0:0:0:0:
85,230,239356,1,0,0:0:0:0:
85,230,239441,1,0,0:0:0:0:
85,230,239525,1,0,1:0:0:0:
97,315,239693,1,0,1:0:0:0:
163,255,239862,6,0,P|203:257|214:262,2,36.0000013732911,0|0|0,0:0|0:0|1:0,0:0:0:0:
183,341,240199,1,0,0:0:0:0:
185,164,240368,1,0,1:0:0:0:
285,262,240536,1,0,0:0:0:0:
299,262,240620,1,0,0:0:0:0:
313,263,240705,1,0,0:0:0:0:
328,263,240789,1,0,0:0:0:0:
342,264,240873,2,0,L|425:266,1,72.0000027465821,0|0,1:0|1:0,0:0:0:0:
491,169,241210,38,0,L|488:116,2,36.0000013732911,0|0|0,0:0|0:0|1:0,0:0:0:0:
480,60,241547,1,0,0:0:0:0:
412,144,241716,1,0,1:0:0:0:
349,56,241884,1,0,0:0:0:0:
334,55,241969,1,0,0:0:0:0:
319,54,242053,1,0,0:0:0:0:
304,53,242137,1,0,0:0:0:0:
289,53,242222,1,0,1:0:0:0:
412,144,242390,1,0,1:0:0:0:
221,165,242559,1,0,1:0:0:0:
203,167,242643,1,0,0:0:0:0:
185,168,242727,6,0,P|178:123|183:74,1,72.0000027465821
255,262,243064,1,0,1:0:0:0:
98,177,243233,1,0,1:0:0:0:
94,163,243317,1,0,0:0:0:0:
92,148,243401,1,0,0:0:0:0:
91,134,243486,1,0,0:0:0:0:
91,120,243570,1,0,1:0:0:0:
272,118,243738,1,0,1:0:0:0:
116,270,243907,1,0,1:0:0:0:
116,270,243991,1,0,1:0:0:0:
116,270,244075,5,4,1:2:0:0:
190,358,244244,1,0,0:0:0:0:
255,262,244413,1,0,0:0:0:0:
182,173,244581,2,0,L|181:121,1,36.0000013732911
360,243,244750,2,0,L|360:278,1,36.0000013732911
190,358,244918,1,0,1:0:0:0:
270,239,245087,2,0,L|268:167,1,72.0000027465821,0|0,1:0|0:0,0:0:0:0:
110,70,245424,5,0,1:0:0:0:
241,56,245592,2,0,P|281:52|299:57,2,36.0000013732911,0|0|0,0:0|0:0|1:0,0:0:0:0:
268,167,245929,2,0,P|301:189|311:205,1,36.0000013732911
171,226,246098,2,0,P|181:264|180:283,1,36.0000013732911
283,286,246266,1,0,1:0:0:0:
74,187,246435,2,0,P|81:143|99:110,1,72.0000027465821,0|0,1:0|0:0,0:0:0:0:
93,119,246688,1,0,0:0:0:0:
93,119,246772,37,0,1:0:0:0:
179,42,246941,1,0,0:0:0:0:
218,149,247109,1,0,1:0:0:0:
294,62,247278,2,0,L|297:115,1,36.0000013732911
207,263,247446,2,0,L|209:227,1,36.0000013732911
372,148,247615,1,0,1:0:0:0:
179,42,247783,1,0,1:0:0:0:
404,35,247952,6,0,P|453:58|486:151,1,144.000005493164,0|0,1:0|1:0,0:0:0:0:
372,148,248457,2,0,L|287:141,1,72.0000027465821,0|0,1:0|0:0,0:0:0:0:
300,142,248710,1,0,0:0:0:0:
300,142,248795,1,0,0:0:0:0:
274,43,248963,1,0,1:0:0:0:
133,221,249132,2,0,L|218:228,1,72.0000027465821,0|0,1:0|1:0,0:0:0:0:
300,243,249384,1,0,1:0:0:0:
300,243,249469,6,0,L|293:328,1,72.0000027465821,0|0,1:0|0:0,0:0:0:0:
219,144,249806,1,0,1:0:0:0:
396,228,249974,1,0,0:0:0:0:
394,249,250059,1,0,0:0:0:0:
392,270,250143,1,0,0:0:0:0:
390,291,250227,1,0,0:0:0:0:
389,312,250311,1,0,1:0:0:0:
439,141,250480,6,0,P|400:130|360:136,1,81.6000015563965,0|0,1:0|0:0,0:0:0:0:
74,261,250817,2,0,L|213:253,1,122.400002334595
196,253,251154,1,0,1:0:0:0:
128,25,251323,1,0,0:0:0:0:
131,58,251407,1,0,0:0:0:0:
135,90,251491,1,0,0:0:0:0:
137,121,251575,1,0,0:0:0:0:
139,154,251660,1,0,1:0:0:0:
36,44,251828,1,0,1:0:0:0:
261,122,251997,1,0,0:0:0:0:
40,286,252165,38,0,P|31:239|41:192,1,96,0|0,3:0|0:0,0:0:0:0:
264,28,252502,1,8,0:0:0:0:
183,197,252671,1,0,0:0:0:0:
207,219,252755,1,0,0:0:0:0:
239,231,252839,1,0,0:0:0:0:
272,232,252924,1,0,0:0:0:0:
304,221,253008,1,0,3:0:0:0:
464,108,253177,2,0,P|417:98|370:106,1,96,8|0,0:0|0:0,0:0:0:0:
239,231,253514,5,8,0:0:0:0:
414,188,253682,1,0,3:0:0:0:
254,127,253851,1,8,0:0:0:0:
254,127,254019,1,0,3:0:0:0:
351,256,254188,1,8,0:0:0:0:
363,270,254272,1,8,0:0:0:0:
375,284,254356,1,0,3:0:0:0:
278,347,254525,1,8,0:0:0:0:
253,242,254693,1,0,1:0:0:0:
253,242,254778,1,0,1:0:0:0:
253,242,254862,5,6,3:2:0:0:
253,242,255199,2,0,L|265:151,1,86.3999973632813,0|0,1:0|0:0,0:0:0:0:
182,125,255536,2,0,P|171:79|164:37,1,86.3999973632813,2|0,1:2|0:0,0:0:0:0:
89,257,255873,2,0,P|96:214|106:172,1,86.3999973632813,2|0,1:2|0:0,0:0:0:0:
275,137,256210,5,0,1:0:0:0:
275,137,256547,2,0,L|368:147,1,86.3999973632813,2|0,1:2|0:0,0:0:0:0:
441,202,256884,2,0,L|488:194,2,43.1999986816407,2|0|0,1:2|0:0|0:0,0:0:0:0:
391,280,257222,2,0,L|305:270,1,86.3999973632813,2|0,1:2|0:0,0:0:0:0:
247,336,257474,1,0,0:0:0:0:
247,336,257559,38,0,P|201:293|81:308,1,172.799994726563,2|2,1:2|1:2,0:0:0:0:
22,350,258064,2,0,L|12:254,1,86.3999973632813,2|0,0:0|1:0,0:0:0:0:
86,189,258401,1,2,0:0:0:0:
86,189,258570,2,0,L|76:93,1,86.3999973632813,0|0,1:0|0:0,0:0:0:0:
126,41,258823,1,0,0:0:0:0:
126,41,258907,5,0,1:0:0:0:
187,105,259075,1,0,0:0:0:0:
264,52,259244,2,0,L|351:37,1,86.3999973632813,0|0,1:0|0:0,0:0:0:0:
426,84,259581,2,0,L|418:139,2,43.1999986816407,0|0|0,1:0|0:0|0:0,0:0:0:0:
347,185,259918,2,0,P|359:233|374:273,1,86.3999973632813,2|0,1:2|0:0,0:0:0:0:
441,330,260255,6,0,B|313:307|313:307|266:326,1,172.799994726563,2|0,1:2|1:0,0:0:0:0:
113,351,260761,2,0,L|201:363,1,86.3999973632813,2|0,0:0|1:0,0:0:0:0:
272,217,261098,1,0,0:0:0:0:
216,145,261266,1,2,1:2:0:0:
137,182,261435,1,2,0:0:0:0:
137,182,261519,1,0,0:0:0:0:
137,182,261604,5,0,1:0:0:0:
272,217,261772,1,0,0:0:0:0:
356,179,261941,1,2,1:2:0:0:
434,258,262109,1,0,0:0:0:0:
434,258,262193,1,0,0:0:0:0:
434,258,262278,1,2,1:2:0:0:
434,258,262362,1,0,0:0:0:0:
434,258,262446,1,0,0:0:0:0:
348,46,262615,2,0,L|355:140,1,86.3999973632813,2|0,1:2|0:0,0:0:0:0:
319,200,262868,1,0,0:0:0:0:
319,200,262952,38,0,P|271:223|162:161,1,172.799994726563,2|0,1:2|1:0,0:0:0:0:
217,38,263457,1,0,0:0:0:0:
219,55,263542,1,0,0:0:0:0:
221,71,263626,1,2,1:2:0:0:
223,87,263710,1,0,0:0:0:0:
226,104,263795,1,0,0:0:0:0:
75,183,263963,1,2,1:2:0:0:
208,307,264132,2,0,L|210:252,1,43.1999986816407,2|0,0:0|0:0,0:0:0:0:
217,121,264300,6,0,L|113:113,1,86.3999973632813,0|0,1:0|0:0,0:0:0:0:
5,285,264637,2,0,P|63:278|98:251,1,86.3999973632813,0|0,1:0|0:0,0:0:0:0:
77,47,264974,1,0,3:0:0:0:
27,202,265143,1,0,3:0:0:0:
256,102,265311,1,0,3:0:0:0:
29,120,265480,1,0,3:0:0:0:
159,308,265648,6,0,L|269:320,1,86.3999973632813,4|0,3:2|0:0,0:0:0:0:
434,231,265986,1,0,3:0:0:0:
341,363,266154,1,0,0:0:0:0:
339,345,266238,1,0,0:0:0:0:
337,327,266323,1,2,3:2:0:0:
335,309,266407,1,0,0:0:0:0:
333,291,266491,1,0,0:0:0:0:
403,104,266660,2,0,L|396:196,1,86.3999973632813,2|0,3:2|0:0,0:0:0:0:
414,274,266913,1,0,0:0:0:0:
414,274,266997,5,0,3:0:0:0:
193,209,267165,1,0,0:0:0:0:
328,152,267334,2,0,P|343:200|330:247,1,86.3999973632813,2|0,3:2|0:0,0:0:0:0:
259,288,267587,1,0,0:0:0:0:
259,288,267671,2,0,L|254:332,1,43.1999986816407,2|0,3:2|0:0,0:0:0:0:
170,358,267839,1,0,0:0:0:0:
91,209,268008,2,0,P|136:207|186:239,1,86.3999973632813,2|0,3:2|0:0,0:0:0:0:
74,367,268261,1,0,0:0:0:0:
74,367,268345,38,0,L|64:263,1,86.3999973632813,2|0,3:2|0:0,0:0:0:0:
130,46,268682,1,2,3:2:0:0:
156,248,268851,2,0,P|132:194|122:158,1,86.3999973632813,2|0,0:0|3:0,0:0:0:0:
255,24,269188,1,2,0:0:0:0:
255,24,269272,1,0,0:0:0:0:
255,24,269356,1,0,3:0:0:0:
262,239,269525,1,0,0:0:0:0:
153,151,269693,6,0,B|197:153|197:153|242:176,1,86.3999973632813,2|0,3:2|0:0,0:0:0:0:
237,377,270030,2,0,B|216:337|216:337|214:287,1,86.3999973632813,0|0,3:2|0:0,0:0:0:0:
391,192,270368,2,0,B|367:229|367:229|324:256,1,86.3999973632813,2|0,3:2|0:0,0:0:0:0:
122,253,270705,1,2,3:2:0:0:
140,50,270873,1,0,3:0:0:0:
313,175,271042,6,0,L|197:161,1,96,4|0,3:2|1:0,0:0:0:0:
26,218,271379,1,8,1:0:0:0:
149,348,271547,1,0,1:0:0:0:
168,326,271632,1,0,1:0:0:0:
168,297,271716,1,0,1:0:0:0:
168,268,271800,1,0,1:0:0:0:
168,239,271884,1,0,3:0:0:0:
73,47,272053,2,0,P|60:93|90:146,1,96,8|0,1:0|1:0,1:0:0:0:
333,102,272390,6,0,L|217:75,1,96,6|0,3:2|1:0,1:0:0:0:
122,250,272727,2,0,L|178:237,1,48,8|0,1:0|1:0,1:0:0:0:
328,188,272896,2,0,L|272:175,1,48,0|0,1:0|1:0,1:0:0:0:
214,307,273064,1,0,1:0:0:0:
222,334,273148,1,0,1:0:0:0:
243,354,273233,1,0,1:0:0:0:
270,361,273317,1,0,1:0:0:0:
298,359,273401,2,0,L|349:338,1,48,8|0,1:0|1:0,1:0:0:0:
442,257,273570,2,0,L|502:268,1,48,0|0,1:0|1:0,1:0:0:0:
373,136,273738,37,4,3:2:0:0:
346,170,273823,1,0,1:0:0:0:
305,184,273907,1,0,1:0:0:0:
261,185,273991,1,0,1:0:0:0:
222,165,274075,1,8,1:0:0:0:
195,130,274160,1,0,1:0:0:0:
185,88,274244,2,0,L|177:23,1,48,0|0,3:0|1:0,1:0:0:0:
53,251,274413,2,0,L|102:257,1,48,12|0,0:0|1:0,1:0:0:0:
304,153,274581,2,0,L|255:159,1,48,0|0,3:0|1:0,1:0:0:0:
78,123,274750,2,0,L|86:188,1,48,12|0,1:0|1:0,1:0:0:0:
161,330,274918,5,4,3:2:0:0:
161,330,275087,2,0,L|212:339,1,48,0|0,1:0|1:0,0:0:0:0:
334,315,275255,2,0,L|283:306,1,48,0|0,1:0|1:0,0:0:0:0:
180,220,275424,1,2,0:0:0:0:
296,70,275592,1,0,1:0:0:0:
296,70,275677,1,0,1:0:0:0:
296,70,275761,1,2,1:2:0:0:
345,295,275929,1,2,1:2:0:0:
104,158,276098,22,0,B|174:165|227:140|227:140|219:168|195:202,1,187.199991430664,2|0,0:1|0:0,0:0:0:0:
125,384,276435,6,0,B|83:362|83:362|69:322|80:274|80:274|130:242,1,187.199991430664,6|0,3:1|0:0,0:0:0:0:
244,304,276772,6,0,P|213:311|182:314,1,62.3999971435548,2|0,0:1|0:0,0:0:0:0:
42,147,276941,2,0,P|72:150|103:157,1,62.3999971435548,2|0,3:1|0:0,0:0:0:0:
318,241,277109,1,8,0:0:0:0:
233,102,277278,70,0,B|236:84|236:84|236:75|236:75|241:51,2,41.5999980957032,2|0|0,0:0|0:0|0:0,0:0:0:0:
392,176,277446,2,0,B|394:190|394:190|394:199|394:199|397:217,2,41.5999980957032,2|0|0,0:0|0:0|0:0,0:0:0:0:
327,22,277615,6,0,B|303:62|327:110|327:110|318:145|291:169|291:169|317:198|318:256,1,240,6|0,3:2|0:0,0:0:0:0:
213,372,278120,70,0,B|241:328|235:261|235:261|245:304|277:317,1,187.199991430664,2|0,3:2|0:0,0:0:0:0:
434,224,278457,54,0,P|415:222|397:217,8,38.399998828125,10|0|0|2|0|0|2|0|0,0:0|0:0|0:0|0:0|0:0|0:0|0:0|0:0|0:0,0:0:0:0:
316,145,278963,70,0,P|297:151|279:153,2,38.4,2|0|2,0:0|0:0|0:0,0:0:0:0:
317,240,279132,37,4,3:2:0:0:
470,114,279300,2,0,B|443:102|443:102|404:112,1,62.3999971435548,2|0,0:1|0:0,0:0:0:0:
155,217,279469,2,0,B|182:229|182:229|221:219,1,62.3999971435548,2|0,0:1|0:0,0:0:0:0:
333,30,279637,1,0,3:0:0:0:
317,240,279806,6,0,B|297:195|339:155|339:155|328:133|307:108|307:108|328:91|335:72|335:72|330:47|333:30,1,240,14|0,0:1|0:0,0:0:0:0:
167,75,280311,70,0,B|121:53|121:53|189:28|189:28|261:44,1,187.199991430664,6|0,3:2|0:0,0:0:0:0:
470,114,280648,2,0,B|438:122|438:122|411:113,1,62.3999971435548,2|0,0:0|0:0,0:0:0:0:
287,330,280817,1,8,0:0:0:0:
267,132,280986,6,0,B|330:114|330:114|305:241,1,187.199991430664,6|0,3:2|0:0,0:0:0:0:
152,263,281323,2,0,B|184:255|184:255|211:264,1,62.3999971435548,2|0,0:0|0:0,0:0:0:0:
379,300,281491,1,8,0:0:0:0:
189,368,281660,1,0,0:0:0:0:
189,368,281744,1,0,0:0:0:0:
189,368,281828,69,4,3:2:0:0:
379,300,281997,2,0,B|385:277|385:277|384:259|384:259|389:234,1,62.3999971435548,2|0,0:1|0:0,0:0:0:0:
141,180,282165,2,0,B|134:157|134:157|135:139|135:139|130:114,1,62.3999971435548,2|0,0:1|0:0,0:0:0:0:
399,102,282334,2,0,B|405:79|405:79|404:61|404:61|408:40,1,62.3999971435548,2|0,3:1|0:0,0:0:0:0:
126,25,282502,1,8,0:0:0:0:
288,278,282671,6,0,L|247:285,2,41.5999980957032,2|0|0,0:0|0:0|0:0,0:0:0:0:
251,112,282839,2,0,L|291:119,2,41.5999980957032,2|0|0,0:0|0:0|0:0,0:0:0:0:
71,172,283008,70,0,B|170:140|158:226|281:194,1,187.199991430664,6|0,3:2|0:0,0:0:0:0:
255,19,283345,2,0,P|188:56|271:99,1,187.199991430664,0|0,3:0|0:0,0:0:0:0:
335,71,283682,5,0,3:0:0:0:
110,0,283851,1,8,0:0:0:0:
145,244,284019,1,0,0:0:0:0:
145,244,284104,1,0,0:0:0:0:
145,244,284188,70,2,B|151:226|143:213|143:213|151:199|148:173,6,72.0000027465821,2|2|2|2|2|2|2,0:1|0:1|0:1|0:1|0:1|0:1|0:1,0:1:0:0:
70,343,284525,6,0,B|92:342|109:322|109:322|153:336|153:336|190:313|190:313|214:328|245:325,1,187.199991430664,6|0,3:1|0:0,0:0:0:0:
300,228,284862,70,0,P|261:233|218:247,1,62.3999971435548,2|0,0:1|0:0,0:0:0:0:
70,343,285030,1,2,3:2:0:0:
358,374,285199,2,0,P|353:335|339:292,1,62.3999971435548,10|0,0:1|0:0,0:0:0:0:
151,116,285368,6,0,B|121:183|145:244|145:244|142:213|168:175,1,187.199991430664,2|0,0:1|0:0,0:0:0:0:
376,210,285705,70,0,B|328:194|283:221|283:221|260:195|260:195|217:210|217:210|200:194|146:189,1,240,6|0,3:2|0:0,0:0:0:0:
158,191,286210,2,0,L|150:258,1,62.3999971435548,8|0,0:0|0:0,0:0:0:0:
334,372,286379,6,0,P|391:332|304:305,1,187.199991430664,6|0,3:2|0:0,0:0:0:0:
162,354,286716,70,0,L|154:292,1,62.3999971435548,10|0,0:0|0:0,0:0:0:0:
253,143,286884,2,0,L|245:204,1,62.3999971435548,10|0,0:0|0:0,0:0:0:0:
64,360,287053,1,10,0:0:0:0:
64,360,287137,1,8,0:0:0:0:
64,360,287222,6,0,B|48:307|48:307|75:293|75:293|47:248|63:182,1,187.199991430664,6|0,3:1|0:0,0:0:0:0:
220,129,287559,2,0,B|194:144|194:144|150:149,1,62.3999971435548,2|0,0:1|0:0,0:0:0:0:
8,60,287727,2,0,B|40:63|40:63|66:78,1,62.3999971435548,2|0,3:1|0:0,0:0:0:0:
143,231,287896,1,8,0:0:0:0:
302,160,288064,70,0,P|305:140|307:118,2,41.5999980957032,2|0|0,0:0|0:0|0:0,0:0:0:0:
248,247,288233,2,0,P|249:267|252:288,2,41.5999980957032,2|0|0,0:0|0:0|0:0,0:0:0:0:
398,178,288401,6,0,B|393:210|405:239|405:239|377:291|381:363|381:363|426:340,1,240,4|0,3:2|0:0,0:0:0:0:
473,192,288907,70,0,B|475:141|448:114|411:103|411:103|452:102|489:77,1,187.199991430664,2|0,3:2|0:0,0:0:0:0:
375,89,289244,22,0,P|338:97|293:100,1,72.0000027465821,10|0,0:0|0:0,0:0:0:0:
122,125,289581,2,0,P|157:128|192:135,1,72.0000027465821,2|0,0:0|0:0,0:0:0:0:
254,353,289918,54,0,B|259:282|208:228|208:228|237:203|290:217,1,216.000008239746,6|0,3:1|0:0,0:0:0:0:
396,298,290255,2,0,B|359:303|359:303|304:278,1,72.0000027465821,2|0,0:1|0:0,0:0:0:0:
162,313,290424,1,0,3:0:0:0:
236,75,290592,6,2,B|259:60|277:38|277:38|249:203,1,216.000008239746,14|2,0:1|0:0,0:1:0:0:
228,217,290929,1,0,0:0:0:0:
471,159,291098,70,0,B|430:161|394:132|394:132|350:125|310:153|310:153|327:181,1,192,6|0,3:2|0:0,0:0:0:0:
434,358,291604,1,8,0:0:0:0:
458,83,291772,6,0,B|439:64|415:51|415:51|354:45|293:68|293:68|319:39|337:-2,1,240,6|0,3:2|0:0,0:0:0:0:
254,82,292278,70,0,L|264:164,1,62.3999971435548,8|0,0:0|0:0,0:0:0:0:
322,315,292446,1,0,0:0:0:0:
272,306,292530,1,8,0:0:0:0:
222,298,292615,6,0,B|150:306|150:306|77:281|77:281|103:302|116:327,1,187.199991430664,6|0,3:1|0:0,0:0:0:0:
220,221,292952,2,0,L|150:230,1,62.3999971435548,2|0,0:1|0:0,0:0:0:0:
16,191,293120,2,0,L|86:182,1,62.3999971435548,0|0,3:0|0:0,0:0:0:0:
307,233,293289,1,8,0:0:0:0:
196,372,293457,2,0,P|159:338|182:201,1,187.199991430664,2|0,3:1|0:0,0:0:0:0:
240,181,293795,1,8,0:0:0:0:
21,120,293963,70,0,B|58:99|58:99|166:105,1,124.79999428711,6|0,3:2|0:0,0:0:0:0:
355,300,294300,2,0,P|386:247|368:178,1,124.79999428711,0|0,3:0|0:0,0:0:0:0:
183,24,294637,1,8,0:0:0:0:
205,179,294806,1,0,3:0:0:0:
22,40,294974,2,0,L|101:56,1,62.3999971435548,10|0,0:0|0:0,0:0:0:0:
347,152,295143,2,0,L|268:168,1,62.3999971435548,10|0,0:0|0:0,0:0:0:0:
83,335,295311,6,0,P|37:293|47:221,1,124.79999428711,6|0,3:2|0:0,0:0:0:0:
224,249,295564,1,0,0:0:0:0:
224,249,295648,2,0,B|164:274|164:274|100:264,1,124.79999428711,2|0,0:1|3:0,0:0:0:0:
93,73,295986,1,10,0:1:0:0:
229,356,296154,1,0,3:0:0:0:
407,97,296323,2,0,L|332:107,1,62.3999971435548,8|0,0:0|0:0,0:0:0:0:
159,140,296491,1,8,0:0:0:0:
148,188,296575,1,8,0:0:0:0:
138,237,296660,70,0,L|60:251,2,62.3999971435548,6|0|0,3:2|0:0|0:0,0:0:0:0:
229,204,296913,1,0,3:0:0:0:
229,204,296997,2,0,L|302:218,1,62.3999971435548,8|2,0:0|0:0,0:0:0:0:
470,276,297165,2,0,P|439:292|397:305,1,62.3999971435548,6|0,3:2|0:0,0:0:0:0:
265,126,297334,5,8,0:0:0:0:
256,76,297418,1,8,0:0:0:0:
247,26,297502,1,2,3:0:0:0:
467,120,297671,1,10,0:0:0:0:
300,342,297839,1,10,0:0:0:0:
300,342,297924,1,8,0:0:0:0:
300,342,298008,6,0,L|157:322,1,120,6|0,3:2|0:0,0:0:0:0:
6,259,298345,1,8,0:0:0:0:
231,62,298514,1,2,0:0:0:0:
249,92,298598,1,0,0:0:0:0:
259,126,298682,2,0,P|260:158|253:196,1,60
69,354,298851,1,0,3:0:0:0:
41,164,299019,2,0,L|159:147,1,120,10|0,0:0|0:0,0:0:0:0:
322,273,299356,5,0,3:0:0:0:
171,128,299525,1,0,0:0:0:0:
384,68,299693,1,10,0:0:0:0:
208,300,299862,1,2,0:0:0:0:
208,300,299946,1,0,0:0:0:0:
208,300,300030,2,0,P|205:260|202:216,1,60,2|0,0:0|0:0,0:0:0:0:
268,54,300199,1,2,3:2:0:0:
91,279,300368,1,10,0:0:0:0:
94,44,300536,2,0,P|91:73|89:103,1,60,2|0,0:0|0:0,0:0:0:0:
329,175,300705,6,0,B|260:174|204:144|204:144|181:159|141:170,1,180,2|0,3:2|0:0,0:0:0:0:
133,180,301042,1,8,0:0:0:0:
209,364,301210,2,0,B|186:317|186:317|215:228,1,120,2|0,0:0|0:0,0:0:0:0:
301,10,301547,1,2,3:2:0:0:
133,180,301716,1,8,0:0:0:0:
364,254,301884,6,0,B|351:127|351:127|319:193,1,180,6|0,3:2|0:0,0:0:0:0:
207,251,302222,2,0,L|266:258,1,60,0|0,3:0|0:0,0:0:0:0:
462,175,302390,1,8,0:0:0:0:
245,81,302559,1,0,0:0:0:0:
245,81,302643,1,0,0:0:0:0:
245,81,302727,2,0,P|244:124|238:160,1,60
360,313,302896,2,0,P|361:270|367:234,1,60,0|0,3:0|0:0,0:0:0:0:
481,89,303064,1,10,0:0:0:0:
266,258,303233,1,2,3:2:0:0:
230,254,303317,1,8,0:0:0:0:
194,249,303401,38,0,P|139:244|73:238,1,120,6|0,3:2|0:0,0:0:0:0:
357,117,303738,1,8,0:0:0:0:
172,11,303907,1,2,0:0:0:0:
139,37,303991,1,0,0:0:0:0:
125,75,304075,1,0,0:0:0:0:
131,116,304160,1,0,0:0:0:0:
158,148,304244,1,2,3:2:0:0:
35,50,304413,1,8,0:0:0:0:
258,207,304581,6,0,P|252:147|247:87,1,120,2|0,0:0|3:0,0:0:0:0:
98,316,304918,1,2,0:0:0:0:
98,316,305002,1,0,0:0:0:0:
98,316,305087,2,0,P|100:286|101:256,1,60,8|0,0:0|0:0,0:0:0:0:
158,148,305255,1,2,0:0:0:0:
0,284,305424,1,2,0:0:0:0:
201,374,305592,1,2,3:2:0:0:
43,150,305761,2,0,B|97:131|97:131|157:147,1,120,10|0,0:0|0:0,0:0:0:0:
512,203,306098,6,0,B|420:188|436:256|342:244,1,180,2|0,3:2|0:0,0:0:0:0:
308,231,306435,1,10,0:0:0:0:
319,17,306604,2,0,P|344:75|356:144,1,120,2|0,0:0|0:0,0:0:0:0:
223,367,306941,1,2,3:2:0:0:
461,211,307109,1,10,0:0:0:0:
213,103,307278,6,0,B|210:143|224:169|224:169|208:222|208:222|223:246|221:275,1,180,6|0,3:2|0:0,0:0:0:0:
307,327,307615,2,0,P|310:341|315:355,2,30,10|0|0,0:0|0:0|0:0,0:0:0:0:
127,154,307783,2,0,P|123:184|114:213,1,60,10|0,0:0|0:0,0:0:0:0:
57,368,307952,1,0,3:0:0:0:
308,231,308120,1,2,0:0:0:0:
308,231,308205,1,8,0:0:0:0:
308,231,308289,1,0,3:0:0:0:
34,169,308457,1,10,0:0:0:0:
161,303,308626,2,0,L|167:226,1,60,0|8,3:0|0:0,0:0:0:0:
29,53,308795,38,0,B|15:106|15:106|43:201,1,120,6|0,3:2|0:0,0:0:0:0:
317,232,309132,1,8,0:0:0:0:
166,104,309300,1,2,0:0:0:0:
201,93,309384,1,0,0:0:0:0:
238,97,309469,2,0,P|273:97|318:89,1,60
410,8,309637,1,0,0:0:0:0:
436,245,309806,2,0,P|353:231|298:235,1,120,10|0,0:0|0:0,0:0:0:0:
193,226,310059,1,0,0:0:0:0:
193,226,310143,6,0,B|243:241|317:232|317:232|270:272,1,180,0|0,3:2|0:0,0:0:0:0:
205,380,310480,2,0,P|203:353|194:307,1,60,10|0,0:0|0:0,0:0:0:0:
276,86,310648,1,2,0:0:0:0:
276,86,310733,1,0,0:0:0:0:
276,86,310817,2,0,P|270:116|270:147,1,60,2|0,0:0|0:0,0:0:0:0:
296,355,310986,1,2,3:2:0:0:
97,196,311154,1,10,0:0:0:0:
372,125,311323,1,2,0:0:0:0:
176,44,311491,6,0,L|191:262,1,180,2|0,3:2|0:0,0:0:0:0:
190,260,311828,1,8,0:0:0:0:
441,170,311997,1,2,0:0:0:0:
411,140,312081,1,0,0:0:0:0:
372,125,312165,1,0,0:0:0:0:
331,129,312250,1,0,0:0:0:0:
295,150,312334,1,2,0:0:0:0:
162,356,312502,1,8,0:0:0:0:
412,300,312671,6,0,B|372:264|360:224|360:224|338:260|291:278,1,180,6|0,3:2|0:0,0:0:0:0:
190,260,313008,1,0,3:0:0:0:
388,86,313177,1,8,0:0:0:0:
171,11,313345,1,0,0:0:0:0:
161,45,313429,1,0,0:0:0:0:
157,81,313514,2,0,P|156:132|167:173,1,60,2|0,0:0|0:0,0:0:0:0:
293,277,313682,1,2,0:0:0:0:
57,121,313851,1,8,0:0:0:0:
305,113,314019,2,0,P|254:112|213:123,1,60,0|8,3:0|0:0,0:0:0:0:
31,233,314188,38,0,B|66:233|91:224|91:224|141:248|141:248|173:238|226:230,1,180,6|0,3:2|0:0,0:0:0:0:
247,238,314525,1,8,0:0:0:0:
46,1,314693,2,0,P|46:60|56:120,1,120,2|0,0:0|0:0,0:0:0:0:
354,310,315030,2,0,P|364:250|364:190,1,120,2|8,3:2|0:0,0:0:0:0:
56,120,315368,1,2,0:0:0:0:
333,49,315536,6,0,L|192:63,1,120,6|0,3:2|0:0,0:0:0:0:
68,306,315873,1,8,0:0:0:0:
279,168,316042,1,2,0:0:0:0:
277,203,316126,1,0,0:0:0:0:
273,238,316210,2,0,L|267:302,1,60
56,120,316379,2,0,L|61:179,1,60,0|0,3:0|0:0,0:0:0:0:
163,328,316547,2,0,B|180:202|180:202|131:240,1,180,10|0,0:0|0:0,0:0:0:0:
68,306,316884,5,6,3:2:0:0:
279,168,317053,1,0,0:0:0:0:
56,120,317222,1,8,0:0:0:0:
186,208,317390,1,2,0:0:0:0:
186,208,317474,1,0,0:0:0:0:
186,208,317559,1,4,3:2:0:0:
9,223,317727,1,2,0:0:0:0:
200,62,317896,1,8,0:0:0:0:
232,347,318064,1,4,3:2:0:0:
9,223,318233,5,2,0:0:0:0:
186,208,318401,1,2,1:2:0:0:
210,208,318486,1,0,1:0:0:0:
233,207,318570,1,0,1:0:0:0:
141,362,318738,1,2,1:2:0:0:
117,362,318823,1,0,1:0:0:0:
94,363,318907,2,0,L|88:285,1,48,2|0,1:2|1:0,1:0:0:0:
313,201,319075,2,0,L|309:153,1,48,2|0,1:2|1:0,1:0:0:0:
114,116,319244,38,0,B|66:130|66:130|60:211|60:211|103:234,1,180,6|0,0:0|0:0,0:0:0:0:
198,246,319581,6,0,L|103:234,1,96,4|0,3:2|0:0,0:0:0:0:
256,330,319918,1,8,0:0:0:0:
216,151,320087,1,0,0:0:0:0:
216,151,320171,1,0,0:0:0:0:
216,151,320255,1,0,0:0:0:0:
216,151,320339,1,0,0:0:0:0:
216,151,320424,1,0,3:0:0:0:
366,201,320592,2,0,L|356:311,1,96,8|2,0:0|0:0,0:0:0:0:
357,296,320845,1,0,0:0:0:0:
357,296,320929,5,0,3:0:0:0:
506,115,321098,2,0,P|475:107|414:141,1,96,2|8,0:0|0:0,0:0:0:0:
207,163,321435,2,0,P|249:151|333:198,1,144,2|0,0:0|0:0,0:0:0:0:
332,197,321772,1,0,3:0:0:0:
116,234,321941,2,0,L|103:127,1,96,8|0,0:0|0:0,0:0:0:0:
256,11,322278,6,0,L|269:118,1,96,0|0,3:0|0:0,0:0:0:0:
255,243,322615,1,8,0:0:0:0:
407,139,322783,1,0,0:0:0:0:
407,139,322868,1,0,0:0:0:0:
407,139,322952,1,0,0:0:0:0:
407,139,323036,1,0,0:0:0:0:
407,139,323120,1,0,3:0:0:0:
253,92,323289,2,0,L|141:80,1,96,8|2,0:0|0:0,0:0:0:0:
157,81,323542,1,0,0:0:0:0:
157,81,323626,37,0,3:0:0:0:
237,235,323795,2,0,B|253:281|253:281|234:348,1,96,2|8,0:0|0:0,0:0:0:0:
69,248,324132,2,0,B|52:203|52:203|72:110,1,144,2|0,0:0|0:0,0:0:0:0:
72,109,324469,1,0,3:0:0:0:
248,206,324637,1,8,0:0:0:0:
50,329,324806,1,0,0:0:0:0:
57,301,324890,1,8,0:0:0:0:
65,273,324974,6,0,L|189:288,1,96,0|0,3:0|0:0,0:0:0:0:
337,198,325311,1,8,0:0:0:0:
279,323,325480,1,0,0:0:0:0:
279,323,325564,1,0,0:0:0:0:
279,323,325648,1,0,0:0:0:0:
279,323,325733,1,0,0:0:0:0:
279,323,325817,1,0,3:0:0:0:
179,125,325986,2,0,L|283:135,1,96,8|2,0:0|0:0,0:0:0:0:
274,134,326238,1,0,0:0:0:0:
274,134,326323,5,0,3:0:0:0:
424,110,326491,2,0,P|445:67|432:19,1,96,2|8,0:0|0:0,0:0:0:0:
358,189,326828,2,0,P|326:253|345:325,1,144,2|0,0:0|0:0,0:0:0:0:
342,320,327165,1,0,3:0:0:0:
512,250,327334,2,0,L|417:265,1,96,8|0,0:0|0:0,0:0:0:0:
168,183,327671,6,0,L|263:168,1,96,0|0,3:0|0:0,0:0:0:0:
384,70,328008,1,8,0:0:0:0:
379,281,328177,1,0,0:0:0:0:
379,281,328261,1,0,0:0:0:0:
379,281,328345,1,0,0:0:0:0:
379,281,328429,1,0,0:0:0:0:
379,281,328514,1,0,3:0:0:0:
256,156,328682,2,0,L|161:141,1,96,8|2,0:0|0:0,0:0:0:0:
161,141,328935,1,0,0:0:0:0:
161,141,329019,37,0,3:0:0:0:
100,331,329188,2,0,B|79:287|79:287|86:221,1,96,2|8,0:0|0:0,0:0:0:0:
269,38,329525,2,0,B|290:82|290:82|283:148,1,96,2|0,3:0|0:0,0:0:0:0:
284,164,329778,1,8,0:0:0:0:
284,164,329862,1,0,3:0:0:0:
413,69,330030,1,8,0:0:0:0:
206,102,330199,1,0,0:0:0:0:
177,96,330283,1,8,0:0:0:0:
148,91,330368,6,0,P|96:96|46:106,1,86.3999973632813,0|0,3:0|0:0,0:0:0:0:
116,311,330705,2,0,L|134:171,1,129.599996044922,8|0,0:0|0:0,0:0:0:0:
216,160,331042,1,0,0:0:0:0:
216,160,331126,1,0,0:0:0:0:
216,160,331210,1,0,3:0:0:0:
353,265,331379,2,0,L|454:254,1,86.3999973632813,8|0,0:0|0:0,0:0:0:0:
261,354,331716,6,0,P|240:307|249:268,1,86.3999973632813,0|2,3:0|0:0,0:0:0:0:
292,83,332053,1,8,0:0:0:0:
391,200,332222,1,2,0:0:0:0:
391,200,332306,1,0,0:0:0:0:
391,200,332390,2,0,L|337:193,1,43.1999986816407
267,181,332559,1,2,3:2:0:0:
64,242,332727,2,0,L|156:258,1,86.3999973632813,8|0,0:0|0:0,0:0:0:0:
149,256,332980,1,0,0:0:0:0:
149,256,333064,5,0,3:0:0:0:
204,106,333233,1,0,0:0:0:0:
120,140,333401,2,0,L|133:231,1,86.3999973632813,8|0,0:0|0:0,0:0:0:0:
79,352,333738,1,0,0:0:0:0:
79,352,333823,1,0,0:0:0:0:
79,352,333907,1,0,3:0:0:0:
238,318,334075,2,0,B|198:299|198:299|143:306,1,86.3999973632813,8|2,0:0|0:0,0:0:0:0:
317,274,334413,38,0,L|415:289,1,86.3999973632813,0|2,3:0|0:0,0:0:0:0:
493,129,334750,1,8,0:0:0:0:
386,172,334918,1,2,0:0:0:0:
386,172,335002,1,0,0:0:0:0:
386,172,335087,2,0,L|394:222,1,43.1999986816407
407,302,335255,1,0,3:0:0:0:
276,329,335424,1,8,0:0:0:0:
305,142,335592,1,0,0:0:0:0:
302,168,335677,1,8,0:0:0:0:
296,194,335761,6,0,P|245:206|199:211,1,86.3999973632813,0|0,3:0|0:0,0:0:0:0:
24,121,336098,2,0,L|161:137,1,129.599996044922,8|0,0:0|0:0,0:0:0:0:
219,80,336435,1,0,0:0:0:0:
219,80,336519,1,0,0:0:0:0:
219,80,336604,1,0,3:0:0:0:
197,234,336772,2,0,L|181:342,1,86.3999973632813,8|2,0:0|0:0,0:0:0:0:
371,251,337109,6,0,P|322:249|285:272,1,86.3999973632813,0|2,3:0|0:0,0:0:0:0:
180,348,337446,1,8,0:0:0:0:
91,252,337615,1,2,0:0:0:0:
91,252,337699,1,0,0:0:0:0:
91,252,337783,2,0,L|85:201,1,43.1999986816407
70,126,337952,1,0,3:0:0:0:
256,185,338120,2,0,L|158:172,1,86.3999973632813,8|0,0:0|0:0,0:0:0:0:
170,173,338373,1,0,0:0:0:0:
170,173,338457,5,2,3:2:0:0:
137,43,338626,1,0,0:0:0:0:
234,7,338795,2,0,B|241:52|241:52|220:112,1,86.3999973632813,10|0,0:0|0:0,0:0:0:0:
284,231,339132,1,2,0:0:0:0:
284,231,339216,1,0,0:0:0:0:
284,231,339300,1,0,3:0:0:0:
462,171,339469,2,0,L|357:176,1,86.3999973632813,10|0,0:0|3:0,0:0:0:0:
254,360,339806,37,12,0:0:0:0:
207,174,339974,1,0,3:0:0:0:
129,354,340143,1,8,0:0:0:0:
321,308,340311,1,0,3:0:0:0:
128,170,340480,1,8,0:0:0:0:
128,170,340564,1,8,0:0:0:0:
128,170,340648,1,0,3:0:0:0:
230,349,340817,2,0,L|239:251,1,86.3999973632813,10|0,0:0|0:0,0:0:0:0:
250,186,341070,1,8,0:0:0:0:
250,186,341154,5,6,3:2:0:0:
