osu file format v14

[General]
AudioFilename: audio.mp3
AudioLeadIn: 0
PreviewTime: 32098
Countdown: 0
SampleSet: Soft
StackLeniency: 0.2
Mode: 0
LetterboxInBreaks: 0
StoryFireInFront: 0
WidescreenStoryboard: 1

[Editor]
DistanceSpacing: 0.4
BeatDivisor: 4
GridSize: 32
TimelineZoom: 2.600005

[Metadata]
Title:White Eternity (Soleily & Epsilon Remix)
TitleUnicode:White Eternity (Soleily & Epsilon Remix)
Artist:Nitta Emi
ArtistUnicode:新田恵海
Creator:Lasse
Version:Snowfall
Source:アストラエアの白き永遠
Tags:drum and bass dnb drumstep eroge visual novel opening AstralAir no Shiroki Towa Favorite
BeatmapID:1468282
BeatmapSetID:693946

[Difficulty]
HPDrainRate:5
CircleSize:4.3
OverallDifficulty:8.7
ApproachRate:9.2
SliderMultiplier:1.76
SliderTickRate:1

[Events]
//Background and Video events
0,0,"bg.jpg",0,0
//Break Periods
2,119306,120559
2,122003,123592
2,130093,131345
2,132789,134379
//Storyboard Layer 0 (Background)
//Storyboard Layer 1 (Fail)
//Storyboard Layer 2 (Pass)
//Storyboard Layer 3 (Foreground)
//Storyboard Sound Samples

[TimingPoints]
455,337.078651685393,4,2,1,60,1,0
455,-125,4,2,1,60,0,0
19331,-111.111111111111,4,2,1,60,0,0
20342,-100,4,2,1,60,0,0
21016,-100,4,2,1,50,0,0
22028,-285.714285714286,4,2,43,44,0,0
22196,-285.714285714286,4,2,43,10,0,0
29780,-285.714285714286,4,2,43,20,0,0
30117,-285.714285714286,4,2,43,10,0,0
30286,-285.714285714286,4,2,43,15,0,0
30454,-285.714285714286,4,2,43,20,0,0
30623,-285.714285714286,4,2,43,25,0,0
30792,-285.714285714286,4,2,43,30,0,0
31129,-285.714285714286,4,2,43,35,0,0
31466,-285.714285714286,4,2,43,40,0,0
31803,-285.714285714286,4,2,43,45,0,0
32140,-285.714285714286,4,2,43,50,0,0
32477,-285.714285714286,4,2,43,20,0,0
32814,-200,4,2,43,60,0,0
32898,-200,4,2,43,45,0,0
34331,-200,4,2,43,10,0,0
34499,-200,4,2,43,45,0,0
39724,-200,4,2,43,10,0,0
39893,-200,4,2,43,45,0,0
45117,-200,4,2,43,10,0,0
45286,-200,4,2,43,45,0,0
48994,-166.666666666667,4,2,43,45,0,0
53713,-142.857142857143,4,2,43,48,0,0
54050,-142.857142857143,4,2,43,52,0,0
54387,-142.857142857143,4,2,43,50,0,0
56241,-142.857142857143,4,2,43,36,0,0
56410,-142.857142857143,4,2,43,50,0,0
56578,-142.857142857143,4,2,43,36,0,0
56747,-142.857142857143,4,2,43,50,0,0
56915,-142.857142857143,4,2,43,36,0,0
57084,-142.857142857143,4,2,43,50,0,0
59275,-142.857142857143,4,2,43,38,0,0
59443,-142.857142857143,4,2,43,42,0,0
59612,-142.857142857143,4,2,43,46,0,0
59780,-142.857142857143,4,2,43,50,0,0
61297,-142.857142857143,4,2,43,42,0,0
61466,-142.857142857143,4,2,43,46,0,0
61634,-142.857142857143,4,2,43,50,0,0
61971,-142.857142857143,4,2,43,42,0,0
62140,-142.857142857143,4,2,43,50,0,0
63320,-142.857142857143,4,2,43,42,0,0
63489,-142.857142857143,4,2,43,46,0,0
63657,-142.857142857143,4,2,43,50,0,0
63994,-142.857142857143,4,2,43,42,0,0
64162,-142.857142857143,4,2,43,44,0,0
64331,-142.857142857143,4,2,43,46,0,0
64499,-142.857142857143,4,2,43,48,0,0
64668,-142.857142857143,4,2,43,50,0,0
64837,-142.857142857143,4,2,43,52,0,0
65005,-142.857142857143,4,2,43,54,0,0
65174,-125,4,2,43,55,0,0
70567,-111.111111111111,4,2,1,60,0,0
71915,-99.9999999999999,4,2,1,65,0,0
73263,-100,4,2,1,70,0,0
74443,-100,4,2,1,65,0,0
74612,-100,4,2,1,60,0,0
74780,-100,4,2,1,50,0,0
75117,-100,4,2,1,60,0,0
75286,-100,4,2,1,50,0,0
75623,-50,4,2,43,100,0,0
75876,-50,4,2,99,5,0,0
75960,-83.3333333333333,4,2,1,75,0,1
79837,-66.6666666666667,4,2,1,75,0,1
80174,-83.3333333333333,4,2,1,75,0,1
85230,-66.6666666666667,4,2,1,75,0,1
85567,-83.3333333333333,4,2,1,75,0,1
86410,-111.111111111111,4,2,1,75,0,0
86747,-83.3333333333333,4,2,1,75,0,1
90623,-66.6666666666667,4,2,1,75,0,1
90960,-83.3333333333333,4,2,1,75,0,1
93488,-74.0740740740741,4,2,1,75,0,1
93825,-83.3333333333333,4,2,1,75,0,1
94837,-74.0740740740741,4,2,1,75,0,1
97533,-76.9230769230769,4,2,1,70,0,0
98376,-90.9090909090909,4,2,1,70,0,0
101578,-76.9230769230769,4,2,1,70,0,0
101915,-90.9090909090909,4,2,1,70,0,0
103095,-76.9230769230769,4,2,1,70,0,0
104443,-90.9090909090909,4,2,1,70,0,0
106971,-76.9230769230769,4,2,1,70,0,0
107308,-90.9090909090909,4,2,1,70,0,0
108488,-76.9230769230769,4,2,1,70,0,0
109162,-90.9090909090909,4,2,1,70,0,0
112365,-76.9230769230769,4,2,1,70,0,0
112870,-90.9090909090909,4,2,1,70,0,0
113881,-76.9230769230769,4,2,1,70,0,0
115061,-90.9090909090909,4,2,1,70,0,0
116410,-76.9230769230769,4,2,1,70,0,0
117589,-90.9090909090909,4,2,1,70,0,0
117926,-100,4,2,1,60,0,0
118095,-100,4,2,1,50,0,0
118263,-125,4,2,1,50,0,0
118769,-55.5555555555556,4,2,1,50,0,0
119106,-200,4,2,43,55,0,0
119190,-250,4,2,43,35,0,0
121803,-250,4,2,43,30,0,0
124162,-250,4,2,43,35,0,0
124331,-250,4,2,43,30,0,0
124837,-250,4,2,43,35,0,0
125342,-250,4,2,43,10,0,0
125511,-250,4,2,43,35,0,0
127533,-250,4,2,43,10,0,0
127870,-250,4,2,43,35,0,0
128713,-250,4,2,43,10,0,0
128881,-250,4,2,43,35,0,0
129893,-250,4,2,43,30,0,0
131915,-250,4,2,43,35,0,0
132589,-250,4,2,43,30,0,0
134949,-200,4,2,43,35,0,0
138994,-200,4,2,43,36,0,0
139162,-200,4,2,43,37,0,0
139331,-200,4,2,43,38,0,0
139499,-200,4,2,43,40,0,0
139668,-200,4,2,43,42,0,0
139837,-200,4,2,43,44,0,0
140005,-200,4,2,43,47,0,0
140174,-200,4,2,43,49,0,0
140342,-200,4,2,43,51,0,0
140511,-200,4,2,43,53,0,0
140679,-125,4,2,1,60,0,0
146072,-125,4,2,1,62,0,0
151466,-111.111111111111,4,2,1,63,0,0
156859,-100,4,2,1,64,0,0
158039,-90.9090909090909,4,2,1,64,0,0
158207,-83.3333333333333,4,2,1,64,0,0
158544,-100,4,2,1,64,0,0
159556,-83.3333333333333,4,2,1,64,0,0
159893,-100,4,2,1,64,0,0
161241,-100,4,2,1,64,0,0
162252,-83.3333333333333,4,2,1,65,0,0
162589,-83.3333333333333,4,2,1,66,0,0
162926,-83.3333333333333,4,2,1,67,0,0
163263,-83.3333333333333,4,2,1,68,0,0
163601,-83.3333333333333,4,2,1,70,0,0
163938,-83.3333333333333,4,2,1,72,0,0
164275,-83.3333333333333,4,2,1,75,0,0
164949,-83.3333333333333,4,2,1,70,0,0
165623,-100,4,2,43,58,0,0
166297,-200,4,2,43,58,0,0
166634,-200,4,2,1,10,0,0
166887,-200,4,2,99,5,0,0
166971,-55.5555555555556,4,2,43,95,0,0
167140,-55.5555555555556,4,2,43,20,0,0
167308,-100,4,2,43,50,0,0
167365,-100,4,2,43,30,0,0
167646,-83.3333333333333,4,2,1,70,0,1
168193,-83.3333333333333,4,2,99,5,0,1
168320,-83.3333333333333,4,2,1,70,0,1
168362,-83.3333333333333,4,2,99,5,0,1
168488,-83.3333333333333,4,2,1,70,0,1
168530,-83.3333333333333,4,2,99,5,0,1
168657,-71.4285714285714,4,2,1,70,0,1
168994,-83.3333333333333,4,2,1,70,0,1
169668,-71.4285714285714,4,2,1,70,0,1
170342,-125,4,2,1,70,0,1
170848,-83.3333333333333,4,2,1,70,0,1
171353,-62.5,4,2,1,70,0,1
171690,-83.3333333333333,4,2,1,70,0,1
172028,-100,4,2,1,70,0,1
172365,-71.4285714285714,4,2,1,70,0,1
173039,-83.3333333333333,4,2,1,70,0,1
173587,-83.3333333333333,4,2,99,5,0,1
173713,-83.3333333333333,4,2,1,70,0,1
173755,-83.3333333333333,4,2,99,5,0,1
173881,-83.3333333333333,4,2,1,70,0,1
173924,-83.3333333333333,4,2,99,5,0,1
174050,-71.4285714285714,4,2,1,70,0,1
174893,-83.3333333333333,4,2,1,70,0,1
175061,-76.9230769230769,4,2,1,70,0,1
175735,-100,4,2,1,75,0,0
176072,-200,4,2,43,55,0,0
177758,-66.6666666666667,4,2,43,60,0,0
178095,-100,4,2,43,55,0,0
178432,-83.3333333333333,4,2,1,70,0,1
178980,-83.3333333333333,4,2,99,5,0,1
179106,-83.3333333333333,4,2,1,70,0,1
179148,-83.3333333333333,4,2,99,5,0,1
179275,-83.3333333333333,4,2,1,70,0,1
179317,-83.3333333333333,4,2,99,5,0,1
179443,-71.4285714285714,4,2,1,70,0,1
179780,-58.8235294117647,4,2,1,75,0,1
180454,-83.3333333333333,4,2,1,70,0,1
181129,-125,4,2,1,70,0,1
181803,-83.3333333333333,4,2,1,70,0,1
182140,-62.5,4,2,1,70,0,1
182477,-83.3333333333333,4,2,1,70,0,1
182814,-100,4,2,1,70,0,1
183151,-71.4285714285714,4,2,1,70,0,1
183825,-83.3333333333333,4,2,1,70,0,1
184373,-83.3333333333333,4,2,99,5,0,1
184499,-83.3333333333333,4,2,1,70,0,1
184542,-83.3333333333333,4,2,99,5,0,1
184668,-83.3333333333333,4,2,1,70,0,1
184710,-83.3333333333333,4,2,99,5,0,1
184837,-71.4285714285714,4,2,1,70,0,1
185679,-83.3333333333333,4,2,1,70,0,1
186016,-71.4285714285714,4,2,1,70,0,1
186522,-142.857142857143,4,2,43,55,0,0
186859,-142.857142857143,4,2,43,50,0,0
187870,-142.857142857143,4,2,43,45,0,0
188376,-142.857142857143,4,2,43,55,0,0
188544,-111.111111111111,4,2,1,65,0,0
188881,-111.111111111111,4,2,1,70,0,0
189050,-142.857142857143,4,2,1,70,0,0
189219,-83.3333333333333,4,2,1,75,0,1
193095,-66.6666666666667,4,2,1,75,0,1
193432,-83.3333333333333,4,2,1,75,0,1
198488,-66.6666666666667,4,2,1,75,0,1
198825,-83.3333333333333,4,2,1,75,0,1
199668,-111.111111111111,4,2,1,75,0,0
200005,-83.3333333333333,4,2,1,75,0,1
203881,-66.6666666666667,4,2,1,75,0,1
204219,-83.3333333333333,4,2,1,75,0,1
206747,-74.0740740740741,4,2,1,75,0,1
207084,-83.3333333333333,4,2,1,75,0,1
208095,-74.0740740740741,4,2,1,75,0,1
210792,-90.9090909090909,4,2,1,70,0,0
210960,-76.9230769230769,4,2,1,70,0,0
211634,-90.9090909090909,4,2,1,70,0,0
214837,-76.9230769230769,4,2,1,70,0,0
215342,-90.9090909090909,4,2,1,70,0,0
216353,-76.9230769230769,4,2,1,70,0,0
217702,-90.9090909090909,4,2,1,70,0,0
220230,-76.9230769230769,4,2,1,70,0,0
220735,-90.9090909090909,4,2,1,70,0,0
221747,-76.9230769230769,4,2,1,70,0,0
222421,-90.9090909090909,4,2,1,70,0,0
225623,-76.9230769230769,4,2,1,70,0,0
226129,-90.9090909090909,4,2,1,70,0,0
227140,-76.9230769230769,4,2,1,70,0,0
228320,-90.9090909090909,4,2,1,70,0,0
229668,-76.9230769230769,4,2,1,70,0,0
230848,-90.9090909090909,4,2,1,70,0,0
231185,-100,4,2,1,60,0,0
231353,-100,4,2,1,50,0,0
231522,-125,4,2,1,50,0,0
232028,-100,4,2,43,60,0,0
232365,-125,4,2,1,40,0,0
243151,-111.111111111111,4,2,1,42,0,0
253938,-142.857142857143,4,2,1,40,0,0
259331,-142.857142857143,4,2,1,42,0,0
260679,-142.857142857143,4,2,1,44,0,0
261353,-142.857142857143,4,2,1,46,0,0
261690,-142.857142857143,4,2,1,48,0,0
262028,-142.857142857143,4,2,1,50,0,0
263376,-142.857142857143,4,2,1,52,0,0
264050,-142.857142857143,4,2,1,54,0,0
264387,-142.857142857143,4,2,1,55,0,0
264724,-125,4,2,1,60,0,0
269780,-125,4,2,1,63,0,0
270117,-100,4,2,1,65,0,0
272814,-100,4,2,1,70,0,0
273994,-100,4,2,1,74,0,0
274162,-200,4,2,43,50,0,0
274837,-300.0300030003,4,2,43,50,0,0
275089,-300.0300030003,4,2,43,30,0,0
275174,-55.5555555555556,4,2,43,70,0,0
275511,-71.4285714285714,4,2,1,75,0,1
275848,-83.3333333333333,4,2,1,75,0,1
276353,-71.4285714285714,4,2,43,70,0,0
276410,-71.4285714285714,4,2,43,50,0,0
276522,-71.4285714285714,4,2,43,70,0,0
276578,-71.4285714285714,4,2,43,50,0,0
276690,-100,4,2,1,75,0,1
277196,-71.4285714285714,4,2,1,75,0,1
277449,-71.4285714285714,4,2,99,5,0,1
277533,-71.4285714285714,4,2,43,70,0,0
277589,-71.4285714285714,4,2,43,60,0,0
277702,-71.4285714285714,4,2,43,70,0,0
277758,-71.4285714285714,4,2,43,60,0,0
277870,-71.4285714285714,4,2,43,70,0,0
277926,-71.4285714285714,4,2,43,60,0,0
278039,-71.4285714285714,4,2,43,70,0,0
278081,-71.4285714285714,4,2,43,60,0,0
278207,-71.4285714285714,4,2,1,75,0,1
278881,-83.3333333333333,4,2,1,75,0,1
279134,-83.3333333333333,4,2,99,5,0,1
279219,-83.3333333333333,4,2,43,75,0,1
279261,-83.3333333333333,4,2,43,20,0,1
279387,-62.5,4,2,1,75,0,1
279724,-100,4,2,1,75,0,1
280061,-62.5,4,2,1,75,0,1
280398,-100,4,2,1,75,0,1
280904,-71.4285714285714,4,2,1,75,0,1
281241,-83.3333333333333,4,2,1,75,0,1
281747,-71.4285714285714,4,2,43,70,0,0
281803,-71.4285714285714,4,2,43,50,0,0
281915,-71.4285714285714,4,2,43,70,0,0
281971,-71.4285714285714,4,2,43,50,0,0
282084,-83.3333333333333,4,2,1,75,0,1
283263,-500,4,2,43,70,0,0
283516,-500,4,2,99,5,0,0
283601,-71.4285714285714,4,2,1,75,0,1
283938,-62.5,4,2,1,75,0,1
284443,-142.857142857143,4,2,1,70,0,0
284696,-142.857142857143,4,2,99,5,0,0
284780,-62.5,4,2,1,75,0,1
285286,-100,4,2,1,75,0,1
285454,-66.6666666666667,4,2,1,75,0,1
285792,-83.3333333333333,4,2,1,75,0,0
286297,-71.4285714285714,4,2,1,75,0,1
286634,-83.3333333333333,4,2,1,75,0,1
287140,-71.4285714285714,4,2,43,70,0,0
287196,-71.4285714285714,4,2,43,50,0,0
287308,-71.4285714285714,4,2,43,70,0,0
287365,-71.4285714285714,4,2,43,50,0,0
287477,-100,4,2,1,75,0,1
287983,-83.3333333333333,4,2,1,75,0,1
288320,-125,4,2,1,65,0,0
288488,-125,4,2,43,30,0,0
288657,-166.666666666667,4,2,43,46,0,0
288910,-166.666666666667,4,2,99,5,0,0
288994,-71.4285714285714,4,2,1,75,0,1
289331,-90.9090909090909,4,2,1,75,0,1
289668,-66.6666666666667,4,2,1,75,0,1
289921,-66.6666666666667,4,2,99,5,0,1
290005,-76.9230769230769,4,2,43,60,0,0
290174,-83.3333333333333,4,2,1,75,0,1
290679,-83.3333333333333,4,2,1,75,0,0
290848,-83.3333333333333,4,2,1,75,0,1
291353,-83.3333333333333,4,2,1,75,0,0
291690,-83.3333333333333,4,2,1,75,0,1
292196,-71.4285714285714,4,2,1,75,0,1
296072,-62.5,4,2,1,75,0,1
296410,-83.3333333333333,4,2,1,75,0,1
296747,-71.4285714285714,4,2,1,75,0,1
297084,-100,4,2,1,68,0,0
317140,-133.333333333333,4,2,43,68,0,0
317308,-133.333333333333,4,2,43,64,0,0
317983,-100,4,2,43,64,0,0
318320,-80,4,2,43,70,0,0
318572,-80,4,2,99,5,0,0
318657,-111.111111111111,4,2,1,64,0,0
340230,-125,4,2,1,60,0,0
351016,-142.857142857143,4,2,1,55,0,0
360454,-166.666666666667,4,2,43,50,0,0
360792,-166.666666666667,4,2,43,44,0,0
360960,-166.666666666667,4,2,43,38,0,0
361129,-166.666666666667,4,2,43,33,0,0
361297,-166.666666666667,4,2,43,22,0,0
361466,-200,4,2,43,55,0,0
361634,-200,4,2,43,20,0,0

[Colours]
Combo1 : 255,80,80
Combo2 : 255,175,215
Combo3 : 160,160,160
Combo4 : 190,200,240
Combo5 : 255,30,30
Combo6 : 255,150,150
Combo7 : 220,220,220
Combo8 : 190,180,240

[HitObjects]
104,79,455,6,0,P|171:82|190:146,1,140.8,6|0,3:2|0:2,0:0:0:0:
129,222,960,1,0,0:2:0:0:
129,222,1044,1,0,0:2:0:0:
129,222,1129,2,0,L|39:212,1,70.4,8|0,0:2|0:2,0:0:0:0:
190,144,1466,2,0,L|280:154,1,70.4,2|0,0:2|0:2,0:0:0:0:
351,115,1803,53,2,0:2:0:0:
451,284,2140,1,2,3:2:0:0:
351,115,2477,1,10,0:2:0:0:
451,284,2814,1,2,0:2:0:0:
437,50,3151,54,0,P|370:53|351:117,1,140.8,2|0,3:2|0:2,0:0:0:0:
291,192,3657,1,0,0:2:0:0:
291,192,3741,1,0,0:2:0:0:
291,192,3825,2,0,L|201:181,1,70.4,8|0,0:2|0:2,0:0:0:0:
135,234,4162,2,0,L|45:223,1,70.4,2|0,0:2|0:2,0:0:0:0:
133,356,4499,54,0,P|163:280|129:230,1,140.8,2|0,0:2|3:2,0:0:0:0:
19,73,5174,1,10,0:2:0:0:
135,234,5511,1,2,3:2:0:0:
77,154,5679,2,0,P|94:143|117:135,1,35.2,8|0,0:2|0:2,0:0:0:0:
135,234,5848,54,0,L|280:230,1,140.8,2|0,3:2|0:2,0:0:0:0:
374,283,6353,1,0,0:2:0:0:
374,283,6438,1,0,0:2:0:0:
374,283,6522,2,0,L|379:211,1,70.4,8|0,0:2|0:2,0:0:0:0:
311,122,6859,2,0,L|306:50,1,70.4,2|0,0:2|0:2,0:0:0:0:
407,2,7196,53,2,0:2:0:0:
378,212,7533,1,2,3:2:0:0:
407,2,7870,1,10,0:2:0:0:
378,212,8207,1,2,0:2:0:0:
198,41,8544,54,0,L|57:37,1,140.8,2|0,3:2|0:2,0:0:0:0:
5,136,9050,1,0,0:2:0:0:
5,136,9134,1,0,0:2:0:0:
5,136,9219,2,0,L|13:226,1,70.4,8|0,0:2|0:2,0:0:0:0:
92,283,9556,2,0,L|84:373,1,70.4,2|0,0:2|0:2,0:0:0:0:
214,298,9893,54,0,P|157:261|92:283,1,140.8,2|0,0:2|3:2,0:0:0:0:
57,37,10567,1,10,0:2:0:0:
92,283,10904,1,2,0:2:0:0:
74,160,11072,1,8,0:2:0:0:
81,152,11157,1,8,0:2:0:0:
89,145,11241,54,0,B|133:138|162:167|162:167|199:176|226:158,1,140.8,6|0,3:2|0:2,0:0:0:0:
303,84,11747,1,0,0:2:0:0:
303,84,11831,1,0,0:2:0:0:
303,84,11915,2,0,L|304:13,1,70.4,8|0,0:2|0:2,0:0:0:0:
375,170,12252,2,0,L|377:245,1,70.4,2|0,0:2|0:2,0:0:0:0:
378,258,12505,1,0,0:2:0:0:
380,275,12589,54,0,P|316:252|233:258,1,140.8,2|0,0:2|3:2,0:0:0:0:
244,255,13263,2,0,P|204:256|155:240,1,70.4,8|0,0:2|0:2,0:0:0:0:
380,275,13601,2,0,P|420:274|469:290,1,70.4,2|0,0:2|0:2,0:0:0:0:
459,295,13853,1,0,0:2:0:0:
466,311,13938,53,2,3:2:0:0:
506,89,14275,1,2,0:2:0:0:
466,311,14612,1,10,0:2:0:0:
506,89,14949,1,2,0:2:0:0:
493,205,15117,53,0,0:2:0:0:
493,205,15202,1,0,0:2:0:0:
493,205,15286,2,0,L|339:189,1,140.8,2|0,0:2|3:2,0:0:0:0:
267,264,15792,1,0,0:2:0:0:
267,264,15876,1,0,0:2:0:0:
267,264,15960,2,0,L|256:178,1,70.4,8|0,0:2|0:2,0:0:0:0:
295,63,16297,1,2,3:2:0:0:
352,190,16466,1,8,0:2:0:0:
207,110,16634,86,0,L|151:102,3,35.2,6|0|0|0,1:2|1:2|1:2|1:2,0:0:0:0:
100,126,16971,2,0,L|44:118,3,35.2,2|0|0|0,1:2|1:2|1:2|1:2,0:0:0:0:
7,175,17308,53,10,1:2:0:0:
9,196,17393,1,0,1:2:0:0:
11,218,17477,1,0,1:2:0:0:
13,240,17561,1,0,1:2:0:0:
15,262,17646,1,2,1:2:0:0:
18,284,17730,1,0,1:2:0:0:
20,306,17814,1,0,1:2:0:0:
22,328,17898,1,0,1:2:0:0:
24,350,17983,53,2,1:2:0:0:
59,323,18067,1,0,1:2:0:0:
101,311,18151,1,0,1:2:0:0:
144,316,18235,1,0,1:2:0:0:
183,337,18320,1,2,3:2:0:0:
221,357,18404,1,0,1:2:0:0:
264,362,18488,1,0,1:2:0:0:
306,350,18572,1,0,1:2:0:0:
341,324,18657,53,10,1:2:0:0:
306,322,18741,1,0,1:2:0:0:
274,307,18825,1,0,1:2:0:0:
251,281,18910,1,0,1:2:0:0:
239,248,18994,1,2,1:2:0:0:
241,213,19078,1,0,1:2:0:0:
257,182,19162,1,0,1:2:0:0:
284,159,19247,1,0,1:2:0:0:
316,149,19331,54,0,P|321:129|320:110,3,39.5999987915039,6|0|0|0,3:2|1:2|1:2|1:2,0:0:0:0:
264,53,19668,2,0,P|259:33|260:14,3,39.5999987915039,2|0|0|0,1:2|1:2|1:2|1:2,0:0:0:0:
182,70,20005,53,10,1:2:0:0:
152,67,20089,1,0,1:2:0:0:
123,63,20174,1,0,1:2:0:0:
93,60,20258,1,0,1:2:0:0:
64,57,20342,54,0,P|42:44|23:23,1,44,2|0,3:2|1:2,0:0:0:0:
152,67,20511,2,0,P|174:80|193:101,1,44,10|0,1:2|1:2,0:0:0:0:
30,135,20679,5,6,3:2:0:0:
203,356,21016,5,2,0:2:0:0:
117,246,21185,1,8,0:2:0:0:
65,376,21353,1,2,0:2:0:0:
187,92,21690,53,10,1:2:0:0:
399,189,22028,70,0,B|393:139|393:139|401:113|401:113|391:75|391:75|378:112|378:112|381:138|381:138|367:188|367:188|310:172|310:172|294:153|294:153|256:139|256:139|281:171|281:171|306:181|306:181|342:223|342:223|300:258|300:258|273:265|273:265|243:289|243:289|282:284|282:284|304:267|304:267|357:257|357:257|370:310|370:310|360:335|360:335|369:372|369:372|383:338|383:338|381:311|381:311|398:262|398:262|449:272|449:272|468:293|468:293|503:305|503:305|480:274|480:274|452:264|452:264|422:226|422:226|456:184|456:184|482:178|482:178|510:154|510:154|474:159|474:159|452:176|452:176|413:192,1,1416.7999567627,6|0,3:2|0:2,0:0:0:0:
256,192,30117,12,0,32477,0:0:0:0:
445,111,32814,118,0,P|449:70|457:13,2,88,6|0|0,3:2|0:2|0:2,0:0:0:0:
493,248,33825,1,2,0:2:0:0:
493,248,33994,2,0,P|438:234|355:234,1,132,2|2,0:2|0:2,0:0:0:0:
256,325,34837,1,2,0:2:0:0:
121,278,35174,1,2,0:2:0:0:
95,138,35511,53,2,0:2:0:0:
203,45,35848,1,2,0:2:0:0:
337,92,36185,2,0,P|360:88|395:84,2,44,2|0|0,0:2|0:2|0:2,0:0:0:0:
182,146,36859,54,0,P|138:140|78:139,1,88,2|0,0:2|0:2,0:0:0:0:
0,242,37533,1,2,0:2:0:0:
44,376,37870,1,2,0:2:0:0:
137,270,38207,54,0,P|181:264|241:263,2,88,2|0|0,0:2|0:2|0:2,0:0:0:0:
0,242,39219,1,2,0:2:0:0:
0,242,39387,2,0,P|9:186|13:103,1,132,2|2,0:2|0:2,0:0:0:0:
125,25,40230,1,2,0:2:0:0:
254,79,40567,1,2,0:2:0:0:
271,217,40904,54,0,P|269:260|264:318,1,88,2|0,0:2|0:2,0:0:0:0:
136,360,41578,2,0,P|131:317|127:259,1,88,2|0,0:2|0:2,0:0:0:0:
207,136,42252,54,0,P|250:131|294:126,1,88,2|0,0:2|0:2,0:0:0:0:
430,90,42926,1,2,0:2:0:0:
393,225,43263,1,2,0:2:0:0:
295,127,43601,54,0,P|282:60|274:35,2,88,2|0|0,0:2|0:2|0:2,0:0:0:0:
187,217,44612,1,2,0:2:0:0:
187,217,44780,2,0,P|132:203|49:203,1,132,2|2,0:2|0:2,0:0:0:0:
2,71,45623,1,2,0:2:0:0:
57,202,45960,1,2,0:2:0:0:
143,89,46297,53,2,0:2:0:0:
282,107,46634,1,2,0:2:0:0:
335,236,46971,2,0,P|360:239|382:245,2,44,2|0|0,0:2|0:2|0:2,0:0:0:0:
200,307,47646,54,0,P|156:301|96:300,1,88,2|0,0:2|0:2,0:0:0:0:
0,357,48320,1,2,0:2:0:0:
112,299,48657,1,0,0:2:0:0:
3,194,48994,54,0,P|0:138|0:74,1,105.599996777344,2|0,0:2|0:2,0:0:0:0:
84,105,49499,2,0,P|118:101|158:92,1,52.7999983886719,2|0,0:2|0:2,0:0:0:0:
262,63,49837,2,0,P|236:60|210:56,1,52.7999983886719,2|0,0:2|0:2,0:0:0:0:
339,143,50174,1,2,0:2:0:0:
339,143,50342,2,0,P|346:88|350:31,2,105.599996777344,2|0|0,0:2|0:2|0:2,0:0:0:0:
257,193,51185,53,2,0:2:0:0:
183,188,51353,1,2,0:2:0:0:
109,183,51522,1,2,0:2:0:0:
40,248,51690,54,0,P|49:309|54:362,1,105.599996777344,2|0,0:2|0:2,0:0:0:0:
183,188,52196,2,0,P|174:249|169:302,1,105.599996777344,2|0,0:2|0:2,0:0:0:0:
89,95,52702,2,0,P|98:156|103:209,1,105.599996777344,2|0,0:2|0:2,0:0:0:0:
243,364,53376,5,2,0:2:0:0:
476,117,53713,1,2,0:2:0:0:
146,39,54050,1,2,0:2:0:0:
389,320,54387,38,0,L|397:178,1,123.199996240234,6|0,3:2|0:2,0:0:0:0:
312,296,54893,2,0,L|320:154,1,123.199996240234,2|0,0:2|0:2,0:0:0:0:
235,272,55398,2,0,L|243:130,1,123.199996240234,2|0,0:2|0:2,0:0:0:0:
242,149,56072,53,2,0:2:0:0:
213,41,56241,1,2,0:2:0:0:
162,161,56410,53,2,0:2:0:0:
198,47,56578,1,2,0:2:0:0:
98,113,56747,53,2,0:2:0:0:
183,53,56915,1,2,0:2:0:0:
305,69,57084,54,0,P|243:67|183:53,1,123.199996240234,2|0,0:2|0:2,0:0:0:0:
29,33,57589,2,0,P|56:17|86:11,1,61.5999981201172,2|0,0:2|0:2,0:0:0:0:
98,113,57926,2,0,P|71:128|41:135,1,61.5999981201172,2|0,0:2|0:2,0:0:0:0:
115,234,58263,54,0,P|112:172|98:112,1,123.199996240234,2|0,0:2|0:2,0:0:0:0:
184,53,58769,1,2,0:2:0:0:
285,74,58938,2,0,P|319:66|356:60,1,61.5999981201172,2|0,0:2|0:2,0:0:0:0:
470,11,59275,53,2,0:2:0:0:
360,59,59443,1,2,0:2:0:0:
487,91,59612,53,2,0:2:0:0:
375,57,59780,2,0,P|305:37|240:32,1,123.199996240234,2|0,0:2|0:2,0:0:0:0:
151,16,60286,54,0,P|160:45|164:75,1,61.5999981201172,2|0,0:2|0:2,0:0:0:0:
227,159,60623,2,0,P|217:188|213:218,1,61.5999981201172,2|0,0:2|0:2,0:0:0:0:
283,296,60960,2,0,P|312:286|342:282,1,61.5999981201172,2|0,0:2|0:2,0:0:0:0:
439,323,61297,53,2,0:2:0:0:
426,218,61466,1,2,0:2:0:0:
342,282,61634,2,0,P|251:298|202:288,1,123.199996240234,2|2,0:2|0:2,0:0:0:0:
134,344,62140,2,0,P|127:314|117:286,1,61.5999981201172,2|0,0:2|0:2,0:0:0:0:
55,200,62477,53,2,0:2:0:0:
55,200,62814,1,2,0:2:0:0:
0,110,62983,2,0,P|-3:79|-1:48,1,61.5999981201172,2|0,0:2|0:2,0:0:0:0:
128,12,63320,53,2,0:2:0:0:
6,35,63488,1,2,0:2:0:0:
138,22,63657,2,0,P|169:27|200:28,1,61.5999981201172,2|0,0:2|0:2,0:0:0:0:
311,82,63994,53,2,0:2:0:0:
306,155,64162,1,2,0:2:0:0:
301,228,64331,1,2,0:2:0:0:
372,123,64499,69,2,0:2:0:0:
241,188,64668,1,2,0:2:0:0:
246,115,64837,53,2,0:2:0:0:
367,196,65005,1,2,0:2:0:0:
430,79,65174,102,0,P|370:49|310:82,1,140.8,6|0,3:2|0:2,0:0:0:0:
367,196,65679,1,2,0:2:0:0:
367,196,65848,2,0,L|371:125,1,70.4,2|0,0:2|3:2,0:0:0:0:
241,188,66185,2,0,L|242:117,1,70.4,8|0,0:2|0:2,0:0:0:0:
359,286,66522,54,0,P|393:275|428:274,1,70.4,0|0,3:2|0:2,0:0:0:0:
204,338,66859,53,10,0:2:0:0:
243,206,67028,1,2,0:2:0:0:
138,296,67196,53,2,0:2:0:0:
245,224,67365,1,2,3:2:0:0:
118,221,67533,53,10,0:2:0:0:
247,242,67702,1,2,0:2:0:0:
138,296,67870,54,0,B|98:307|62:278|62:278|22:273|-5:314,1,140.8,2|8,3:2|0:2,0:0:0:0:
136,365,68376,2,0,P|142:324|132:280,1,70.4,2|0,0:2|0:2,0:0:0:0:
137,154,68713,2,0,P|120:192|118:237,1,70.4,2|8,3:2|0:2,0:0:0:0:
277,312,69050,54,0,P|202:302|131:295,1,140.8,2|0,3:2|3:2,0:0:0:0:
8,297,69556,1,10,0:2:0:0:
136,313,69724,2,0,P|167:307|207:302,1,70.4,2|0,0:2|0:2,0:0:0:0:
397,362,70061,53,2,3:2:0:0:
409,278,70230,1,10,0:2:0:0:
421,194,70398,1,8,0:2:0:0:
410,179,70483,1,8,0:2:0:0:
400,164,70567,6,0,P|376:156|353:151,3,39.5999987915039,6|0|0|0,3:2|1:2|1:2|1:2,0:0:0:0:
286,167,70904,2,0,L|283:115,1,39.5999987915039,10|0,1:2|1:2,0:0:0:0:
222,74,71072,54,0,L|219:22,3,39.5999987915039,2|0|0|0,1:2|1:2|1:2|1:2,0:0:0:0:
151,118,71410,2,0,P|127:110|104:105,1,39.5999987915039,2|0,3:2|1:2,0:0:0:0:
249,182,71578,2,0,P|272:171|294:164,1,39.5999987915039,10|0,1:2|1:2,0:0:0:0:
106,208,71747,1,2,1:2:0:0:
124,200,71831,1,2,1:2:0:0:
143,202,71915,54,0,P|150:217|160:242,3,44,6|0|0|0,3:2|1:2|1:2|1:2,0:0:0:0:
249,182,72252,53,10,1:2:0:0:
275,179,72337,1,0,1:2:0:0:
303,176,72421,1,2,1:2:0:0:
329,172,72505,1,0,1:2:0:0:
356,169,72589,1,2,1:2:0:0:
383,166,72674,1,0,1:2:0:0:
410,163,72758,1,0,3:2:0:0:
438,159,72842,1,0,1:2:0:0:
467,157,72926,54,0,L|471:96,1,44,10|0,1:2|1:2,0:0:0:0:
410,259,73095,2,0,L|406:314,1,44,2|0,3:2|1:2,0:0:0:0:
343,78,73263,21,6,3:2:0:0:
315,60,73348,1,0,1:2:0:0:
282,54,73432,1,0,1:2:0:0:
250,61,73516,1,0,1:2:0:0:
222,78,73601,1,8,1:2:0:0:
194,95,73685,1,0,1:2:0:0:
162,101,73769,1,0,1:2:0:0:
129,96,73853,1,0,1:2:0:0:
101,78,73938,37,6,3:2:0:0:
153,88,74022,1,0,1:2:0:0:
189,129,74106,1,0,1:2:0:0:
192,183,74190,1,0,1:2:0:0:
162,227,74275,2,0,L|97:218,1,44,8|0,1:2|1:2,0:0:0:0:
33,161,74443,69,2,3:2:0:0:
30,112,74528,1,2,1:2:0:0:
57,72,74612,2,0,L|122:81,1,44,0|0,1:2|1:2,0:0:0:0:
48,275,74780,5,2,2:2:0:0:
47,259,74865,1,2,2:2:0:0:
46,243,74949,1,2,2:2:0:0:
231,336,75117,21,8,2:2:0:0:
232,309,75202,1,8,2:2:0:0:
234,283,75286,21,2,3:2:0:0:
244,281,75370,1,0,1:2:0:0:
255,279,75454,1,8,1:2:0:0:
266,277,75539,1,0,1:2:0:0:
277,275,75623,22,0,B|331:257|347:222|347:143|317:109|264:109|232:148|230:181|252:200|268:214,1,264,8|0,0:1|0:2,0:0:0:0:
342,256,75960,70,0,B|403:249|403:249|435:261|435:261|497:255,1,158.399995166016,4|0,3:2|0:2,0:0:0:0:
447,174,76297,1,8,0:2:0:0:
396,344,76466,53,0,0:2:0:0:
396,344,76550,1,0,0:2:0:0:
396,344,76634,2,0,L|328:332,1,52.7999983886719,0|0,0:2|0:2,0:0:0:0:
251,194,76803,53,0,3:2:0:0:
127,350,76971,1,10,0:2:0:0:
152,157,77140,53,2,0:2:0:0:
152,157,77224,1,0,0:2:0:0:
152,157,77308,2,0,L|162:271,1,105.599996777344,0|0,3:2|0:2,0:0:0:0:
59,143,77646,1,10,0:2:0:0:
244,330,77814,53,0,0:2:0:0:
244,330,77898,1,0,0:2:0:0:
244,330,77983,2,0,P|250:305|259:280,1,52.7999983886719,2|0,0:2|0:2,0:0:0:0:
46,258,78151,1,0,3:2:0:0:
267,193,78320,53,10,0:2:0:0:
59,143,78488,1,0,0:2:0:0:
306,82,78657,54,0,B|268:104|268:104|198:97|198:97|166:67,1,158.399995166016,2|0,3:2|0:2,0:0:0:0:
124,2,78994,1,8,0:2:0:0:
59,143,79162,54,0,L|3:132,1,52.7999983886719,0|0,0:2|0:2,0:0:0:0:
189,215,79331,2,0,L|245:226,1,52.7999983886719,0|0,0:2|0:2,0:0:0:0:
75,269,79499,53,0,3:2:0:0:
166,67,79668,1,10,0:2:0:0:
430,207,79837,54,0,B|332:172|337:260|240:225,1,198.000007553101,6|0,3:2|0:2,0:0:0:0:
280,139,80174,53,0,3:2:0:0:
390,292,80342,1,8,0:2:0:0:
394,55,80511,53,0,0:2:0:0:
394,55,80595,1,0,0:2:0:0:
394,55,80679,2,0,P|383:79|371:119,1,52.7999983886719,2|0,0:2|0:2,0:0:0:0:
241,225,80848,1,0,3:2:0:0:
136,24,81016,54,0,P|178:54|188:105,1,105.599996777344,8|0,0:2|0:2,0:0:0:0:
143,171,81269,1,8,0:2:0:0:
129,186,81353,54,0,L|0:171,1,105.599996777344,6|0,3:2|0:2,0:0:0:0:
188,105,81690,1,8,0:2:0:0:
319,255,81859,53,2,0:2:0:0:
319,255,81943,1,0,0:2:0:0:
319,255,82028,2,0,P|323:224|319:197,1,52.7999983886719,0|0,0:2|0:2,0:0:0:0:
188,105,82196,53,0,3:2:0:0:
237,332,82365,1,8,0:2:0:0:
458,132,82533,53,2,0:2:0:0:
458,132,82617,1,2,0:2:0:0:
458,132,82702,2,0,B|429:164|429:164|417:292,1,158.399995166016,2|0,3:2|0:2,0:0:0:0:
469,356,83039,1,8,0:2:0:0:
328,210,83207,53,2,0:2:0:0:
328,210,83292,1,0,0:2:0:0:
328,210,83376,2,0,L|242:194,1,52.7999983886719,0|0,0:2|0:2,0:0:0:0:
458,132,83544,2,0,L|544:148,1,52.7999983886719,0|0,3:2|0:2,0:0:0:0:
325,58,83713,1,8,0:2:0:0:
189,183,83881,53,2,0:2:0:0:
189,183,83966,1,2,0:2:0:0:
189,183,84050,2,0,P|258:211|270:295,1,158.399995166016,2|0,3:2|0:2,0:0:0:0:
222,356,84387,1,8,0:2:0:0:
75,211,84556,53,2,0:2:0:0:
75,211,84640,1,0,0:2:0:0:
75,211,84724,2,0,P|70:177|76:150,1,52.7999983886719,0|0,0:2|0:2,0:0:0:0:
196,263,84893,53,2,3:2:0:0:
283,49,85061,1,8,0:2:0:0:
463,195,85230,102,0,B|409:183|378:147|378:147|343:181|287:182,1,198.000007553101,6|0,3:2|0:2,0:0:0:0:
207,121,85567,53,8,0:2:0:0:
370,270,85735,1,8,0:2:0:0:
469,83,85904,54,0,P|470:58|480:23,2,52.7999983886719,0|0|0,3:2|0:2|0:2,0:0:0:0:
382,150,86157,1,8,0:2:0:0:
382,150,86241,2,0,P|373:118|362:91,1,52.7999983886719,0|0,3:2|0:2,0:0:0:0:
224,3,86410,86,0,P|235:41|237:80,1,79.1999975830079,10|0,0:2|3:2,0:0:0:0:
113,148,86662,1,8,0:2:0:0:
112,126,86747,38,0,B|192:111|179:171|260:157,1,158.399995166016,6|0,3:2|0:2,0:0:0:0:
237,80,87084,1,8,0:2:0:0:
141,210,87252,53,0,0:2:0:0:
141,210,87337,1,0,0:2:0:0:
141,210,87421,2,0,L|75:207,1,52.7999983886719,0|0,0:2|0:2,0:0:0:0:
68,54,87589,53,0,3:2:0:0:
262,156,87758,1,10,0:2:0:0:
418,19,87926,53,2,0:2:0:0:
418,19,88011,1,0,0:2:0:0:
418,19,88095,2,0,B|396:40|396:40|387:128,1,105.599996777344,0|0,3:2|0:2,0:0:0:0:
512,237,88432,1,10,0:2:0:0:
348,329,88601,53,0,0:2:0:0:
348,329,88685,1,0,0:2:0:0:
348,329,88769,2,0,P|315:318|293:315,1,52.7999983886719,2|0,0:2|0:2,0:0:0:0:
262,156,88938,1,0,3:2:0:0:
229,359,89106,53,8,0:2:0:0:
344,176,89275,1,0,0:2:0:0:
412,376,89443,54,0,P|373:312|297:316,1,158.399995166016,2|0,3:2|0:2,0:0:0:0:
229,359,89780,1,8,0:2:0:0:
159,174,89949,54,0,P|167:200|172:226,1,52.7999983886719,0|0,0:2|0:2,0:0:0:0:
10,204,90117,2,0,P|14:178|21:153,1,52.7999983886719,0|0,0:2|0:2,0:0:0:0:
136,53,90286,53,0,3:2:0:0:
62,283,90454,1,8,0:2:0:0:
349,236,90623,54,0,B|281:203|222:256|222:256|191:253|172:225,1,198.000007553101,6|0,3:2|0:2,0:0:0:0:
224,157,90960,53,0,3:2:0:0:
394,301,91129,1,8,0:2:0:0:
440,68,91297,53,0,0:2:0:0:
440,68,91381,1,0,0:2:0:0:
440,68,91466,2,0,L|429:143,1,52.7999983886719,2|0,0:2|0:2,0:0:0:0:
349,236,91634,1,0,3:2:0:0:
241,22,91803,54,0,B|274:37|274:37|287:104,1,105.599996777344,10|0,0:2|3:2,0:0:0:0:
224,157,92056,1,8,0:2:0:0:
210,172,92140,54,0,L|81:157,1,105.599996777344,6|0,3:2|0:2,0:0:0:0:
24,48,92477,1,8,0:2:0:0:
22,272,92646,53,2,0:2:0:0:
22,272,92730,1,0,0:2:0:0:
22,272,92814,2,0,P|31:239|33:215,1,52.7999983886719,0|0,0:2|0:2,0:0:0:0:
162,67,92983,53,2,3:2:0:0:
222,274,93151,1,8,0:2:0:0:
357,76,93320,53,2,0:2:0:0:
345,58,93404,1,0,0:2:0:0:
334,39,93488,2,0,B|286:78|286:78|277:223,1,178.200000679779,4|0,3:2|0:2,0:0:0:0:
222,274,93825,1,8,0:2:0:0:
383,349,93994,53,0,0:2:0:0:
383,349,94078,1,0,0:2:0:0:
383,349,94162,2,0,P|343:335|297:333,1,52.7999983886719,0|0,0:2|0:2,0:0:0:0:
445,215,94331,2,0,P|465:199|489:186,1,52.7999983886719,2|0,3:2|0:2,0:0:0:0:
334,39,94499,1,10,0:2:0:0:
186,201,94668,53,2,0:2:0:0:
191,179,94752,1,2,0:2:0:0:
195,158,94837,2,0,P|152:83|66:77,1,178.200000679779,6|0,3:2|0:2,0:0:0:0:
15,150,95174,1,8,0:2:0:0:
85,323,95342,53,2,0:2:0:0:
90,301,95426,1,0,0:2:0:0:
96,280,95511,2,0,L|102:161,1,118.800000453186,4|0,3:2|0:2,0:0:0:0:
407,167,95848,101,10,0:2:0:0:
67,76,96016,1,0,3:2:0:0:
386,70,96185,53,8,0:2:0:0:
102,161,96353,1,0,3:2:0:0:
407,167,96522,54,0,L|322:152,1,59.400000226593,10|0,0:2|0:2,0:0:0:0:
67,76,96690,2,0,L|149:72,1,59.400000226593,0|0,3:2|0:2,0:0:0:0:
312,6,96859,53,2,3:2:0:0:
295,22,96943,2,0,P|288:51|279:107,1,59.400000226593,8|0,0:2|3:2,0:0:0:0:
310,283,97112,1,0,3:2:0:0:
327,267,97196,54,0,P|349:230|340:139,1,118.800000453186,10|0,0:2|3:2,0:0:0:0:
279,101,97449,1,8,0:2:0:0:
276,120,97533,101,6,3:2:0:0:
441,243,97702,2,0,B|481:245|515:226|515:226|499:239|486:252,1,114.399994763184,2|8,0:1|0:2,0:0:0:0:
247,323,98039,2,0,B|207:325|172:306|172:306|188:319|201:332,1,114.399994763184,2|0,0:1|0:2,0:0:0:0:
390,354,98376,53,0,0:3:0:0:
273,139,98544,1,10,0:2:0:0:
173,306,98713,1,0,0:2:0:0:
168,287,98797,1,0,0:2:0:0:
162,268,98881,1,0,0:3:0:0:
377,196,99050,54,0,B|411:188|411:188|437:196|437:196|471:190,1,96.8000029541017,2|8,0:1|0:2,0:0:0:0:
321,299,99387,2,0,P|302:277|288:240,1,48.4000014770508,2|0,0:1|0:2,0:0:0:0:
162,268,99556,54,0,P|107:258|66:265,1,96.8000029541017,2|0,0:2|0:3,0:0:0:0:
0,85,99893,1,10,0:2:0:0:
229,203,100061,53,0,0:2:0:0:
230,183,100146,1,0,0:2:0:0:
231,163,100230,2,0,B|233:123|233:123|245:106|245:106|235:81|235:81|236:23,1,145.200004431152,2|0,3:2|0:2,0:0:0:0:
253,13,100567,1,8,0:2:0:0:
347,181,100735,53,2,0:2:0:0:
347,181,100820,1,0,0:2:0:0:
347,181,100904,1,0,0:2:0:0:
412,55,101072,1,2,3:2:0:0:
445,239,101241,1,8,0:2:0:0:
406,36,101410,53,6,3:2:0:0:
231,163,101578,2,0,P|202:158|174:158,1,57.1999973815919,2|0,2:1|0:2,0:0:0:0:
38,75,101746,2,0,B|26:35|48:4|48:4|62:26|61:45,1,114.399994763184,2|8,3:1|0:2,0:0:0:0:
229,83,102084,54,0,P|254:76|291:72,1,48.4000014770508,2|0,0:1|0:2,0:0:0:0:
51,194,102252,2,0,P|22:186|-11:183,1,48.4000014770508,2|0,0:1|0:2,0:0:0:0:
147,292,102421,53,0,3:2:0:0:
273,169,102589,2,0,P|278:121|276:72,1,96.8000029541017,10|0,0:2|3:3,0:0:0:0:
230,12,102842,1,8,0:2:0:0:
207,10,102926,53,4,3:2:0:0:
77,127,103095,2,0,B|26:149|-15:115|-15:115|0:109,1,114.399994763184,2|8,0:1|2:2,0:0:0:0:
275,187,103432,2,0,B|326:209|367:175|367:175|352:169,1,114.399994763184,2|0,0:1|0:2,0:0:0:0:
137,237,103769,53,0,3:3:0:0:
207,10,103938,1,10,0:2:0:0:
352,169,104106,54,0,L|271:159,1,57.1999973815919,2|0,0:1|0:2,0:0:0:0:
77,127,104275,1,0,3:2:0:0:
294,62,104443,54,0,B|315:61|330:57|330:57|353:65|353:65|368:61|388:60,1,96.8000029541017,2|8,0:1|2:2,0:0:0:0:
502,156,104780,2,0,P|490:135|482:111,1,48.4000014770508,2|0,0:1|0:2,0:0:0:0:
388,268,104949,54,0,P|343:252|296:258,1,96.8000029541017,2|0,0:2|3:2,0:0:0:0:
179,357,105286,1,10,0:2:0:0:
85,134,105454,54,0,B|94:157|94:157|96:181,1,48.4000014770508,2|0,2:1|0:2,0:0:0:0:
91,323,105623,2,0,B|98:296|93:283|93:283|99:263|99:263|89:232|97:170,1,145.200004431152,2|0,3:2|0:2,0:0:0:0:
162,145,105960,53,10,0:2:0:0:
19,266,106129,1,2,0:2:0:0:
19,266,106213,1,0,0:2:0:0:
19,266,106297,1,0,0:2:0:0:
64,107,106466,53,2,3:2:0:0:
91,323,106634,1,8,0:2:0:0:
58,88,106803,53,6,3:2:0:0:
211,218,106971,2,0,L|267:211,1,57.1999973815919,2|0,2:1|0:2,0:0:0:0:
377,56,107140,69,10,0:2:0:0:
348,266,107308,1,10,0:2:0:0:
507,137,107477,54,0,B|471:124|471:124|444:132|444:132|395:121,1,96.8000029541017,2|0,3:2|0:2,0:0:0:0:
332,134,107730,1,8,0:2:0:0:
314,125,107814,2,0,L|295:61,1,48.4000014770508,0|0,3:2|0:2,0:0:0:0:
187,34,107983,70,0,B|151:21|151:21|124:29|124:29|94:22,1,96.8000029541017,10|0,0:2|3:2,0:0:0:0:
16,47,108235,1,8,0:2:0:0:
11,66,108320,85,4,3:2:0:0:
166,161,108488,2,0,B|211:165|211:165|243:157|243:157|210:183,1,114.399994763184,2|8,0:1|0:2,0:0:0:0:
53,281,108825,2,0,B|8:285|8:285|-24:277|-24:277|9:303,1,114.399994763184,2|0,0:1|0:2,0:0:0:0:
216,360,109162,53,0,3:2:0:0:
166,161,109331,1,10,0:2:0:0:
53,281,109499,1,0,0:2:0:0:
48,262,109584,1,0,0:2:0:0:
42,243,109668,1,0,3:2:0:0:
264,283,109837,54,0,B|289:281|289:281|300:276|300:276|312:280|312:280|358:277,1,96.8000029541017,2|8,0:1|0:2,0:0:0:0:
489,356,110174,2,0,P|473:331|459:295,1,48.4000014770508,2|0,0:1|0:2,0:0:0:0:
425,127,110342,54,0,P|437:173|436:222,1,96.8000029541017,2|0,0:2|3:2,0:0:0:0:
375,377,110679,1,10,0:2:0:0:
178,337,110848,53,0,0:2:0:0:
179,317,110932,1,0,0:2:0:0:
180,297,111016,2,0,B|189:268|189:268|178:243|178:243|186:219|186:219|185:157,1,145.200004431152,2|0,3:2|0:2,0:0:0:0:
191,139,111353,1,10,0:2:0:0:
40,20,111522,53,2,0:2:0:0:
40,20,111606,1,0,0:2:0:0:
40,20,111690,1,0,0:2:0:0:
78,167,111859,1,2,3:2:0:0:
185,18,112028,1,8,0:2:0:0:
70,184,112196,53,6,3:2:0:0:
200,123,112365,2,0,L|257:119,1,57.1999973815919,2|0,2:1|0:2,0:0:0:0:
62,201,112533,2,0,B|22:213|-9:191|-9:191|13:177|32:178,1,114.399994763184,2|8,3:1|0:2,0:0:0:0:
257,119,112870,54,0,P|280:117|304:120,1,48.4000014770508,2|0,0:1|0:2,0:0:0:0:
113,97,113039,2,0,P|88:89|64:86,1,48.4000014770508,2|0,0:1|0:2,0:0:0:0:
166,270,113207,53,0,3:2:0:0:
305,120,113376,2,0,B|288:152|288:152|285:215,1,96.8000029541017,10|0,0:2|3:2,0:0:0:0:
349,275,113629,1,8,0:2:0:0:
367,279,113713,53,4,3:2:0:0:
336,48,113881,2,0,B|291:28|250:62|250:62|256:40,1,114.399994763184,2|8,0:1|0:2,0:0:0:0:
433,180,114219,2,0,B|477:160|518:194|518:194|512:172,1,114.399994763184,2|0,0:1|0:2,0:0:0:0:
270,335,114556,53,0,3:3:0:0:
270,335,114640,1,0,1:3:0:0:
270,335,114724,2,0,P|258:295|245:262,1,57.1999973815919,8|0,1:2|1:2,0:0:0:0:
443,313,114893,2,0,P|455:273|468:240,1,57.1999973815919,0|0,1:2|1:2,0:0:0:0:
474,97,115061,21,6,1:2:0:0:
463,142,115146,1,0,1:2:0:0:
433,180,115230,1,0,1:2:0:0:
388,197,115314,1,0,1:2:0:0:
341,189,115398,1,8,1:2:0:0:
302,161,115483,1,0,1:2:0:0:
283,117,115567,1,0,1:2:0:0:
264,72,115651,1,0,1:2:0:0:
225,44,115735,1,2,1:2:0:0:
178,37,115820,1,0,1:2:0:0:
133,54,115904,1,0,1:2:0:0:
102,91,115988,1,0,1:2:0:0:
93,138,116072,38,0,L|99:195,1,48.4000014770508,8|0,1:2|1:2,0:0:0:0:
204,297,116241,1,0,1:2:0:0:
201,277,116325,1,0,1:2:0:0:
198,257,116410,54,0,B|77:232|77:232|136:287,1,171.599992144776,6|0,3:2|0:2,0:0:0:0:
129,342,116747,1,10,0:2:0:0:
302,309,116915,53,2,0:2:0:0:
302,309,116999,1,0,0:2:0:0:
302,309,117084,2,0,P|309:268|306:244,1,57.1999973815919,0|0,3:2|0:2,0:0:0:0:
212,152,117252,2,0,P|211:123|217:95,1,57.1999973815919,0|0,0:2|0:2,0:0:0:0:
333,10,117421,1,10,0:2:0:0:
438,154,117589,86,0,P|415:148|391:145,1,48.4000014770508,2|0,0:2|0:2,0:0:0:0:
259,161,117758,2,0,P|235:157|211:151,3,48.4000014770508,2|0|0|0,0:2|0:2|0:2|0:2,0:0:0:0:
134,72,118095,53,2,1:2:0:0:
137,89,118179,1,0,1:2:0:0:
140,106,118263,2,0,P|134:125|129:148,1,35.2,8|8,1:2|3:2,0:0:0:0:
64,193,118432,2,0,P|69:209|72:226,1,35.2,2|0,0:2|0:2,0:0:0:0:
59,311,118601,1,0,3:2:0:0:
282,235,118769,86,0,B|233:175|139:173|72:227|72:227|120:236|139:280,1,316.799990332032,2|6,3:1|0:2,0:0:0:0:
389,75,121129,85,2,0:2:0:0:
389,75,121466,53,2,0:2:0:0:
373,205,121634,1,2,0:2:0:0:
316,132,121803,1,2,0:2:0:0:
361,315,124162,54,0,L|400:314,2,35.2,2|2|2,0:2|0:2|0:2,0:0:0:0:
362,315,124837,1,2,0:2:0:0:
285,349,125005,2,0,P|232:340|180:336,1,105.6,2|0,0:2|0:2,0:0:0:0:
76,369,125679,53,2,0:2:0:0:
36,293,125848,2,0,P|34:245|28:211,1,70.4,2|2,0:2|0:2,0:0:0:0:
31,223,126522,2,0,P|33:175|39:141,1,70.4,2|2,0:2|0:2,0:0:0:0:
135,45,127196,54,0,B|208:27|200:66|273:51,1,140.8,2|0,0:2|0:2,0:0:0:0:
273,51,128207,1,2,0:2:0:0:
334,109,128376,2,0,P|328:163|326:215,1,105.6,2|0,0:2|0:2,0:0:0:0:
465,358,129219,53,2,0:2:0:0:
465,358,129556,53,2,0:2:0:0:
449,228,129724,1,2,0:2:0:0:
392,301,129893,1,2,0:2:0:0:
47,358,131915,53,2,0:2:0:0:
47,358,132252,53,2,0:2:0:0:
63,228,132421,1,2,0:2:0:0:
120,301,132589,1,2,0:2:0:0:
52,48,134949,117,2,0:2:0:0:
104,112,135117,1,2,0:2:0:0:
179,75,135286,2,0,P|203:73|236:71,1,44,2|0,0:2|0:2,0:0:0:0:
378,45,135623,53,2,0:2:0:0:
305,86,135792,1,2,0:2:0:0:
416,308,136466,53,2,0:2:0:0:
355,250,136634,2,0,P|303:233|258:234,1,88,2|2,0:2|0:2,0:0:0:0:
270,232,137308,2,0,P|226:229|185:214,1,88,2|2,0:2|0:2,0:0:0:0:
78,347,137983,54,0,B|100:256|51:266|70:175,1,176,2|0,0:2|0:2,0:0:0:0:
70,174,138994,2,0,L|60:119,1,44,2|0,0:2|0:2,0:0:0:0:
110,62,139331,5,2,0:2:0:0:
119,75,139499,1,2,0:2:0:0:
214,67,139668,53,2,0:2:0:0:
211,37,139837,1,2,0:2:0:0:
308,22,140005,53,2,0:2:0:0:
307,95,140174,1,2,0:2:0:0:
404,119,140342,53,2,0:2:0:0:
399,0,140511,1,2,0:2:0:0:
229,147,140679,22,0,P|186:131|79:134,1,140.8,6|0,3:2|3:2,0:0:0:0:
92,130,141185,1,0,0:2:0:0:
24,220,141353,2,0,P|33:253|39:288,1,70.4,2|0,3:2|0:2,0:0:0:0:
180,342,141690,2,0,P|186:307|195:273,1,70.4,2|0,3:2|0:2,0:0:0:0:
209,263,141943,1,0,0:2:0:0:
225,257,142028,54,0,L|305:249,1,70.4,0|0,3:2|0:2,0:0:0:0:
380,89,142365,2,0,P|370:112|368:167,1,70.4,2|0,3:2|0:2,0:0:0:0:
462,309,142702,2,0,P|447:288|400:259,1,70.4,2|0,3:2|0:2,0:0:0:0:
229,272,143039,2,0,P|253:269|302:243,1,70.4,2|0,3:2|0:2,0:0:0:0:
301,233,143292,1,0,0:2:0:0:
304,215,143376,54,0,B|292:171|292:171|301:122|290:76,1,140.8,2|2,3:2|3:2,0:0:0:0:
290,76,143881,1,0,0:2:0:0:
182,52,144050,2,0,L|107:40,1,70.4,0|0,3:2|0:2,0:0:0:0:
0,163,144387,2,0,P|16:131|25:97,1,70.4,2|0,3:2|0:2,0:0:0:0:
22,80,144640,1,0,0:2:0:0:
11,65,144724,1,0,3:2:0:0:
103,153,144893,86,0,L|141:149,1,35.2,2|0,0:2|0:2,0:0:0:0:
172,145,145061,1,0,3:2:0:0:
69,255,145230,54,0,L|31:251,1,35.2,2|0,0:2|0:2,0:0:0:0:
0,250,145398,2,0,P|11:283|14:318,1,70.4,0|0,3:2|0:2,0:0:0:0:
13,335,145651,1,2,0:2:0:0:
8,351,145735,53,2,3:2:0:0:
118,381,145904,1,2,0:2:0:0:
211,303,146072,22,0,B|220:260|220:260|208:220|208:220|225:142,1,140.8,6|0,3:2|3:2,0:0:0:0:
220,166,146578,1,0,0:2:0:0:
321,211,146747,2,0,P|355:202|396:181,1,70.4,2|0,3:2|0:2,0:0:0:0:
492,104,147084,2,0,P|458:95|427:80,1,70.4,2|0,3:2|0:2,0:0:0:0:
411,70,147337,1,0,0:2:0:0:
396,60,147421,54,0,L|316:50,1,70.4,0|0,3:2|0:2,0:0:0:0:
135,208,147758,2,0,P|158:198|213:196,1,70.4,2|0,3:2|0:2,0:0:0:0:
364,294,148095,2,0,P|343:279|314:232,1,70.4,2|0,3:2|0:2,0:0:0:0:
326,51,148432,2,0,P|323:75|297:124,1,70.4,2|0,3:2|0:2,0:0:0:0:
287,123,148685,1,0,0:2:0:0:
269,126,148769,54,0,B|241:123|225:114|225:114|192:123|192:123|166:111|130:112,1,140.8,2|0,3:2|3:2,0:0:0:0:
3,2,149275,2,0,P|20:32|29:67,1,70.4,2|0,0:2|3:2,0:0:0:0:
42,179,149612,1,2,0:2:0:0:
133,112,149780,1,2,3:2:0:0:
213,188,149949,22,0,L|251:184,1,35.2,2|0,0:2|0:2,0:0:0:0:
282,180,150117,1,0,3:2:0:0:
218,280,150286,54,0,L|180:284,1,35.2,2|0,0:2|0:2,0:0:0:0:
149,288,150454,1,0,3:2:0:0:
309,342,150623,53,2,0:2:0:0:
309,342,150707,1,0,0:2:0:0:
309,342,150792,2,0,P|320:305|323:271,1,70.4,0|0,3:2|0:2,0:0:0:0:
213,188,151129,53,2,3:2:0:0:
322,273,151297,1,2,0:2:0:0:
446,123,151466,22,0,B|392:119|392:119|346:140|346:140|292:136,1,158.399995166016,6|0,3:2|3:2,0:0:0:0:
292,136,151971,1,0,0:2:0:0:
187,80,152140,2,0,P|149:68|109:63,1,79.1999975830079,2|0,3:2|0:2,0:0:0:0:
287,15,152477,2,0,P|324:4|364:0,1,79.1999975830079,2|0,3:2|0:2,0:0:0:0:
378,12,152730,1,0,0:2:0:0:
386,29,152814,54,0,L|389:114,1,79.1999975830079,0|0,3:2|0:2,0:0:0:0:
213,199,153151,2,0,P|249:185|289:183,1,79.1999975830079,2|0,3:2|0:2,0:0:0:0:
403,231,153488,2,0,P|412:248|425:264,2,39.5999987915039,2|0|0,3:2|0:2|0:2,0:0:0:0:
388,108,153825,2,0,P|406:73|414:34,1,79.1999975830079,2|0,3:2|0:2,0:0:0:0:
394,32,154078,1,0,0:2:0:0:
374,35,154162,54,0,B|347:34|324:27|324:27|296:32|296:32|258:18|218:24,1,158.399995166016,2|2,3:2|0:2,0:0:0:0:
218,24,154668,1,0,0:2:0:0:
130,104,154837,2,0,P|140:156|141:204,1,79.1999975830079,0|0,3:2|0:2,0:0:0:0:
52,265,155174,22,0,L|90:266,1,39.5999987915039,2|0,3:2|0:2,0:0:0:0:
130,267,155342,2,0,L|169:268,1,39.5999987915039,2|0,0:2|0:2,0:0:0:0:
210,270,155511,1,2,3:2:0:0:
123,350,155679,54,0,L|83:348,1,39.5999987915039,2|0,0:2|0:2,0:0:0:0:
43,347,155848,1,2,3:2:0:0:
210,270,156016,54,0,L|249:271,1,39.5999987915039,2|0,0:2|0:2,0:0:0:0:
290,273,156185,53,2,3:2:0:0:
377,363,156353,1,0,3:2:0:0:
403,180,156522,53,2,3:2:0:0:
331,274,156690,1,0,3:2:0:0:
316,77,156859,86,0,B|382:62|378:102|445:88,1,132,6|0,3:2|0:2,0:0:0:0:
466,82,157196,1,10,0:2:0:0:
309,159,157365,2,0,P|299:117|316:77,1,88,2|0,0:2|0:2,0:0:0:0:
423,6,157702,53,2,3:2:0:0:
485,194,157870,1,8,0:2:0:0:
309,159,158039,54,0,P|284:154|261:152,1,48.4000014770508,2|0,0:2|0:2,0:0:0:0:
239,287,158207,2,0,B|278:253|278:253|294:196|261:151,1,158.399995166016,6|0,3:2|0:2,0:0:0:0:
197,110,158544,2,0,L|97:97,1,88,8|0,0:2|0:2,0:0:0:0:
0,196,158881,53,2,0:2:0:0:
87,95,159050,1,0,3:2:0:0:
112,227,159219,53,8,0:2:0:0:
65,92,159387,2,0,L|14:85,1,44,0|0,0:2|0:2,0:0:0:0:
0,296,159556,54,0,B|51:289|51:289|98:312|98:312|154:305,1,158.399995166016,0|0,0:2|0:2,0:0:0:0:
213,249,159893,2,0,L|219:63,1,176,8|0,0:2|0:2,0:0:0:0:
441,33,160398,53,0,3:2:0:0:
220,51,160567,1,10,0:2:0:0:
333,83,160735,1,2,0:2:0:0:
112,101,160904,53,4,3:2:0:0:
311,89,161072,1,2,0:2:0:0:
117,201,161241,1,8,0:2:0:0:
324,197,161410,53,2,0:2:0:0:
217,224,161578,2,0,P|217:180|230:139,1,88,0|0,0:2|3:2,0:0:0:0:
417,254,161915,2,0,P|430:212|430:168,1,88,10|0,0:2|0:2,0:0:0:0:
404,97,162168,1,8,0:2:0:0:
387,82,162252,102,0,B|355:73|355:73|323:77|323:77|274:62,1,105.599996777344,6|0,3:2|0:2,0:0:0:0:
28,48,162589,53,8,0:2:0:0:
156,283,162758,1,0,3:3:0:0:
154,43,162926,53,8,0:2:0:0:
28,287,163095,1,0,3:3:0:0:
16,28,163263,53,8,0:2:0:0:
164,301,163432,1,0,3:3:0:0:
168,27,163601,53,8,0:2:0:0:
17,305,163769,1,0,3:3:0:0:
5,9,163938,53,8,0:2:0:0:
174,319,164106,1,0,3:3:0:0:
321,18,164275,21,8,0:2:0:0:
131,174,164443,1,8,0:2:0:0:
288,363,164612,1,8,0:2:0:0:
478,205,164780,1,8,0:2:0:0:
303,189,164949,85,6,3:2:0:0:
66,47,165623,21,8,0:2:0:0:
82,307,166297,54,0,P|129:288|202:354,1,154,0|0,3:2|0:2,0:0:0:0:
203,362,166971,22,0,L|209:203,1,158.399995166016,8|0,2:1|0:2,0:0:0:0:
320,84,167308,22,0,L|353:74,5,29.3333333333333,10|8|8|8|8|8,0:2|0:2|0:2|0:2|0:2|0:2,0:0:0:0:
419,106,167646,70,0,P|420:80|427:55,1,52.7999983886719,4|0,3:2|0:2,0:0:0:0:
479,190,167814,2,0,B|359:171|359:171|391:192,1,158.399995166016,2|0,0:2|0:2,0:0:0:0:
426,256,168151,6,0,L|417:280,1,26.399999194336,2|0,0:1|0:2,0:1:0:0:
345,344,168320,2,0,L|370:338,1,26.399999194336,10|0,0:1|0:2,0:0:0:0:
462,371,168488,2,0,L|445:350,1,26.399999194336,2|0,0:1|0:2,0:0:0:0:
479,190,168657,54,0,B|456:174|456:174|409:202|427:263,1,123.199996240234,2|0,2:1|0:2,0:0:0:0:
258,362,168994,37,0,3:2:0:0:
250,165,169162,1,0,0:2:0:0:
425,256,169331,1,2,0:2:0:0:
234,263,169499,70,0,L|182:252,1,52.7999983886719,2|0,0:1|0:1,0:0:0:0:
241,85,169668,2,0,B|239:145|239:145|250:165|250:165|237:185|237:185|234:263,1,184.799994360352,10|0,0:1|0:2,0:0:0:0:
186,338,170005,69,2,0:2:0:0:
150,173,170174,1,2,0:2:0:0:
49,346,170342,70,0,B|73:350|102:337|102:337|127:344|127:344|152:333|186:338,1,140.8,2|0,3:1|0:2,0:0:0:0:
186,338,170848,1,0,0:2:0:0:
56,264,171016,2,0,B|42:214|42:214|63:165,1,105.599996777344,8|0,0:2|0:2,0:0:0:0:
175,61,171353,22,0,L|105:52,1,70.4,2|0,0:1|0:2,0:0:0:0:
140,220,171522,2,0,L|210:229,1,70.4,2|0,0:1|0:2,0:0:0:0:
308,11,171690,102,0,B|272:40|272:40|258:151,1,158.399995166016,2|0,3:1|0:2,0:0:0:0:
320,31,172028,2,0,B|284:60|284:60|270:171,1,132,2|0,0:1|0:2,0:0:0:0:
413,116,172365,70,0,P|384:103|354:100,1,61.5999981201172,10|0,0:2|0:2,0:0:0:0:
301,222,172533,2,0,P|329:234|359:237,1,61.5999981201172,2|0,0:2|0:2,0:0:0:0:
423,134,172702,70,0,P|394:121|364:118,1,61.5999981201172,2|0,0:2|0:2,0:0:0:0:
311,240,172870,2,0,P|339:252|369:255,1,61.5999981201172,2|0,0:2|0:2,0:0:0:0:
492,341,173039,86,0,L|430:321,1,52.7999983886719,0|0,3:2|0:2,0:0:0:0:
286,324,173207,2,0,B|316:355|316:355|310:222,1,158.399995166016,2|0,0:2|0:2,0:0:0:0:
285,168,173544,6,0,L|261:159,1,26.399999194336,2|0,0:1|0:2,0:0:0:0:
197,87,173713,2,0,L|203:112,1,26.399999194336,10|0,0:1|0:2,0:0:0:0:
170,204,173881,2,0,L|191:187,1,26.399999194336,2|0,0:1|0:2,0:0:0:0:
323,101,174050,54,0,B|314:78|314:78|275:122|285:169,1,123.199996240234,2|0,0:1|0:2,0:0:0:0:
169,327,174387,37,0,3:3:0:0:
134,133,174556,1,0,0:2:0:0:
68,318,174724,1,2,0:2:0:0:
0,159,174893,70,0,P|-1:132|1:106,1,52.7999983886719,2|0,0:1|0:2,0:0:0:0:
97,20,175061,2,0,B|151:18|151:18|199:39|199:39|277:36,1,171.599992144776,10|0,0:1|0:2,0:0:0:0:
340,13,175398,37,2,0:2:0:0:
355,271,175567,1,2,0:2:0:0:
476,134,175735,37,6,3:2:0:0:
217,357,177084,54,0,L|122:343,1,88,2|2,3:2|0:2,0:0:0:0:
47,344,177758,54,0,P|160:302|87:206,1,264.000010070801,10|2,0:2|3:2,0:0:0:0:
103,207,178432,70,0,L|98:147,1,52.7999983886719,4|0,3:2|0:2,0:0:0:0:
273,204,178601,2,0,L|277:151,1,52.7999983886719,2|0,0:2|0:2,0:0:0:0:
186,76,178769,1,2,0:2:0:0:
98,154,178938,6,0,P|77:148|54:135,1,26.399999194336,2|0,3:1|0:2,0:0:0:0:
75,39,179106,2,0,P|90:23|113:10,1,26.399999194336,2|0,0:1|0:2,0:0:0:0:
186,76,179275,2,0,P|191:97|191:123,1,26.399999194336,2|0,0:1|0:2,0:0:0:0:
72,146,179443,54,0,B|49:121|49:121|43:74|77:37,1,123.199996240234,2|0,0:1|0:2,0:0:0:0:
356,122,179780,102,2,B|467:116|467:116|430:104,1,149.600002853394,2|0,3:2|0:2,1:2:0:0:
250,214,180033,2,2,B|139:220|139:220|175:231,1,149.600002853394,2|0,3:2|0:2,1:2:0:0:
382,259,180286,2,2,L|457:264,1,74.8000014266968,2|0,3:2|0:2,1:2:0:0:
236,364,180454,86,0,B|239:331|239:331|250:317|250:317|223:266|253:209,1,158.399995166016,10|0,0:1|0:2,0:0:0:0:
356,122,180792,2,0,P|278:135|256:39,1,158.399995166016,2|0,0:1|0:2,0:0:0:0:
172,151,181129,70,0,B|144:152|119:142|119:142|94:149|94:149|69:138|35:143,1,140.8,2|2,3:1|0:2,0:0:0:0:
34,143,181634,1,0,3:2:0:0:
104,318,181803,2,0,B|132:290|132:290|121:224,1,105.599996777344,10|0,0:2|3:2,0:0:0:0:
94,66,182140,22,0,L|24:57,1,70.4,2|0,0:1|0:2,0:0:0:0:
172,151,182308,2,0,L|242:160,1,70.4,2|0,3:1|0:2,0:0:0:0:
410,16,182477,102,0,B|368:31|368:31|346:143,1,158.399995166016,2|0,3:1|0:2,0:0:0:0:
290,245,182814,2,0,B|329:231|329:231|348:129,1,132,2|0,3:1|0:2,0:0:0:0:
263,30,183151,70,0,P|234:17|204:14,1,61.5999981201172,10|0,0:2|0:2,0:0:0:0:
183,144,183320,2,0,P|211:156|241:159,1,61.5999981201172,2|0,0:2|0:2,0:0:0:0:
273,48,183488,70,0,P|244:35|214:32,1,61.5999981201172,2|0,0:2|0:2,0:0:0:0:
193,162,183657,2,0,P|221:174|251:177,1,61.5999981201172,2|0,0:2|0:2,0:0:0:0:
117,69,183825,86,0,L|58:56,1,52.7999983886719,0|0,3:2|0:2,0:0:0:0:
206,180,183994,2,0,L|265:193,1,52.7999983886719,2|0,0:2|0:2,0:0:0:0:
65,201,184162,1,2,3:2:0:0:
219,196,184331,6,0,P|234:211|247:234,1,26.399999194336,2|0,3:1|0:2,0:0:0:0:
165,350,184499,2,0,P|144:355|118:355,1,26.399999194336,10|0,0:1|0:2,0:0:0:0:
60,227,184668,2,0,P|64:205|78:182,1,26.399999194336,2|0,0:1|0:2,0:0:0:0:
246,231,184837,54,0,B|268:279|239:327|239:327|223:303,1,123.199996240234,2|0,3:1|0:2,0:0:0:0:
66,201,185174,37,0,3:2:0:0:
226,308,185342,1,0,0:2:0:0:
239,114,185511,1,2,0:2:0:0:
397,194,185679,70,0,L|455:184,1,52.7999983886719,2|0,3:1|0:2,0:0:0:0:
512,96,185848,1,10,0:2:0:0:
385,307,186016,54,0,P|355:303|331:285,1,61.5999981201172,2|0,0:1|0:2,0:0:0:0:
297,121,186185,2,0,P|268:109|238:114,1,61.5999981201172,2|0,3:1|0:2,0:0:0:0:
162,261,186353,2,0,P|134:273|104:272,1,61.5999981201172,2|0,0:1|0:2,0:0:0:0:
24,157,186522,21,4,3:2:0:0:
24,157,186859,1,10,0:2:0:0:
24,157,187365,53,2,3:2:0:0:
254,216,187533,2,0,L|336:205,1,61.5999981201172,10|2,0:2|0:2,0:0:0:0:
182,153,187870,54,0,L|99:142,1,61.5999981201172,2|2,3:2|0:2,0:0:0:0:
387,270,188207,2,0,L|470:281,1,61.5999981201172,10|2,0:2|0:2,0:0:0:0:
245,81,188544,22,0,L|243:37,2,39.5999987915039,8|0|0,0:2|0:2|3:2,0:0:0:0:
323,342,188881,1,10,0:2:0:0:
441,136,189050,1,8,0:2:0:0:
433,157,189134,1,8,0:2:0:0:
425,178,189219,6,0,B|374:168|374:168|327:186|327:186|264:174,1,158.399995166016,4|0,3:2|0:2,0:0:0:0:
179,157,189556,1,8,0:2:0:0:
374,308,189724,53,0,0:2:0:0:
374,308,189808,1,0,0:2:0:0:
374,308,189893,2,0,P|382:272|379:240,1,52.7999983886719,0|0,0:2|0:2,0:0:0:0:
245,81,190061,53,0,3:2:0:0:
136,282,190230,1,10,0:2:0:0:
17,88,190398,53,2,0:2:0:0:
17,88,190483,1,0,0:2:0:0:
17,88,190567,2,0,B|51:106|51:106|126:91,1,105.599996777344,0|0,3:2|0:2,0:0:0:0:
271,175,190904,1,10,0:2:0:0:
357,14,191072,53,0,0:2:0:0:
357,14,191157,1,0,0:2:0:0:
357,14,191241,2,0,L|341:80,1,52.7999983886719,2|0,0:2|0:2,0:0:0:0:
179,165,191410,1,0,3:2:0:0:
362,186,191578,53,10,0:2:0:0:
210,73,191747,1,0,0:2:0:0:
431,51,191915,54,0,B|313:40|313:40|344:65,1,158.399995166016,2|0,3:2|0:2,0:0:0:0:
397,121,192252,1,8,0:2:0:0:
230,171,192421,54,0,P|204:166|178:164,1,52.7999983886719,0|0,0:2|0:2,0:0:0:0:
348,265,192589,2,0,P|373:269|400:271,1,52.7999983886719,0|0,0:2|0:2,0:0:0:0:
397,121,192758,53,0,3:2:0:0:
238,314,192926,1,10,0:2:0:0:
159,75,193095,54,0,B|195:27|195:27|177:163,1,198.000007553101,6|0,3:2|0:2,0:0:0:0:
127,240,193432,53,0,3:2:0:0:
88,22,193601,1,8,0:2:0:0:
291,126,193769,53,0,0:2:0:0:
291,126,193853,1,0,0:2:0:0:
291,126,193938,2,0,L|298:64,1,52.7999983886719,2|0,0:2|0:2,0:0:0:0:
90,134,194106,1,0,3:2:0:0:
309,260,194275,54,0,B|263:233|263:233|188:247,1,105.599996777344,8|0,0:2|0:2,0:0:0:0:
167,314,194528,1,8,0:2:0:0:
156,332,194612,54,0,L|27:317,1,105.599996777344,6|0,3:2|0:2,0:0:0:0:
0,136,194949,1,8,0:2:0:0:
205,72,195117,53,2,0:2:0:0:
205,72,195202,1,0,0:2:0:0:
205,72,195286,2,0,L|208:14,1,52.7999983886719,0|0,0:2|0:2,0:0:0:0:
92,77,195454,53,0,3:2:0:0:
290,141,195623,1,8,0:2:0:0:
113,292,195792,53,2,0:2:0:0:
113,292,195876,1,2,0:2:0:0:
113,292,195960,2,0,B|87:240|128:174|128:174|141:205,1,158.399995166016,2|0,3:2|0:2,0:0:0:0:
188,273,196297,1,8,0:2:0:0:
306,90,196466,53,2,0:2:0:0:
306,90,196550,1,0,0:2:0:0:
306,90,196634,2,0,P|295:119|287:160,1,52.7999983886719,0|0,0:2|0:2,0:0:0:0:
367,223,196803,2,0,P|366:249|363:275,1,52.7999983886719,0|0,3:2|0:2,0:0:0:0:
260,336,196971,1,8,0:2:0:0:
149,141,197140,53,2,0:2:0:0:
149,141,197224,1,2,0:2:0:0:
149,141,197308,2,0,B|195:167|195:167|186:290,1,158.399995166016,2|0,3:2|0:2,0:0:0:0:
175,370,197646,1,8,0:2:0:0:
17,308,197814,53,2,0:2:0:0:
17,308,197898,1,0,0:2:0:0:
17,308,197983,2,0,P|12:274|18:247,1,52.7999983886719,0|0,0:2|0:2,0:0:0:0:
149,141,198151,53,2,3:2:0:0:
175,370,198320,1,8,0:2:0:0:
366,287,198488,102,0,B|338:240|282:243|282:243|234:272|188:253,1,198.000007553101,6|0,3:2|0:2,0:0:0:0:
151,165,198825,53,8,0:2:0:0:
291,343,198994,1,8,0:2:0:0:
399,120,199162,54,0,P|400:95|410:60,2,52.7999983886719,0|0|0,3:2|0:2|0:2,0:0:0:0:
320,173,199415,1,8,0:2:0:0:
320,173,199499,2,0,P|311:141|300:114,1,52.7999983886719,0|0,3:2|0:2,0:0:0:0:
208,46,199668,86,0,L|121:33,1,79.1999975830079,10|0,0:2|3:2,0:0:0:0:
8,63,199921,1,8,0:2:0:0:
26,51,200005,38,0,P|98:57|97:135,1,158.399995166016,6|0,3:2|0:2,0:0:0:0:
43,201,200342,1,8,0:2:0:0:
163,314,200511,53,0,0:2:0:0:
163,314,200595,1,0,0:2:0:0:
163,314,200679,2,0,L|166:260,1,52.7999983886719,0|0,0:2|0:2,0:0:0:0:
204,94,200848,53,0,3:2:0:0:
300,258,201016,1,10,0:2:0:0:
393,56,201185,53,2,0:2:0:0:
393,56,201269,1,0,0:2:0:0:
393,56,201353,2,0,B|368:86|368:86|363:153,1,105.599996777344,0|0,3:2|0:2,0:0:0:0:
445,323,201690,1,10,0:2:0:0:
498,197,201859,53,0,0:2:0:0:
498,197,201943,1,0,0:2:0:0:
498,197,202028,2,0,L|443:183,1,52.7999983886719,2|0,0:2|0:2,0:0:0:0:
350,346,202196,1,0,3:2:0:0:
277,164,202365,53,8,0:2:0:0:
355,365,202533,1,0,0:2:0:0:
498,197,202702,54,0,B|446:184|446:184|401:219|417:290,1,158.399995166016,2|0,3:2|0:2,0:0:0:0:
463,355,203039,1,8,0:2:0:0:
321,253,203207,54,0,L|248:248,1,52.7999983886719,0|0,0:2|0:2,0:0:0:0:
423,97,203376,2,0,L|496:102,1,52.7999983886719,0|0,0:2|0:2,0:0:0:0:
299,87,203544,53,0,3:2:0:0:
414,278,203713,1,8,0:2:0:0:
282,74,203881,54,0,B|185:33|186:122|91:82,1,198.000007553101,6|0,3:2|0:2,0:0:0:0:
28,14,204219,53,0,3:2:0:0:
237,158,204387,1,8,0:2:0:0:
24,223,204556,53,0,0:2:0:0:
24,223,204640,1,0,0:2:0:0:
24,223,204724,2,0,P|32:195|35:171,1,52.7999983886719,2|0,0:2|0:2,0:0:0:0:
138,13,204893,1,0,3:2:0:0:
144,289,205061,54,0,P|133:237|133:184,1,105.599996777344,10|0,0:2|3:2,0:0:0:0:
219,148,205314,1,8,0:2:0:0:
237,158,205398,54,0,L|364:143,1,105.599996777344,6|0,3:2|0:2,0:0:0:0:
485,66,205735,1,8,0:2:0:0:
447,260,205904,53,2,0:2:0:0:
447,260,205988,1,0,0:2:0:0:
447,260,206072,2,0,L|435:204,1,52.7999983886719,0|0,0:2|0:2,0:0:0:0:
335,48,206241,53,2,3:2:0:0:
335,287,206410,1,8,0:2:0:0:
137,157,206578,53,2,0:2:0:0:
149,139,206662,1,0,0:2:0:0:
162,119,206747,2,0,B|214:107|214:107|256:159|229:233,1,178.200000679779,4|0,3:2|0:2,0:0:0:0:
209,307,207084,1,8,0:2:0:0:
91,232,207252,53,0,0:2:0:0:
91,232,207337,1,0,0:2:0:0:
91,232,207421,2,0,P|51:218|5:216,1,52.7999983886719,0|0,0:2|0:2,0:0:0:0:
232,225,207589,2,0,P|252:210|277:198,1,52.7999983886719,2|0,3:2|0:2,0:0:0:0:
46,318,207758,1,10,0:2:0:0:
1,77,207926,53,2,0:2:0:0:
21,78,208011,1,2,0:2:0:0:
42,82,208095,2,0,P|100:146|91:232,1,178.200000679779,6|0,3:2|0:2,0:0:0:0:
46,318,208432,1,8,0:2:0:0:
250,376,208601,53,2,0:2:0:0:
239,357,208685,1,0,0:2:0:0:
228,338,208769,2,0,P|215:298|235:220,1,118.800000453186,4|0,3:2|0:2,0:0:0:0:
401,57,209106,101,10,0:2:0:0:
79,128,209275,1,0,3:2:0:0:
397,156,209443,53,8,0:2:0:0:
104,31,209612,1,0,3:2:0:0:
401,57,209780,54,0,L|314:62,1,59.400000226593,10|0,0:2|0:2,0:0:0:0:
79,128,209949,2,0,L|161:124,1,59.400000226593,0|0,3:2|0:2,0:0:0:0:
341,248,210117,53,2,3:2:0:0:
324,232,210202,2,0,P|317:203|308:147,1,59.400000226593,8|0,0:2|3:2,0:0:0:0:
192,38,210370,1,0,3:2:0:0:
209,54,210454,54,0,P|231:91|216:181,1,118.800000453186,10|0,0:2|3:2,0:0:0:0:
175,226,210707,1,8,0:2:0:0:
151,228,210792,101,6,3:2:0:0:
318,356,210960,2,0,B|367:359|367:359|404:349|404:349|386:372,1,114.399994763184,2|8,0:1|0:2,0:0:0:0:
124,331,211297,2,0,B|75:328|75:328|38:338|38:338|55:314,1,114.399994763184,2|0,0:1|0:2,0:0:0:0:
226,164,211634,53,0,0:3:0:0:
318,356,211803,1,10,0:2:0:0:
433,255,211971,1,0,0:2:0:0:
437,236,212056,1,0,0:2:0:0:
440,217,212140,1,0,0:3:0:0:
258,77,212308,54,0,B|224:69|224:69|198:77|198:77|164:71,1,96.8000029541017,2|8,0:1|0:2,0:0:0:0:
32,20,212646,2,0,P|42:42|41:84,1,48.4000014770508,2|0,0:1|0:2,0:0:0:0:
0,203,212814,54,0,P|55:193|96:200,1,96.8000029541017,2|0,0:2|0:3,0:0:0:0:
249,298,213151,1,10,0:2:0:0:
271,39,213320,53,0,0:2:0:0:
264,58,213404,1,0,0:2:0:0:
258,77,213488,2,0,B|255:104|244:122|244:122|248:143|248:143|231:173|235:217,1,145.200004431152,2|0,3:2|0:2,0:0:0:0:
249,298,213825,1,8,0:2:0:0:
446,350,213994,53,2,0:2:0:0:
446,350,214078,1,0,0:2:0:0:
446,350,214162,1,0,0:2:0:0:
394,208,214331,1,2,3:2:0:0:
334,367,214499,1,8,0:2:0:0:
385,190,214668,53,6,3:2:0:0:
249,298,214837,2,0,P|214:300|179:289,1,57.1999973815919,2|0,0:1|0:0,0:0:0:0:
394,208,215005,2,0,B|436:198|464:215|464:215|491:211|510:194,1,114.399994763184,0|8,3:2|0:2,0:0:0:0:
299,131,215342,54,0,P|290:104|288:72,1,48.4000014770508,2|0,0:1|0:2,0:0:0:0:
468,126,215511,2,0,P|477:99|479:67,1,48.4000014770508,2|0,0:1|0:2,0:0:0:0:
314,9,215679,53,0,3:2:0:0:
284,221,215848,2,0,P|305:178|299:131,1,96.8000029541017,10|0,0:2|3:3,0:0:0:0:
237,84,216101,1,8,0:2:0:0:
218,78,216185,53,4,3:2:0:0:
87,182,216353,2,0,B|40:177|40:177|0:158|0:158|6:179,1,114.399994763184,2|8,0:1|2:2,0:0:0:0:
242,297,216690,2,0,B|288:302|288:302|332:292|332:292|321:311,1,114.399994763184,2|0,0:1|0:2,0:0:0:0:
118,357,217028,53,0,3:3:0:0:
199,162,217196,1,10,0:2:0:0:
324,369,217365,54,0,L|318:283,1,57.1999973815919,2|0,0:1|0:2,0:0:0:0:
310,139,217533,1,0,3:2:0:0:
155,280,217702,54,0,B|134:279|119:275|119:275|96:283|96:283|81:279|61:278,1,96.8000029541017,2|8,0:1|2:2,0:0:0:0:
222,340,218039,2,0,P|234:319|242:295,1,48.4000014770508,2|0,0:1|0:2,0:0:0:0:
387,258,218207,54,0,P|349:230|301:231,1,96.8000029541017,2|0,0:2|3:2,0:0:0:0:
155,280,218544,1,10,0:2:0:0:
152,51,218713,54,0,B|175:47|175:47|199:55,1,48.4000014770508,2|0,2:1|0:2,0:0:0:0:
210,197,218881,2,0,B|206:154|206:154|197:135|197:135|204:113|204:113|199:55,1,145.200004431152,2|0,3:2|0:2,0:0:0:0:
268,10,219219,53,10,0:2:0:0:
395,152,219387,1,2,0:2:0:0:
395,152,219471,1,0,0:2:0:0:
395,152,219556,1,0,0:2:0:0:
416,14,219724,53,2,3:2:0:0:
286,143,219893,1,8,0:2:0:0:
435,10,220061,53,6,3:2:0:0:
199,55,220230,2,0,L|143:48,1,57.1999973815919,2|0,2:1|0:2,0:0:0:0:
334,212,220398,69,10,0:2:0:0:
268,10,220567,1,10,0:2:0:0:
143,138,220735,54,0,B|111:128|111:128|77:136|77:136|48:132,1,96.8000029541017,2|0,3:2|0:2,0:0:0:0:
0,197,220988,1,8,0:2:0:0:
18,206,221072,2,0,L|37:270,1,48.4000014770508,0|0,3:2|0:2,0:0:0:0:
125,338,221241,70,0,B|157:328|157:328|191:336|191:336|219:332,1,96.8000029541017,10|0,0:2|3:2,0:0:0:0:
298,352,221494,1,8,0:2:0:0:
303,371,221578,85,4,3:2:0:0:
433,242,221747,2,0,B|455:205|432:151|432:151|425:168,1,114.399994763184,2|8,0:1|0:2,0:0:0:0:
249,115,222084,2,0,B|227:78|250:24|250:24|256:41,1,114.399994763184,2|0,0:1|0:2,0:0:0:0:
326,239,222421,53,0,3:2:0:0:
421,32,222589,1,10,0:2:0:0:
249,115,222758,1,0,0:2:0:0:
230,110,222842,1,0,0:2:0:0:
211,104,222926,1,0,3:2:0:0:
407,174,223095,54,0,B|432:172|432:172|443:167|443:167|455:171|455:171|501:168,1,96.8000029541017,2|8,0:1|0:2,0:0:0:0:
326,239,223432,2,0,P|310:214|296:178,1,48.4000014770508,2|0,0:1|0:2,0:0:0:0:
397,360,223601,54,0,P|409:314|408:265,1,96.8000029541017,2|0,0:2|3:2,0:0:0:0:
340,112,223938,1,10,0:2:0:0:
153,256,224106,53,0,0:2:0:0:
168,244,224190,1,0,0:2:0:0:
186,239,224275,2,0,B|219:233|219:233|240:241|240:241|285:220|326:239,1,145.200004431152,2|0,3:2|0:2,0:0:0:0:
338,254,224612,1,10,0:2:0:0:
428,93,224780,53,2,0:2:0:0:
428,93,224865,1,0,0:2:0:0:
428,93,224949,1,0,0:2:0:0:
266,151,225117,1,2,3:2:0:0:
478,210,225286,1,8,0:2:0:0:
246,149,225454,53,6,3:2:0:0:
428,93,225623,2,0,P|456:87|487:86,1,57.1999973815919,2|0,2:1|0:2,0:0:0:0:
265,35,225792,2,0,B|223:17|186:30|186:30|231:44,1,114.399994763184,2|8,3:1|0:2,0:0:0:0:
340,196,226129,54,0,L|346:140,1,48.4000014770508,2|0,0:1|0:2,0:0:0:0:
144,190,226297,2,0,L|139:142,1,48.4000014770508,2|0,0:1|0:2,0:0:0:0:
251,299,226466,53,0,3:2:0:0:
345,147,226634,2,0,P|299:121|252:134,1,96.8000029541017,10|0,0:2|3:2,0:0:0:0:
224,197,226887,1,8,0:2:0:0:
223,216,226971,53,4,3:2:0:0:
129,314,227140,2,0,B|87:306|87:306|37:317|37:317|50:301,1,114.399994763184,2|8,0:1|0:2,0:0:0:0:
319,359,227477,2,0,B|361:351|361:351|411:362|411:362|397:346,1,114.399994763184,2|0,0:1|0:2,0:0:0:0:
401,136,227814,53,0,3:3:0:0:
401,136,227898,1,0,1:3:0:0:
401,136,227983,2,0,P|387:173|376:209,1,57.1999973815919,8|0,1:2|1:2,0:0:0:0:
251,295,228151,2,0,P|241:267|231:241,1,57.1999973815919,0|0,1:2|1:2,0:0:0:0:
106,124,228320,21,6,1:2:0:0:
120,168,228404,1,0,1:2:0:0:
154,203,228488,1,0,1:2:0:0:
200,216,228572,1,0,1:2:0:0:
246,204,228657,1,8,1:2:0:0:
282,172,228741,1,0,1:2:0:0:
298,127,228825,1,0,1:2:0:0:
313,80,228910,1,0,1:2:0:0:
349,49,228994,1,2,1:2:0:0:
395,38,229078,1,0,1:2:0:0:
442,51,229162,1,0,1:2:0:0:
476,85,229247,1,0,1:2:0:0:
489,131,229331,38,0,L|487:188,1,48.4000014770508,8|0,1:2|1:2,0:0:0:0:
369,269,229499,1,0,1:2:0:0:
370,249,229584,1,0,1:2:0:0:
371,229,229668,54,0,B|388:121|388:121|416:191,1,171.599992144776,6|0,3:2|0:2,0:0:0:0:
452,247,230005,1,10,0:2:0:0:
296,354,230174,53,2,0:2:0:0:
296,354,230258,1,0,0:2:0:0:
296,354,230342,2,0,L|286:291,1,57.1999973815919,0|0,3:2|0:2,0:0:0:0:
220,141,230511,2,0,L|210:204,1,57.1999973815919,0|0,0:2|0:2,0:0:0:0:
123,298,230679,1,10,0:2:0:0:
59,139,230848,86,0,P|82:133|106:130,1,48.4000014770508,2|0,0:2|0:2,0:0:0:0:
211,197,231016,2,0,P|235:193|259:187,3,48.4000014770508,2|0|0|0,0:2|0:2|0:2|0:2,0:0:0:0:
359,134,231353,53,2,1:2:0:0:
351,149,231438,1,0,1:2:0:0:
344,165,231522,2,0,P|340:188|339:212,1,35.2,8|8,1:2|3:2,0:0:0:0:
403,259,231690,2,0,P|408:275|411:292,1,35.2,2|0,0:2|0:2,0:0:0:0:
372,369,231859,1,0,3:2:0:0:
478,141,232028,85,2,0:2:0:0:
478,141,232365,86,0,B|403:126|420:178|341:164,1,140.8,6|8,3:2|0:2,0:0:0:0:
341,22,232870,1,0,0:2:0:0:
341,22,232954,1,0,0:2:0:0:
340,22,233039,2,0,P|357:52|360:87,1,70.4,0|0,0:2|0:2,0:0:0:0:
266,177,233376,2,0,P|268:142|286:111,1,70.4,8|0,0:2|0:2,0:0:0:0:
314,254,233713,54,0,P|256:216|193:237,1,140.8,0|8,3:2|0:2,0:0:0:0:
104,307,234219,1,0,0:2:0:0:
104,307,234303,1,0,0:2:0:0:
104,307,234387,2,0,P|109:290|115:274,1,35.2,0|0,0:2|0:2,0:0:0:0:
79,197,234556,1,0,3:2:0:0:
211,131,234724,2,0,P|177:139|141:141,1,70.4,8|0,0:2|0:2,0:0:0:0:
15,137,235061,54,0,P|79:113|142:141,1,140.8,0|8,3:2|0:2,0:0:0:0:
291,90,235567,1,0,0:2:0:0:
291,90,235651,1,0,0:2:0:0:
291,90,235735,2,0,L|296:8,1,70.4,0|0,0:2|3:2,0:0:0:0:
378,171,236072,1,8,0:2:0:0:
425,50,236241,54,0,B|388:76|388:76|375:194,1,140.8,0|0,3:2|3:2,0:0:0:0:
330,292,236747,2,0,B|367:266|367:266|380:148,1,140.8,8|0,0:2|0:2,0:0:0:0:
425,49,237252,1,0,3:2:0:0:
291,90,237421,2,0,L|192:79,1,70.4,0|0,0:2|0:2,0:0:0:0:
161,37,237674,1,8,0:2:0:0:
175,27,237758,54,0,P|197:91|200:179,1,140.8,0|8,3:2|0:2,0:0:0:0:
144,243,238263,1,0,0:2:0:0:
144,243,238348,1,0,0:2:0:0:
144,243,238432,2,0,L|57:235,1,70.4,0|0,0:2|3:2,0:0:0:0:
201,163,238769,2,0,L|288:171,1,70.4,8|0,0:2|0:2,0:0:0:0:
385,197,239106,54,0,P|321:216|271:169,1,140.8,0|8,3:2|0:2,0:0:0:0:
372,121,239612,1,0,0:2:0:0:
372,121,239696,1,0,0:2:0:0:
372,121,239780,2,0,P|401:120|438:123,1,35.2,0|0,0:2|0:2,0:0:0:0:
459,222,239949,1,0,3:2:0:0:
509,85,240117,2,0,P|489:118|476:161,1,70.4,8|0,0:2|0:2,0:0:0:0:
459,353,240454,54,0,B|480:318|480:318|483:263|459:222,1,140.8,0|8,3:2|0:2,0:0:0:0:
374,291,240960,1,0,0:2:0:0:
374,291,241044,1,0,0:2:0:0:
374,291,241129,2,0,P|340:296|306:287,1,70.4,0|0,0:2|3:2,0:0:0:0:
459,222,241466,2,0,P|493:217|527:226,1,70.4,8|0,0:2|3:2,0:0:0:0:
374,291,241803,54,0,B|353:256|353:256|350:201|374:160,1,140.8,2|8,0:2|0:2,0:0:0:0:
470,92,242308,1,0,3:2:0:0:
470,92,242393,1,0,0:2:0:0:
470,92,242477,2,0,P|440:85|416:74,1,35.2,0|0,0:2|0:2,0:0:0:0:
359,33,242646,1,0,3:2:0:0:
298,153,242814,1,8,0:2:0:0:
191,56,242983,1,8,0:2:0:0:
200,40,243067,1,8,0:2:0:0:
213,28,243151,54,0,B|260:13|297:48|297:48|339:60|364:26,1,158.399995166016,0|8,3:2|0:2,0:0:0:0:
223,174,243657,1,2,0:2:0:0:
223,174,243741,1,0,0:2:0:0:
223,174,243825,2,0,P|223:134|239:99,1,79.1999975830079,0|0,0:2|3:2,0:0:0:0:
346,224,244162,2,0,P|345:263|329:298,1,79.1999975830079,8|0,0:2|0:2,0:0:0:0:
225,353,244499,54,0,P|256:286|329:300,1,158.399995166016,2|8,3:2|0:2,0:0:0:0:
425,366,245005,1,2,0:2:0:0:
425,366,245089,1,0,0:2:0:0:
425,366,245174,2,0,L|428:317,1,39.5999987915039,0|0,0:2|0:2,0:0:0:0:
504,256,245342,1,0,3:2:0:0:
424,188,245511,2,0,P|385:173|342:173,1,79.1999975830079,8|0,0:2|0:2,0:0:0:0:
193,175,245848,54,0,B|246:166|246:166|291:180|291:180|348:172,1,158.399995166016,2|8,3:2|0:2,0:0:0:0:
304,16,246353,1,2,0:2:0:0:
304,16,246438,1,0,0:2:0:0:
304,16,246522,2,0,L|301:95,1,79.1999975830079,0|0,0:2|3:2,0:0:0:0:
193,175,246859,1,8,0:2:0:0:
139,36,247028,54,0,B|176:65|176:65|195:185,1,158.399995166016,2|0,3:2|3:2,0:0:0:0:
122,271,247533,2,0,P|108:233|91:198,1,79.1999975830079,8|0,0:2|0:2,0:0:0:0:
76,190,247786,1,0,0:2:0:0:
60,187,247870,1,0,0:2:0:0:
0,326,248039,1,0,3:2:0:0:
122,271,248207,2,0,P|156:264|222:268,1,79.1999975830079,8|0,0:2|3:2,0:0:0:0:
266,308,248460,1,8,0:2:0:0:
273,321,248544,54,0,P|311:328|351:327,1,79.1999975830079,2|0,3:2|0:2,0:0:0:0:
477,279,248881,1,8,0:2:0:0:
364,203,249050,1,2,0:2:0:0:
364,203,249134,1,0,0:2:0:0:
364,203,249219,2,0,P|354:165|361:126,1,79.1999975830079,0|0,0:2|3:2,0:0:0:0:
505,119,249556,2,0,P|474:93|436:82,1,79.1999975830079,8|0,0:2|0:2,0:0:0:0:
364,202,249893,54,0,P|427:159|437:83,1,158.399995166016,0|8,0:2|0:2,0:0:0:0:
354,25,250398,1,2,0:2:0:0:
354,25,250483,1,0,0:2:0:0:
354,25,250567,2,0,L|303:15,1,39.5999987915039,0|0,0:2|0:2,0:0:0:0:
223,55,250735,1,0,3:2:0:0:
114,9,250904,2,0,P|127:43|136:91,1,79.1999975830079,8|0,0:2|0:2,0:0:0:0:
105,229,251241,54,0,P|96:152|135:85,1,158.399995166016,2|8,3:2|0:2,0:0:0:0:
275,179,251747,1,2,0:2:0:0:
275,179,251831,1,0,0:2:0:0:
275,179,251915,2,0,P|236:184|198:173,1,79.1999975830079,0|0,0:2|3:2,0:0:0:0:
351,23,252252,69,10,2:2:0:0:
429,180,252421,1,0,3:2:0:0:
366,22,252589,53,10,0:2:0:0:
353,215,252758,1,0,3:2:0:0:
381,21,252926,53,8,0:2:0:0:
275,179,253095,1,0,3:2:0:0:
396,20,253263,21,10,0:2:0:0:
381,21,253348,1,8,0:2:0:0:
366,22,253432,1,8,0:2:0:0:
254,90,253601,1,8,0:2:0:0:
385,232,253769,1,8,0:2:0:0:
385,216,253853,1,8,0:2:0:0:
383,200,253938,6,0,P|338:168|272:180,1,123.199996240234,6|8,3:2|3:2,0:0:0:0:
274,178,254612,2,0,L|271:112,1,61.5999981201172,2|0,3:2|0:2,0:0:0:0:
191,210,254949,2,0,L|188:144,1,61.5999981201172,10|0,0:2|0:2,0:0:0:0:
180,138,255202,1,0,0:2:0:0:
170,129,255286,1,0,3:2:0:0:
147,336,255623,54,0,P|117:322|66:322,1,61.5999981201172,10|0,0:2|0:2,0:0:0:0:
62,234,255960,2,0,P|89:215|114:170,1,61.5999981201172,2|0,3:2|0:2,0:0:0:0:
191,210,256297,2,0,P|193:242|219:287,1,61.5999981201172,10|0,0:2|0:2,0:0:0:0:
214,277,256550,1,0,0:2:0:0:
225,280,256634,54,0,L|355:273,1,123.199996240234,2|8,3:2|0:2,0:0:0:0:
440,317,257140,2,0,L|445:256,1,61.5999981201172,2|0,0:2|3:2,0:0:0:0:
512,181,257477,1,2,0:2:0:0:
481,87,257646,2,0,L|419:79,1,61.5999981201172,8|0,0:2|0:2,0:0:0:0:
409,86,257898,1,0,0:2:0:0:
399,93,257983,1,0,3:2:0:0:
235,38,258320,54,0,L|162:33,1,61.5999981201172,10|0,0:2|0:2,0:0:0:0:
95,70,258657,2,0,L|43:56,2,30.7999990600586,0|0|0,3:2|0:2|0:2,0:0:0:0:
147,140,258994,2,0,P|160:169|162:199,1,61.5999981201172,10|0,0:2|0:2,0:0:0:0:
158,211,259247,1,0,0:2:0:0:
152,221,259331,54,0,P|139:249|139:346,1,123.199996240234,2|8,3:2|0:2,0:0:0:0:
234,353,259837,2,0,L|317:345,1,61.5999981201172,2|0,0:2|3:2,0:0:0:0:
392,364,260174,2,0,L|475:356,1,61.5999981201172,2|8,0:2|0:2,0:0:0:0:
512,260,260511,53,2,0:2:0:0:
512,260,260595,1,0,0:2:0:0:
512,260,260679,2,0,P|492:202|497:141,1,123.199996240234,0|8,3:2|0:2,0:0:0:0:
497,141,261185,1,0,2:2:0:0:
427,71,261353,2,0,L|353:63,1,61.5999981201172,2|0,3:2|0:2,0:0:0:0:
274,25,261690,2,0,L|200:17,1,61.5999981201172,10|0,0:2|0:2,0:0:0:0:
190,128,262028,54,0,B|219:100|219:100|230:63|213:18,1,123.199996240234,2|0,3:2|3:0,0:0:0:0:
122,55,262533,1,2,0:2:0:0:
122,55,262617,1,0,0:2:0:0:
122,55,262702,2,0,L|50:46,1,61.5999981201172,0|0,3:2|0:2,0:0:0:0:
2,127,263039,1,0,3:2:0:0:
74,254,263207,53,2,0:2:0:0:
74,254,263292,1,2,0:2:0:0:
73,254,263376,2,0,P|77:223|73:192,1,61.5999981201172,0|0,3:2|0:2,0:0:0:0:
167,299,263713,2,0,P|172:268|182:239,1,61.5999981201172,2|0,3:2|0:2,0:0:0:0:
308,140,264050,53,0,3:2:0:0:
364,234,264219,1,0,3:2:0:0:
458,177,264387,1,0,3:2:0:0:
402,83,264556,1,0,3:2:0:0:
262,228,264724,54,0,B|210:223|210:223|182:238|182:238|125:232,1,140.8,6|0,3:2|3:2,0:0:0:0:
216,344,265230,1,0,0:2:0:0:
216,344,265314,1,0,0:2:0:0:
216,344,265398,2,0,P|228:311|236:281,2,35.2,2|0|0,3:2|0:2|0:2,0:0:0:0:
110,366,265735,2,0,P|66:353|28:352,1,70.4,2|0,3:2|0:2,0:0:0:0:
27,353,265988,1,0,0:2:0:0:
14,358,266072,54,0,L|7:263,1,70.4,0|0,3:2|0:2,0:0:0:0:
125,232,266410,2,0,L|132:137,1,70.4,2|0,3:2|0:2,0:0:0:0:
128,147,266662,1,0,0:2:0:0:
124,133,266747,2,0,L|117:38,1,70.4,0|0,3:2|0:2,0:0:0:0:
230,101,267084,2,0,P|265:95|297:79,1,70.4,0|0,3:2|0:2,0:0:0:0:
308,72,267337,1,0,0:2:0:0:
321,66,267421,54,0,P|357:66|390:78,1,70.4,2|0,3:2|0:2,0:0:0:0:
447,156,267758,1,2,3:2:0:0:
512,2,267926,2,0,P|494:32|487:67,1,70.4,2|0,0:2|3:2,0:0:0:0:
450,238,268263,1,2,0:2:0:0:
461,229,268348,1,2,0:2:0:0:
472,220,268432,2,0,P|465:185|447:156,1,70.4,0|0,3:2|0:2,0:0:0:0:
292,217,268769,54,0,P|299:182|317:153,1,70.4,2|0,3:2|0:2,0:0:0:0:
244,292,269106,2,0,P|210:303|176:302,1,70.4,2|0,3:2|0:2,0:0:0:0:
333,296,269443,2,0,P|359:319|375:349,1,70.4,2|0,3:2|0:2,0:0:0:0:
175,302,269780,53,0,3:2:0:0:
376,350,269949,1,0,3:2:0:0:
208,185,270117,6,0,B|197:142|197:142|213:90,1,88,6|0,3:2|0:2,0:0:0:0:
367,44,270454,1,10,0:2:0:0:
363,201,270623,53,2,0:2:0:0:
363,201,270707,1,0,0:2:0:0:
363,201,270792,2,0,B|369:176|369:176|367:148,1,44,0|0,0:2|0:2,0:0:0:0:
259,28,270960,2,0,P|217:14|173:20,1,88,2|8,3:2|0:2,0:0:0:0:
58,112,271297,1,2,0:2:0:0:
202,272,271466,54,0,L|207:184,1,88,6|0,1:2|1:2,0:0:0:0:
197,164,271719,1,0,1:2:0:0:
179,150,271803,2,0,L|118:139,1,44,10|0,1:2|1:2,0:0:0:0:
214,289,271971,2,0,L|275:300,1,44,2|0,1:2|1:2,0:0:0:0:
437,138,272140,85,2,1:2:0:0:
406,127,272224,1,0,1:2:0:0:
374,133,272308,1,0,3:2:0:0:
349,155,272393,1,0,1:2:0:0:
338,185,272477,2,0,L|327:259,3,44,10|0|0|0,1:2|1:2|1:2|1:2,0:0:0:0:
257,296,272814,53,6,3:2:0:0:
214,289,272898,1,0,1:2:0:0:
171,282,272983,1,0,1:2:0:0:
128,275,273067,1,0,1:2:0:0:
85,268,273151,102,0,L|31:269,1,44,10|0,1:2|1:2,0:0:0:0:
257,296,273320,2,0,L|311:297,1,44,0|0,3:2|1:2,0:0:0:0:
101,150,273488,54,0,L|47:151,1,44,8|0,1:2|1:2,0:0:0:0:
294,184,273657,2,0,L|348:185,1,44,0|0,3:2|1:1,0:0:0:0:
213,87,273825,54,0,L|216:44,1,44,8|0,1:2|1:2,0:0:0:0:
179,358,273994,1,6,3:2:0:0:
213,87,274837,86,2,L|216:44,1,43.9956006189567,2|0,0:2|3:2,0:1:0:0:
366,85,275174,22,0,B|330:63|290:77|290:77|255:104|213:87|213:87|243:118|237:157,1,237.599992749024,2|0,0:1|0:2,0:0:0:0:
164,208,275511,102,0,L|102:202,1,61.5999981201172,6|0,3:2|0:2,0:0:0:0:
298,217,275679,2,0,L|359:220,1,61.5999981201172,2|0,0:2|0:2,0:0:0:0:
134,334,275848,54,0,P|124:297|130:269,1,52.7999983886719,2|0,0:1|0:2,0:0:0:0:
310,346,276016,2,0,P|324:310|322:282,1,52.7999983886719,0|0,3:1|0:2,0:0:0:0:
237,156,276185,1,8,0:2:0:0:
103,202,276353,6,0,B|83:201|83:201|63:195,2,41.0666654134115,2|2|2,0:2|0:2|0:2,0:0:0:0:
125,283,276522,2,0,B|145:284|145:284|165:290,2,41.0666654134115,2|2|2,0:2|0:2|0:2,0:0:0:0:
47,341,276690,38,0,B|78:322|78:322|91:221|91:221|64:196,1,176,6|0,3:2|0:2,0:0:0:0:
82,43,277196,2,0,B|48:62|48:62|35:168|35:168|63:195,1,184.799994360352,2|0,3:2|0:2,0:0:0:0:
159,137,277533,70,0,P|141:128|121:127,2,41.0666654134115,10|2|2,0:3|0:2|0:2,0:0:0:0:
233,98,277702,2,0,P|242:80|243:60,2,41.0666654134115,2|2|2,0:2|0:2|0:2,0:0:0:0:
272,172,277870,2,0,P|290:181|310:181,2,41.0666654134115,2|2|2,0:2|0:2|0:2,0:0:0:0:
198,211,278039,2,0,P|189:229|188:249,2,30.7999990600586,2|2|2,0:2|0:2|0:2,0:0:0:0:
233,98,278207,38,0,L|226:18,1,61.5999981201172,6|0,3:2|0:2,0:0:0:0:
198,211,278376,2,0,L|205:291,1,61.5999981201172,2|2,0:1|0:1,0:0:0:0:
403,128,278544,54,0,P|344:131|310:180,1,123.199996240234,2|0,0:1|3:2,0:0:0:0:
302,335,278881,2,0,B|310:309|301:281|301:281|310:255|310:255|301:234|310:180,1,158.399995166016,10|0,0:2|0:2,0:0:0:0:
403,128,279219,2,0,L|443:118,2,26.399999194336,2|2|2,0:2|0:2|0:2,0:0:0:0:
310,180,279387,86,0,B|274:186|241:169|241:169|197:163|166:183|166:183|138:167|106:169,1,211.2,6|0,3:2|0:2,0:0:0:0:
19,127,279724,2,0,L|12:68,1,44,2|0,0:2|0:2,0:0:0:0:
30,270,279893,1,8,0:2:0:0:
108,153,280061,38,0,B|139:150|167:166|167:166|198:146|242:152|242:152|275:169|311:163,1,211.2,4|0,3:2|0:2,0:0:0:0:
399,118,280398,2,0,L|406:59,1,44,2|0,0:2|0:2,0:0:0:0:
407,267,280567,1,8,0:2:0:0:
312,163,280735,1,2,0:2:0:0:
213,288,280904,38,0,B|179:291|179:291|155:277,1,61.5999981201172,2|0,3:2|0:2,0:0:0:0:
174,81,281072,2,0,B|200:71|200:71|232:82,1,61.5999981201172,2|0,0:2|0:2,0:0:0:0:
75,238,281241,54,0,L|62:289,1,52.7999983886719,2|0,0:1|0:2,0:0:0:0:
90,101,281410,2,0,L|88:48,1,52.7999983886719,2|0,3:1|0:2,0:0:0:0:
199,182,281578,1,8,0:2:0:0:
319,67,281747,6,0,B|330:48|330:48|350:38,2,41.0666654134115,2|2|2,0:2|0:2|0:2,0:0:0:0:
232,82,281915,2,0,B|214:68|214:68|192:66,2,41.0666654134115,2|2|2,0:2|0:2|0:2,0:0:0:0:
362,172,282084,38,0,B|390:134|390:134|366:75|366:75|319:67,1,158.399995166016,6|0,3:2|0:2,0:0:0:0:
232,82,282421,2,0,B|191:104|191:104|188:168|188:168|228:194,1,158.399995166016,0|0,3:2|0:2,0:0:0:0:
308,249,282758,53,2,3:2:0:0:
232,82,282926,1,8,0:2:0:0:
125,230,283095,1,2,0:2:0:0:
120,221,283179,1,2,0:2:0:0:
115,212,283263,102,2,P|100:206|89:205,1,26.4,2|0,0:1|0:2,0:1:0:0:
49,281,283601,86,0,B|42:96,1,184.799994360352,6|0,3:2|0:2,0:0:0:0:
178,17,283938,2,0,B|128:69|128:69|83:16,1,140.8,2|0,0:1|3:2,0:0:0:0:
232,81,284275,2,0,L|333:76,1,70.4,10|0,0:2|0:2,0:0:0:0:
361,138,284443,22,2,P|320:119|302:77,1,92.3999971801759,2|0,0:1|0:2,0:1:0:0:
412,193,284780,22,0,B|430:183|448:165|448:165|402:138|357:129|312:138|267:165|267:165|285:183|303:193,1,281.6,6|0,3:2|0:2,0:0:0:0:
358,249,285286,2,0,L|359:293,1,44,8|0,0:2|0:2,0:0:0:0:
400,361,285454,70,0,B|412:354|425:342|425:342|393:323|362:316|330:323|298:342|298:342|311:354|324:361,1,198.000007553101,4|0,3:2|0:2,0:0:0:0:
497,363,285792,102,0,P|499:337|494:307,1,52.7999983886719,10|0,0:2|0:2,0:0:0:0:
225,364,285960,2,0,P|223:338|228:308,1,52.7999983886719,10|0,0:2|0:2,0:0:0:0:
359,138,286129,53,8,0:2:0:0:
359,153,286213,1,8,0:2:0:0:
359,168,286297,38,0,P|328:181|293:176,1,61.5999981201172,6|0,3:2|0:2,0:0:0:0:
246,50,286466,2,0,P|277:37|312:42,1,61.5999981201172,2|0,0:2|0:2,0:0:0:0:
359,183,286634,54,0,P|334:192|308:191,1,52.7999983886719,2|0,0:1|0:2,0:0:0:0:
246,35,286803,2,0,P|270:25|296:26,1,52.7999983886719,2|0,3:1|0:2,0:0:0:0:
180,173,286971,1,8,0:2:0:0:
93,60,287140,6,0,B|84:7,2,41.0666654134115,2|2|2,0:2|0:2|0:2,0:0:0:0:
43,179,287308,2,0,B|36:219,2,41.0666654134115,2|2|2,0:2|0:2|0:2,0:0:0:0:
116,139,287477,38,0,B|137:134|155:121|155:121|170:132|191:133|191:133|232:111|284:129,1,176,4|0,3:2|0:2,0:0:0:0:
264,333,287983,2,0,B|221:317|221:317|194:264|239:214,1,158.399995166016,2|0,3:2|0:2,0:0:0:0:
350,135,288320,38,0,P|316:140|280:126,1,70.4,10|0,0:2|0:2,0:0:0:0:
353,147,288657,2,0,P|311:152|276:138,1,79.1999975830079,2|0,0:2|0:2,0:0:0:0:
202,100,288994,70,0,L|195:32,1,61.5999981201172,0|0,3:2|0:2,0:0:0:0:
239,214,289162,2,0,L|246:282,1,61.5999981201172,2|0,0:1|0:2,0:0:0:0:
71,163,289331,86,0,P|119:157|164:174,1,96.8000029541017,2|0,0:1|3:2,0:0:0:0:
71,355,289668,2,2,B|65:316|65:316|69:290|69:290|37:230|74:156,1,198.000007553101,10|0,0:2|0:2,0:1:0:0:
114,77,290005,1,2,0:2:0:0:
271,141,290174,54,0,B|165:101|176:201|70:162,1,211.2,6|0,3:2|0:2,0:0:0:0:
114,77,290679,1,8,0:2:0:0:
276,157,290848,38,0,B|170:117|181:217|75:178,1,211.2,6|0,3:2|0:2,0:0:0:0:
235,341,291353,2,0,P|249:291|234:242,1,105.599996777344,10|0,0:2|3:2,0:0:0:0:
157,294,291606,1,8,0:2:0:0:
135,294,291690,38,0,L|72:288,1,52.7999983886719,6|0,3:2|0:2,0:0:0:0:
235,341,291859,2,0,B|355:339|355:339|321:365,1,158.399995166016,2|0,0:1|0:2,0:0:0:0:
303,374,292196,86,0,L|309:234,1,123.199996240234,2|8,3:1|0:2,0:0:0:0:
417,133,292533,2,2,L|494:121,2,61.5999981201172,2|0|0,3:2|0:2|0:2,0:1:0:0:
262,98,292870,1,10,0:2:0:0:
407,220,293039,54,0,B|455:182|455:182|417:134,1,123.199996240234,6|0,3:2|0:2,0:0:0:0:
262,98,293376,2,0,B|224:49|224:49|272:12,1,123.199996240234,2|0,3:2|0:2,0:0:0:0:
308,250,293713,37,8,0:2:0:0:
374,24,293881,1,2,3:2:0:0:
407,220,294050,53,10,0:2:0:0:
272,11,294219,1,10,0:2:0:0:
164,181,294387,6,0,B|-9:165|-9:165|70:129,1,246.399992480469,6|0,3:2|0:2,0:0:0:0:
116,322,294893,1,2,3:2:0:0:
141,95,295061,37,10,0:1:0:0:
10,289,295230,1,0,3:2:0:0:
68,49,295398,53,10,0:2:0:0:
214,262,295567,1,8,0:2:0:0:
230,244,295651,1,8,0:2:0:0:
247,226,295735,54,0,L|252:155,1,61.5999981201172,6|0,3:2|0:2,0:0:0:0:
61,196,295904,2,0,L|56:125,1,61.5999981201172,2|0,0:2|0:2,0:0:0:0:
251,164,296072,54,0,L|256:93,1,70.4,10|0,0:2|0:2,0:0:0:0:
56,134,296241,2,0,L|51:63,1,70.4,2|0,3:2|0:2,0:0:0:0:
125,346,296410,53,10,0:2:0:0:
134,327,296494,2,0,L|137:260,1,52.7999983886719,8|0,0:2|3:2,0:0:0:0:
335,186,296747,70,0,B|375:178|375:178|414:190|414:190|467:184,1,123.199996240234,10|0,0:2|3:2,0:0:0:0:
510,265,296999,1,8,0:2:0:0:
496,248,297084,54,0,L|507:56,1,176,6|8,3:2|0:2,0:0:0:0:
349,29,297589,1,2,0:2:0:0:
349,29,297674,1,0,0:2:0:0:
349,29,297758,2,0,P|391:40|431:23,1,88,0|0,0:2|3:2,0:0:0:0:
303,104,298095,2,0,P|263:86|222:98,1,88,10|0,0:2|0:2,0:0:0:0:
144,243,298432,21,2,3:2:0:0:
206,114,298601,1,2,0:2:0:0:
164,251,298769,53,10,0:2:0:0:
196,133,298938,1,2,0:2:0:0:
183,260,299106,53,2,0:2:0:0:
191,154,299275,1,2,3:2:0:0:
202,269,299443,53,10,0:2:0:0:
190,175,299612,1,2,0:2:0:0:
62,311,299780,22,0,L|53:178,1,132,2|0,3:2|0:2,0:0:0:0:
52,157,300117,1,10,0:2:0:0:
125,20,300286,1,2,0:2:0:0:
125,20,300370,1,0,0:2:0:0:
125,20,300454,1,0,0:2:0:0:
259,100,300623,2,0,P|309:107|354:96,1,88,2|8,0:2|2:2,0:0:0:0:
504,118,300960,54,0,P|428:77|345:100,1,176,6|0,3:2|3:2,0:0:0:0:
345,100,301466,1,8,0:2:0:0:
499,201,301634,1,2,0:2:0:0:
499,201,301719,1,0,0:2:0:0:
499,201,301803,2,0,P|514:160|504:118,1,88,0|0,0:2|3:2,0:0:0:0:
337,183,302140,2,0,P|329:140|346:100,1,88,10|0,0:2|3:2,0:0:0:0:
399,48,302393,1,8,0:2:0:0:
408,68,302477,54,0,B|346:100|346:100|286:96|256:35,1,176,6|8,3:2|0:2,0:0:0:0:
121,6,302983,1,2,0:2:0:0:
121,6,303067,1,0,0:2:0:0:
121,6,303151,1,0,0:2:0:0:
17,133,303320,2,0,L|10:33,1,88,2|8,3:2|0:2,0:0:0:0:
167,189,303657,54,0,L|173:101,1,88,2|0,0:2|3:2,0:0:0:0:
307,31,303994,1,2,0:2:0:0:
301,183,304162,1,10,0:2:0:0:
444,121,304331,1,2,0:2:0:0:
444,121,304415,1,0,0:2:0:0:
444,121,304499,2,0,L|449:28,1,88,0|0,0:2|3:2,0:0:0:0:
172,101,304837,2,0,L|167:8,1,88,10|0,0:2|0:2,0:0:0:0:
363,206,305174,54,0,P|302:182|237:192,1,132,2|0,3:2|0:2,0:0:0:0:
222,208,305511,1,10,0:2:0:0:
358,289,305679,2,0,P|370:261|357:196,1,88,2|0,0:2|0:2,0:0:0:0:
214,228,306016,1,2,3:2:0:0:
165,86,306185,1,10,0:2:0:0:
3,186,306353,54,0,P|63:162|128:172,1,132,6|0,3:2|0:2,0:0:0:0:
214,228,306690,1,10,0:2:0:0:
271,38,306859,1,10,0:2:0:0:
407,182,307028,2,0,L|416:94,1,88,2|0,3:2|0:2,0:0:0:0:
450,29,307280,1,8,0:2:0:0:
471,24,307365,1,0,3:2:0:0:
485,215,307533,2,0,P|450:188|407:182,1,88,10|0,0:2|3:2,0:0:0:0:
342,220,307786,1,8,0:2:0:0:
325,234,307870,54,0,B|264:221|264:221|217:243|217:243|156:232,1,176,6|8,3:2|2:2,0:0:0:0:
77,92,308376,1,2,0:2:0:0:
77,92,308460,1,0,0:2:0:0:
77,92,308544,2,0,B|95:126|95:126|89:175,1,88,0|0,0:2|3:2,0:0:0:0:
85,345,308881,2,0,B|67:311|67:311|73:262,1,88,10|0,0:2|0:2,0:0:0:0:
77,92,309219,21,2,3:2:0:0:
156,232,309387,1,2,0:2:0:0:
97,83,309556,53,10,0:2:0:0:
151,210,309724,1,2,0:2:0:0:
116,73,309893,53,2,0:2:0:0:
146,188,310061,1,2,3:2:0:0:
136,64,310230,53,10,0:2:0:0:
141,166,310398,1,2,0:2:0:0:
286,11,310567,22,0,B|252:30|252:30|238:129,1,132,2|0,3:2|0:2,0:0:0:0:
236,144,310904,1,10,0:2:0:0:
322,267,311072,1,2,0:2:0:0:
322,267,311157,1,0,0:2:0:0:
322,267,311241,1,0,0:2:0:0:
428,174,311410,2,0,L|433:81,1,88,2|8,3:2|0:2,0:0:0:0:
447,328,311747,54,0,P|404:257|321:266,1,176,6|0,3:2|3:2,0:0:0:0:
208,356,312252,1,8,0:2:0:0:
107,267,312421,1,2,0:2:0:0:
107,267,312505,1,0,0:2:0:0:
107,267,312589,2,0,L|98:178,1,88,0|0,0:2|3:2,0:0:0:0:
321,266,312926,2,0,L|330:177,1,88,10|0,0:2|3:2,0:0:0:0:
389,126,313179,1,8,0:2:0:0:
398,146,313263,54,0,B|329:179|329:179|276:163|277:104,1,176,6|8,3:2|0:2,0:0:0:0:
148,24,313769,1,2,0:2:0:0:
148,24,313853,1,0,0:2:0:0:
148,24,313938,1,0,0:2:0:0:
51,137,314106,2,0,P|86:134|137:151,1,88,2|8,3:2|0:2,0:0:0:0:
53,313,314443,53,2,0:2:0:0:
53,313,314528,1,0,0:2:0:0:
53,313,314612,2,0,L|51:114,1,176,4|8,3:2|0:2,0:0:0:0:
148,24,315117,1,2,0:2:0:0:
148,24,315202,1,0,0:2:0:0:
148,24,315286,1,0,0:2:0:0:
249,132,315454,1,2,3:2:0:0:
377,55,315623,2,0,L|465:49,1,88,10|0,0:2|0:2,0:0:0:0:
380,225,315960,54,0,P|359:140|377:55,1,176,6|8,3:2|0:2,0:0:0:0:
468,236,316466,1,2,0:2:0:0:
468,236,316550,1,0,0:2:0:0:
468,236,316634,2,0,L|380:225,1,88,4|0,3:2|0:2,0:0:0:0:
299,351,316971,1,8,0:2:0:0:
160,265,317140,70,0,L|144:186,1,66.0000025177003,6|2,3:2|0:2,0:0:0:0:
66,110,317477,1,2,2:2:0:0:
66,110,317561,1,2,2:2:0:0:
66,110,317646,1,2,2:2:0:0:
10,262,317814,53,10,0:2:0:0:
10,262,317898,1,0,3:2:0:0:
10,262,317983,2,0,L|13:207,1,44,10|0,0:2|0:2,0:0:0:0:
66,110,318151,2,0,L|63:55,1,44,2|0,3:2|0:2,0:0:0:0:
147,201,318320,86,0,P|216:191|171:114,1,165,8|0,3:1|0:2,0:0:0:0:
195,117,318657,37,4,3:2:0:0:
295,193,318825,2,0,L|383:190,1,79.1999975830079,2|8,0:2|0:2,0:0:0:0:
458,94,319162,1,0,0:2:0:0:
458,94,319247,1,0,0:2:0:0:
458,94,319331,1,2,0:2:0:0:
374,190,319499,1,2,3:2:0:0:
332,69,319668,1,10,0:2:0:0:
199,122,319837,54,0,L|106:109,1,79.1999975830079,2|0,0:2|3:2,0:0:0:0:
120,111,320174,1,2,0:2:0:0:
295,179,320342,2,0,L|388:192,1,79.1999975830079,10|0,0:2|0:2,0:0:0:0:
385,205,320595,1,0,0:2:0:0:
396,220,320679,2,0,L|489:233,1,79.1999975830079,2|0,0:2|3:2,0:0:0:0:
333,324,321016,1,10,0:2:0:0:
287,204,321185,1,2,0:2:0:0:
188,335,321353,54,0,L|95:322,1,79.1999975830079,2|0,3:2|0:2,0:0:0:0:
0,384,321690,1,10,0:2:0:0:
5,257,321859,1,0,0:2:0:0:
5,257,321943,1,0,0:2:0:0:
5,257,322028,1,2,0:2:0:0:
107,183,322196,2,0,L|98:104,1,79.1999975830079,2|8,3:2|0:2,0:0:0:0:
231,240,322533,53,2,0:2:0:0:
231,240,322617,1,2,0:2:0:0:
231,240,322702,1,0,3:2:0:0:
346,189,322870,2,0,L|356:97,1,79.1999975830079,2|8,0:2|0:2,0:0:0:0:
217,116,323207,2,0,L|210:23,1,79.1999975830079,2|0,0:2|0:2,0:0:0:0:
107,183,323544,1,2,3:2:0:0:
0,117,323713,2,0,L|8:33,1,79.1999975830079,10|0,0:2|3:2,0:0:0:0:
75,8,323966,1,8,0:2:0:0:
86,24,324050,54,0,B|145:78|145:78|215:35,1,158.399995166016,2|8,3:2|0:2,0:0:0:0:
334,18,324556,1,0,0:2:0:0:
334,18,324640,1,0,0:2:0:0:
334,18,324724,1,2,0:2:0:0:
446,85,324893,2,0,L|453:6,1,79.1999975830079,2|8,0:2|0:2,0:0:0:0:
360,155,325230,54,0,P|325:136|286:128,1,79.1999975830079,2|0,0:2|3:2,0:0:0:0:
100,159,325567,2,0,P|139:155|176:139,1,79.1999975830079,2|8,0:2|0:2,0:0:0:0:
17,85,325904,1,2,0:2:0:0:
17,85,325988,1,0,0:2:0:0:
17,85,326072,1,0,0:2:0:0:
26,242,326241,1,0,3:2:0:0:
100,159,326410,1,8,0:2:0:0:
109,316,326578,1,2,0:2:0:0:
181,232,326747,54,0,P|252:210|328:270,1,158.399995166016,2|8,3:2|0:2,0:0:0:0:
258,377,327252,1,0,0:2:0:0:
258,377,327337,1,0,0:2:0:0:
258,377,327421,2,0,P|240:342|241:303,1,79.1999975830079,2|0,0:2|3:2,0:0:0:0:
319,252,327758,1,8,0:2:0:0:
376,380,327926,54,0,P|393:345|393:306,1,79.1999975830079,2|0,0:2|3:2,0:0:0:0:
241,302,328263,2,0,P|224:266|227:227,1,79.1999975830079,2|8,0:2|0:2,0:0:0:0:
383,182,328601,2,0,P|399:146|396:107,1,79.1999975830079,2|0,3:2|0:2,0:0:0:0:
359,42,328853,1,8,0:2:0:0:
340,33,328938,1,2,3:2:0:0:
226,78,329106,2,0,L|134:66,1,79.1999975830079,10|0,0:2|3:2,0:0:0:0:
82,33,329359,1,8,0:2:0:0:
85,13,329443,54,0,B|127:49|127:49|124:154,1,158.399995166016,2|8,3:2|0:2,0:0:0:0:
1,222,329949,1,0,0:2:0:0:
1,222,330033,1,0,0:2:0:0:
1,222,330117,2,0,B|37:206|37:206|77:221,1,79.1999975830079,2|0,0:2|3:2,0:0:0:0:
117,339,330454,1,8,0:2:0:0:
242,258,330623,54,0,L|249:167,1,79.1999975830079,2|0,0:2|3:2,0:0:0:0:
1,222,330960,2,0,L|-4:131,1,79.1999975830079,2|8,0:2|0:2,0:0:0:0:
136,80,331297,1,2,0:2:0:0:
136,80,331381,1,0,0:2:0:0:
136,80,331466,1,0,0:2:0:0:
248,179,331634,1,2,3:2:0:0:
277,32,331803,1,10,0:2:0:0:
136,80,331971,1,2,0:2:0:0:
326,117,332140,54,0,L|419:112,1,79.1999975830079,2|0,3:2|0:2,0:0:0:0:
136,80,332477,2,0,L|43:75,1,79.1999975830079,10|0,0:2|0:2,0:0:0:0:
36,75,332730,1,0,0:2:0:0:
16,74,332814,1,2,0:2:0:0:
123,155,332983,2,0,P|139:111|133:73,1,79.1999975830079,2|8,3:2|0:2,0:0:0:0:
41,279,333320,53,2,0:2:0:0:
41,279,333404,1,2,0:2:0:0:
41,279,333488,1,0,3:2:0:0:
164,231,333657,2,0,P|196:207|213:171,1,79.1999975830079,2|8,0:2|0:2,0:0:0:0:
392,251,333994,2,0,P|364:222|353:185,1,79.1999975830079,2|0,0:2|0:2,0:0:0:0:
488,311,334331,1,2,3:2:0:0:
445,176,334499,2,0,P|436:137|445:99,1,79.1999975830079,10|0,0:2|3:2,0:0:0:0:
507,43,334752,1,8,0:2:0:0:
510,60,334837,54,0,B|445:100|445:100|397:88|379:46,1,158.399995166016,2|8,3:2|0:2,0:0:0:0:
262,16,335342,1,0,0:2:0:0:
262,16,335426,1,0,0:2:0:0:
262,16,335511,2,0,P|275:52|279:96,1,79.1999975830079,2|0,0:2|3:2,0:0:0:0:
174,164,335848,2,0,P|161:128|157:84,1,79.1999975830079,8|0,0:2|0:2,0:0:0:0:
63,164,336185,54,0,P|99:148|182:171,1,118.799996374512,2|0,3:2|0:2,0:0:0:0:
231,217,336522,2,0,L|321:216,1,79.1999975830079,10|0,0:2|0:2,0:0:0:0:
330,216,336775,1,0,0:2:0:0:
349,213,336859,2,0,P|366:178|358:139,1,79.1999975830079,2|0,0:2|3:2,0:0:0:0:
138,73,337196,1,10,0:2:0:0:
262,16,337365,1,2,0:2:0:0:
138,73,337533,54,0,L|59:66,1,79.1999975830079,2|0,3:2|0:2,0:0:0:0:
262,16,337870,2,0,L|349:23,1,79.1999975830079,10|0,0:2|0:2,0:0:0:0:
354,36,338123,1,0,0:2:0:0:
365,52,338207,2,0,P|373:90|361:128,1,79.1999975830079,2|0,0:2|3:2,0:0:0:0:
201,170,338544,21,10,0:2:0:0:
346,141,338713,1,0,3:2:0:0:
210,292,338881,37,8,2:2:0:0:
263,96,339050,1,0,3:2:0:0:
371,262,339219,69,8,0:2:0:0:
256,77,339387,1,0,3:2:0:0:
286,308,339556,37,8,0:2:0:0:
298,321,339640,2,0,L|294:272,1,39.5999987915039,8|0,0:2|3:2,0:0:0:0:
184,158,339893,70,0,L|74:149,1,79.1999975830079,10|0,0:2|3:2,0:0:0:0:
38,180,340146,1,8,0:2:0:0:
46,195,340230,6,0,P|63:139|43:57,2,140.8,6|10|2,3:2|0:2|0:2,0:0:0:0:
46,195,341072,1,0,3:2:0:0:
112,267,341241,2,0,P|176:255|197:260,1,70.4,10|0,0:2|0:2,0:0:0:0:
306,287,341578,54,0,P|237:294|180:256,1,140.8,2|10,3:2|0:2,0:0:0:0:
180,256,342084,1,0,0:2:0:0:
158,159,342252,2,0,P|164:124|163:89,1,70.4,2|0,0:2|3:2,0:0:0:0:
59,159,342589,2,0,P|52:124|53:89,1,70.4,10|0,0:2|0:2,0:0:0:0:
191,12,342926,54,0,B|234:39|234:39|343:24,2,140.8,2|10|2,3:2|0:2|0:2,0:0:0:0:
191,12,343769,1,0,3:2:0:0:
95,36,343938,2,0,L|0:29,1,70.4,8|0,0:2|0:2,0:0:0:0:
82,170,344275,54,0,P|106:104|95:35,1,140.8,2|10,3:2|0:2,0:0:0:0:
95,36,344780,1,0,0:2:0:0:
190,111,344949,2,0,P|224:114|259:107,1,70.4,0|0,0:2|3:2,0:0:0:0:
412,48,345286,2,0,P|377:44|342:51,1,70.4,10|0,0:2|3:2,0:0:0:0:
342,65,345539,1,8,0:2:0:0:
342,79,345623,54,0,L|336:239,2,140.8,2|10|2,3:2|0:2|0:2,0:0:0:0:
342,79,346466,1,0,0:2:0:0:
253,35,346634,2,0,P|216:32|170:20,1,70.4,10|0,0:2|0:2,0:0:0:0:
56,65,346971,54,0,P|111:105|120:173,1,140.8,2|10,3:2|0:2,0:0:0:0:
120,173,347477,1,0,0:2:0:0:
179,252,347646,2,0,L|258:243,1,70.4,2|0,0:2|3:2,0:0:0:0:
331,298,347983,2,0,L|410:307,1,70.4,10|0,0:2|0:2,0:0:0:0:
263,372,348320,54,0,P|232:310|249:243,2,140.8,2|10|2,3:2|0:2|2:2,0:0:0:0:
263,372,349162,1,0,3:2:0:0:
330,298,349331,2,0,P|341:264|339:229,1,70.4,10|0,0:2|0:2,0:0:0:0:
261,150,349668,54,0,L|164:138,1,70.4,2|0,3:2|0:2,0:0:0:0:
115,204,350005,1,8,0:2:0:0:
35,144,350174,2,0,L|26:68,1,70.4,0|0,3:2|0:2,0:0:0:0:
25,60,350426,1,8,0:2:0:0:
22,45,350511,1,0,3:2:0:0:
139,62,350679,2,0,P|175:61|215:53,1,70.4,10|0,0:2|3:2,0:0:0:0:
222,50,350932,1,8,0:2:0:0:
235,47,351016,54,0,P|296:39|376:66,2,123.199996240234,2|10|2,3:2|0:2|0:2,0:0:0:0:
235,47,351859,1,0,3:2:0:0:
192,122,352028,2,0,L|182:185,1,61.5999981201172,10|0,0:2|0:2,0:0:0:0:
63,191,352365,54,0,P|122:175|183:183,1,123.199996240234,2|10,3:2|0:2,0:0:0:0:
183,183,352870,1,0,0:2:0:0:
259,223,353039,2,0,L|344:219,1,61.5999981201172,2|0,0:2|3:2,0:0:0:0:
398,257,353376,2,0,L|483:253,1,61.5999981201172,10|0,0:2|0:2,0:0:0:0:
505,152,353713,54,0,P|485:101|512:19,2,123.199996240234,2|10|2,3:2|0:2|0:2,0:0:0:0:
505,152,354556,1,0,3:2:0:0:
437,205,354724,2,0,L|359:197,1,61.5999981201172,10|0,0:2|0:2,0:0:0:0:
361,314,355061,54,0,P|385:264|365:180,1,123.199996240234,2|10,3:2|0:2,0:0:0:0:
376,198,355567,1,0,0:2:0:0:
301,154,355735,2,0,L|222:143,1,61.5999981201172,2|0,0:2|3:2,0:0:0:0:
161,109,356072,2,0,L|82:98,1,61.5999981201172,8|0,0:2|3:2,0:0:0:0:
81,102,356325,1,8,0:2:0:0:
62,103,356410,6,0,L|57:49,3,30.7999990600586,6|0|0|0,3:2|1:2|1:2|1:2,0:0:0:0:
116,177,356747,2,0,L|121:231,3,30.7999990600586,2|0|0|0,1:2|1:2|1:2|1:2,0:0:0:0:
192,256,357084,53,2,1:2:0:0:
206,248,357168,1,0,1:2:0:0:
222,245,357252,1,0,3:2:0:0:
239,245,357337,1,0,1:2:0:0:
255,251,357421,1,2,1:2:0:0:
271,256,357505,1,0,1:2:0:0:
287,257,357589,1,0,1:2:0:0:
303,253,357674,1,0,1:2:0:0:
319,246,357758,54,0,L|324:204,3,30.7999990600586,2|0|0|0,3:2|1:2|1:2|1:2,0:0:0:0:
382,157,358095,2,0,L|387:115,3,30.7999990600586,2|0|0|0,1:2|1:2|1:2|1:2,0:0:0:0:
435,36,358432,53,2,1:2:0:0:
415,47,358516,1,0,1:2:0:0:
392,50,358601,1,0,3:2:0:0:
369,50,358685,1,0,1:2:0:0:
346,42,358769,1,2,1:2:0:0:
324,36,358853,1,0,1:2:0:0:
301,34,358938,1,0,1:2:0:0:
279,39,359022,1,0,1:2:0:0:
257,49,359106,53,6,3:2:0:0:
277,71,359190,1,0,1:2:0:0:
289,99,359275,1,0,1:2:0:0:
290,130,359359,1,0,1:2:0:0:
281,159,359443,1,2,1:2:0:0:
272,188,359528,1,0,1:2:0:0:
273,219,359612,1,0,1:2:0:0:
285,247,359696,1,0,1:2:0:0:
306,268,359780,53,2,0:2:0:0:
318,254,359865,1,0,1:2:0:0:
334,243,359949,1,0,3:2:0:0:
352,236,360033,1,0,1:2:0:0:
371,234,360117,1,2,1:2:0:0:
390,236,360202,1,0,1:2:0:0:
408,243,360286,1,0,1:2:0:0:
424,253,360370,1,0,1:2:0:0:
437,267,360454,86,0,L|448:142,1,105.599996777344,6|2,0:2|0:2,0:0:0:0:
446,162,360960,1,8,0:2:0:0:
354,44,361129,70,0,L|283:32,1,52.7999983886719,2|0,0:2|3:2,0:0:0:0:
154,119,361466,54,0,L|94:108,1,44,10|0,0:2|3:2,0:0:0:0:
