osu file format v14

[General]
AudioFilename: audio.mp3
AudioLeadIn: 0
PreviewTime: 32098
Countdown: 0
SampleSet: Normal
StackLeniency: 0.7
Mode: 1
LetterboxInBreaks: 0
WidescreenStoryboard: 1

[Editor]
Bookmarks: 11241,22028,32814,42252,54387,65174,75960,87084,108320,117758,119106,129134,140679,146072,156859,189219,197814,210792,221578,231016,243151,253938,264724,307870,318657,329443,340230,361803
DistanceSpacing: 0.2
BeatDivisor: 4
GridSize: 32
TimelineZoom: 1.8

[Metadata]
Title:White Eternity (Soleily & Epsilon Remix)
TitleUnicode:White Eternity (Soleily & Epsilon Remix)
Artist:Nitta Emi
ArtistUnicode:新田恵海
Creator:Lasse
Version:Freezing Oni
Source:アストラエアの白き永遠
Tags:drum and bass dnb drumstep eroge visual novel opening AstralAir no Shiroki Towa Favorite
BeatmapID:1468281
BeatmapSetID:693946

[Difficulty]
HPDrainRate:5
CircleSize:4
OverallDifficulty:6
ApproachRate:9
SliderMultiplier:1.4
SliderTickRate:1

[Events]
//Background and Video events
0,0,"bg.jpg",0,110
//Break Periods
//Storyboard Layer 0 (Background)
//Storyboard Layer 1 (Fail)
//Storyboard Layer 2 (Pass)
//Storyboard Layer 3 (Foreground)
//Storyboard Sound Samples

[TimingPoints]
455,337.078651685393,4,1,0,70,1,0
22028,-111.111111111111,4,1,0,70,0,0
23039,-111.111111111111,4,1,0,60,0,0
32814,-111.111111111111,4,1,0,70,0,0
32983,-111.111111111111,4,1,0,50,0,0
35511,-125,4,1,0,50,0,0
53713,-125,4,1,0,54,0,0
54387,-111.111111111111,4,1,0,60,0,0
65174,-100,4,1,0,70,0,0
70567,-100,4,1,0,80,0,0
73263,-100,4,1,0,82,0,0
75286,-125,4,1,0,60,0,0
75623,-50,4,1,0,100,0,0
75960,-100,4,1,0,90,0,1
97533,-100,4,1,0,85,0,0
117926,-100,4,1,0,70,0,0
118095,-100,4,1,0,60,0,0
118769,-100,4,1,0,70,0,0
119106,-100,4,1,0,50,0,0
119443,-125,4,1,0,50,0,0
138994,-125,4,1,0,51,0,0
139162,-121.951219512195,4,1,0,52,0,0
139331,-119.047619047619,4,1,0,53,0,0
139499,-116.279069767442,4,1,0,55,0,0
139668,-113.636363636364,4,1,0,57,0,0
139837,-111.111111111111,4,1,0,59,0,0
140005,-108.695652173913,4,1,0,62,0,0
140174,-106.382978723404,4,1,0,64,0,0
140342,-104.166666666667,4,1,0,66,0,0
140511,-102.040816326531,4,1,0,66,0,0
140595,-101.010101010101,4,1,0,66,0,0
140679,-100,4,1,0,75,0,0
146072,-100,4,1,0,77,0,0
151466,-100,4,1,0,80,0,0
151803,-100,4,1,0,80,0,0
156859,-100,4,1,0,76,0,0
161241,-100,4,1,0,76,0,0
162252,-100,4,1,0,80,0,0
165623,-142.857142857143,4,1,0,60,0,0
166297,-166.666666666667,4,1,0,60,0,0
166971,-100,4,1,0,90,0,0
167308,-100,4,1,0,70,0,0
167477,-100,4,1,0,60,0,0
167646,-100,4,1,0,85,0,1
175735,-71.4285714285714,4,1,0,90,0,0
176072,-125,4,1,0,60,0,0
177758,-71.4285714285714,4,1,0,75,0,0
178095,-125,4,1,0,70,0,0
178432,-100,4,1,0,85,0,1
179780,-100,4,1,0,90,0,1
180454,-100,4,1,0,85,0,1
180707,-100,4,1,0,85,0,1
186522,-100,4,1,0,70,0,0
186859,-125,4,1,0,70,0,0
187365,-125,4,1,0,75,0,0
187870,-121.951219512195,4,1,0,75,0,0
188039,-119.047619047619,4,1,0,75,0,0
188207,-116.279069767442,4,1,0,75,0,0
188376,-113.636363636364,4,1,0,75,0,0
188460,-112.359550561798,4,1,0,75,0,0
188544,-111.111111111111,4,1,0,80,0,0
188713,-106.382978723404,4,1,0,80,0,0
188881,-104.166666666667,4,1,0,80,0,0
189050,-102.040816326531,4,1,0,80,0,0
189134,-101.010101010101,4,1,0,80,0,0
189219,-100,4,1,0,90,0,1
210792,-100,4,1,0,85,0,0
231522,-102.040816326531,4,1,0,70,0,0
231690,-104.166666666667,4,1,0,70,0,0
231859,-106.382978723404,4,1,0,70,0,0
232028,-108.695652173913,4,1,0,70,0,0
232365,-111.111111111111,4,1,0,60,0,0
253938,-111.111111111111,4,1,0,62,0,0
262028,-111.111111111111,4,1,0,64,0,0
263376,-111.111111111111,4,1,0,66,0,0
264050,-108.695652173913,4,1,0,68,0,0
264219,-106.382978723404,4,1,0,68,0,0
264387,-104.166666666667,4,1,0,68,0,0
264556,-102.040816326531,4,1,0,68,0,0
264724,-100,4,1,0,70,0,0
270117,-100,4,1,0,75,0,0
274837,-125,4,1,0,60,0,0
275174,-50,4,1,0,95,0,0
275511,-100,4,1,0,90,0,1
297084,-100,4,1,0,85,0,0
318657,-100,4,1,0,80,0,0
340146,-100,4,1,0,75,0,0
350932,-100,4,1,0,70,0,0
360454,-100,4,1,0,60,0,0
360792,-100,4,1,0,56,0,0
360960,-100,4,1,0,52,0,0
361129,-100,4,1,0,48,0,0
361466,-55.5555555555556,4,1,0,70,0,0

[HitObjects]
96,308,455,5,4,0:0:0:0:
126,129,792,1,0,0:0:0:0:
126,129,960,1,0,0:0:0:0:
126,129,1129,1,8,0:0:0:0:
126,129,1466,1,0,0:0:0:0:
126,129,1803,1,0,0:0:0:0:
126,129,2140,1,8,0:0:0:0:
126,129,2308,1,0,0:0:0:0:
126,129,2477,1,8,0:0:0:0:
126,129,2814,1,0,0:0:0:0:
126,129,3151,1,8,0:0:0:0:
126,129,3488,1,0,0:0:0:0:
126,129,3657,1,0,0:0:0:0:
126,129,3825,1,8,0:0:0:0:
126,129,4162,1,0,0:0:0:0:
126,129,4331,1,0,0:0:0:0:
126,129,4499,1,0,0:0:0:0:
126,129,4837,1,8,0:0:0:0:
126,129,5174,1,8,0:0:0:0:
126,129,5511,1,0,0:0:0:0:
126,129,5679,1,8,0:0:0:0:
126,129,5763,1,8,0:0:0:0:
126,129,5848,1,0,0:0:0:0:
126,129,6185,1,0,0:0:0:0:
126,129,6353,1,0,0:0:0:0:
126,129,6522,1,8,0:0:0:0:
126,129,6859,1,0,0:0:0:0:
126,129,7196,1,0,0:0:0:0:
126,129,7533,1,0,0:0:0:0:
126,129,7702,1,0,0:0:0:0:
126,129,7786,1,0,0:0:0:0:
126,129,7870,1,8,0:0:0:0:
126,129,8207,1,0,0:0:0:0:
126,129,8376,1,0,0:0:0:0:
126,129,8544,1,0,0:0:0:0:
126,129,8881,1,8,0:0:0:0:
126,129,9050,1,0,0:0:0:0:
126,129,9219,1,8,0:0:0:0:
126,129,9556,1,0,0:0:0:0:
126,129,9724,1,0,0:0:0:0:
126,129,9808,1,0,0:0:0:0:
126,129,9893,1,8,0:0:0:0:
126,129,10230,1,0,0:0:0:0:
126,129,10398,1,0,0:0:0:0:
126,129,10567,1,8,0:0:0:0:
126,129,10904,1,0,0:0:0:0:
126,129,11072,1,8,0:0:0:0:
126,129,11157,1,8,0:0:0:0:
126,129,11241,5,0,0:0:0:0:
126,129,11578,1,0,0:0:0:0:
126,129,11747,1,0,0:0:0:0:
126,129,11915,1,8,0:0:0:0:
126,129,12252,1,0,0:0:0:0:
126,129,12421,1,0,0:0:0:0:
126,129,12589,1,0,0:0:0:0:
126,129,12926,1,8,0:0:0:0:
126,129,13095,1,0,0:0:0:0:
126,129,13179,1,0,0:0:0:0:
126,129,13263,1,8,0:0:0:0:
126,129,13432,1,0,0:0:0:0:
126,129,13601,1,0,0:0:0:0:
126,129,13938,1,8,0:0:0:0:
126,129,14275,1,0,0:0:0:0:
126,129,14443,1,0,0:0:0:0:
126,129,14612,1,8,0:0:0:0:
126,129,14949,1,0,0:0:0:0:
126,129,15117,1,0,0:0:0:0:
126,129,15286,1,8,0:0:0:0:
126,129,15454,1,0,0:0:0:0:
126,129,15623,1,0,0:0:0:0:
126,129,15960,1,8,0:0:0:0:
126,129,16129,1,0,0:0:0:0:
126,129,16297,1,0,0:0:0:0:
126,129,16466,1,8,0:0:0:0:
126,129,16550,1,8,0:0:0:0:
120,288,16634,5,0,0:0:0:0:
126,129,16971,1,8,0:0:0:0:
126,129,17140,1,0,0:0:0:0:
126,129,17224,1,0,0:0:0:0:
126,129,17308,1,8,0:0:0:0:
126,129,17477,1,0,0:0:0:0:
126,129,17646,1,8,0:0:0:0:
126,129,17814,1,8,0:0:0:0:
126,129,17898,1,0,0:0:0:0:
126,129,17983,1,8,0:0:0:0:
126,129,18151,1,0,0:0:0:0:
126,129,18320,1,8,0:0:0:0:
126,129,18488,1,0,0:0:0:0:
126,129,18572,1,0,0:0:0:0:
126,129,18657,1,8,0:0:0:0:
126,129,18825,1,0,0:0:0:0:
126,129,18994,1,8,0:0:0:0:
126,129,19162,1,8,0:0:0:0:
126,129,19331,1,4,0:0:0:0:
126,129,19668,1,8,0:0:0:0:
126,129,19837,1,0,0:0:0:0:
126,129,19921,1,0,0:0:0:0:
126,129,20005,1,8,0:0:0:0:
126,129,20174,1,0,0:0:0:0:
126,129,20342,1,0,0:0:0:0:
126,129,20511,1,8,0:0:0:0:
126,129,20595,1,8,0:0:0:0:
126,129,20679,5,0,0:0:0:0:
126,129,21016,1,0,0:0:0:0:
126,129,21185,1,8,0:0:0:0:
126,129,21353,1,0,0:0:0:0:
126,129,21690,1,8,0:0:0:0:
126,129,22028,5,4,0:0:0:0:
126,129,23039,1,0,0:0:0:0:
126,129,23376,1,0,0:0:0:0:
121,167,24050,1,8,0:0:0:0:
356,88,24724,1,0,0:0:0:0:
370,127,25735,1,0,0:0:0:0:
370,127,26072,1,0,0:0:0:0:
280,98,26747,1,8,0:0:0:0:
356,88,27421,1,8,0:0:0:0:
356,88,27758,1,0,0:0:0:0:
356,88,28095,1,8,0:0:0:0:
370,127,28769,1,0,0:0:0:0:
370,127,29106,1,0,0:0:0:0:
280,98,29443,1,8,0:0:0:0:
280,98,29780,1,8,0:0:0:0:
280,98,30117,1,0,0:0:0:0:
280,98,30286,1,0,0:0:0:0:
280,98,30454,1,8,0:0:0:0:
280,98,30623,1,0,0:0:0:0:
280,98,30707,1,0,0:0:0:0:
280,98,30792,1,8,0:0:0:0:
280,98,31129,1,8,0:0:0:0:
280,98,31466,1,0,0:0:0:0:
280,98,31803,1,0,0:0:0:0:
280,98,31971,1,0,0:0:0:0:
280,98,32140,1,8,0:0:0:0:
280,98,32477,1,8,0:0:0:0:
280,98,32646,1,8,0:0:0:0:
373,98,32814,5,4,0:0:0:0:
173,84,35511,5,0,0:0:0:0:
365,98,36522,1,0,0:0:0:0:
373,99,36859,1,8,0:0:0:0:
340,91,37533,1,0,0:0:0:0:
324,97,37870,1,0,0:0:0:0:
240,119,38207,5,8,0:0:0:0:
289,109,39219,1,0,0:0:0:0:
289,109,39387,1,0,0:0:0:0:
301,86,39893,1,8,0:0:0:0:
301,86,40230,1,0,0:0:0:0:
317,85,40567,1,0,0:0:0:0:
317,85,40904,1,8,0:0:0:0:
317,85,41241,1,0,0:0:0:0:
317,85,41410,1,0,0:0:0:0:
315,126,42252,1,8,0:0:0:0:
347,119,42926,1,0,0:0:0:0:
347,119,43263,1,0,0:0:0:0:
344,85,43601,1,8,0:0:0:0:
344,85,44612,1,0,0:0:0:0:
344,85,44780,1,8,0:0:0:0:
344,85,45202,1,0,0:0:0:0:
344,85,45623,1,0,0:0:0:0:
344,85,45960,1,0,0:0:0:0:
344,85,46297,1,8,0:0:0:0:
344,85,46634,1,0,0:0:0:0:
368,88,46803,1,0,0:0:0:0:
344,85,46971,1,8,0:0:0:0:
360,84,47308,1,8,0:0:0:0:
368,88,47477,1,0,0:0:0:0:
368,88,47646,1,8,0:0:0:0:
368,88,47983,1,0,0:0:0:0:
368,88,48320,1,8,0:0:0:0:
368,88,48657,1,0,0:0:0:0:
368,88,48994,1,8,0:0:0:0:
368,88,49499,1,0,0:0:0:0:
368,88,49837,1,0,0:0:0:0:
384,88,50174,1,8,0:0:0:0:
384,88,51185,1,0,0:0:0:0:
384,88,51353,1,8,0:0:0:0:
384,88,51522,1,0,0:0:0:0:
384,88,51690,1,8,0:0:0:0:
384,88,52196,1,0,0:0:0:0:
384,88,52702,1,8,0:0:0:0:
348,112,53376,1,0,0:0:0:0:
348,112,53713,1,8,0:0:0:0:
348,112,54050,1,8,0:0:0:0:
201,333,54387,5,4,0:0:0:0:
256,192,54893,1,0,0:0:0:0:
256,192,55398,1,8,0:0:0:0:
256,192,56072,1,0,0:0:0:0:
256,192,56241,1,8,0:0:0:0:
256,192,56410,1,0,0:0:0:0:
256,192,56578,1,8,0:0:0:0:
256,192,56915,1,0,0:0:0:0:
256,192,57084,1,8,0:0:0:0:
256,192,57589,1,0,0:0:0:0:
256,192,57926,1,8,0:0:0:0:
256,192,58263,1,0,0:0:0:0:
256,192,58769,1,0,0:0:0:0:
256,192,58938,1,8,0:0:0:0:
256,192,59275,1,0,0:0:0:0:
256,192,59443,1,8,0:0:0:0:
256,192,59612,1,8,0:0:0:0:
256,192,59780,1,0,0:0:0:0:
256,192,60286,1,8,0:0:0:0:
256,192,60623,1,0,0:0:0:0:
256,192,60960,1,8,0:0:0:0:
256,192,61297,1,0,0:0:0:0:
256,192,61466,1,0,0:0:0:0:
256,192,61634,1,8,0:0:0:0:
256,192,61971,1,0,0:0:0:0:
256,192,62140,1,8,0:0:0:0:
256,192,62477,1,8,0:0:0:0:
256,192,62814,1,0,0:0:0:0:
256,192,62983,1,8,0:0:0:0:
256,192,63320,1,0,0:0:0:0:
256,192,63488,1,0,0:0:0:0:
256,192,63657,1,8,0:0:0:0:
256,192,63994,1,0,0:0:0:0:
256,192,64162,1,0,0:0:0:0:
256,192,64331,1,0,0:0:0:0:
256,192,64499,1,8,0:0:0:0:
256,192,64668,1,0,0:0:0:0:
256,192,64837,1,8,0:0:0:0:
196,262,65174,5,4,0:0:0:0:
256,192,65679,1,0,0:0:0:0:
256,192,66016,1,0,0:0:0:0:
256,192,66185,1,8,0:0:0:0:
256,192,66522,1,0,0:0:0:0:
256,192,66859,1,8,0:0:0:0:
256,192,67028,1,8,0:0:0:0:
256,192,67365,1,0,0:0:0:0:
256,192,67533,1,8,0:0:0:0:
256,192,67702,1,8,0:0:0:0:
256,192,67870,1,0,0:0:0:0:
256,192,68207,1,8,0:0:0:0:
256,192,68376,1,0,0:0:0:0:
256,192,68713,1,0,0:0:0:0:
256,192,68881,1,8,0:0:0:0:
256,192,69050,1,0,0:0:0:0:
256,192,69387,1,0,0:0:0:0:
256,192,69556,1,8,0:0:0:0:
256,192,69724,1,8,0:0:0:0:
256,192,70061,1,0,0:0:0:0:
256,192,70230,1,8,0:0:0:0:
256,192,70398,1,0,0:0:0:0:
256,192,70483,1,0,0:0:0:0:
256,192,70567,5,8,0:0:0:0:
256,192,70735,1,0,0:0:0:0:
256,192,70904,1,8,0:0:0:0:
256,192,71072,1,0,0:0:0:0:
256,192,71157,1,0,0:0:0:0:
256,192,71241,1,0,0:0:0:0:
256,192,71410,1,8,0:0:0:0:
256,192,71578,1,8,0:0:0:0:
256,192,71747,1,0,0:0:0:0:
256,192,71831,1,0,0:0:0:0:
256,192,71915,1,8,0:0:0:0:
256,192,72084,1,0,0:0:0:0:
256,192,72252,1,8,0:0:0:0:
256,192,72421,1,0,0:0:0:0:
256,192,72505,1,0,0:0:0:0:
256,192,72589,1,8,0:0:0:0:
256,192,72758,1,0,0:0:0:0:
256,192,72842,1,0,0:0:0:0:
256,192,72926,1,8,0:0:0:0:
256,192,73011,1,8,0:0:0:0:
256,192,73095,1,0,0:0:0:0:
256,192,73179,1,0,0:0:0:0:
256,192,73263,1,8,0:0:0:0:
256,192,73601,1,8,0:0:0:0:
256,192,73769,1,0,0:0:0:0:
256,192,73853,1,0,0:0:0:0:
256,192,73938,1,0,0:0:0:0:
256,192,74106,1,0,0:0:0:0:
256,192,74190,1,0,0:0:0:0:
256,192,74275,1,8,0:0:0:0:
178,291,74443,1,12,0:0:0:0:
352,244,75286,5,0,0:0:0:0:
352,244,75623,5,12,0:0:0:0:
196,288,75960,5,4,0:0:0:0:
220,136,76297,1,8,0:0:0:0:
220,136,76466,1,0,0:0:0:0:
220,136,76550,1,0,0:0:0:0:
220,136,76634,1,0,0:0:0:0:
220,136,76803,1,0,0:0:0:0:
220,136,76971,1,8,0:0:0:0:
220,136,77140,1,8,0:0:0:0:
220,136,77224,1,8,0:0:0:0:
220,136,77308,1,0,0:0:0:0:
220,136,77477,1,0,0:0:0:0:
220,136,77646,1,8,0:0:0:0:
220,136,77730,1,8,0:0:0:0:
220,136,77814,1,8,0:0:0:0:
220,136,77983,1,0,0:0:0:0:
220,136,78151,1,0,0:0:0:0:
220,136,78320,1,8,0:0:0:0:
220,136,78488,1,8,0:0:0:0:
220,136,78657,1,0,0:0:0:0:
220,136,78825,1,0,0:0:0:0:
220,136,78910,1,0,0:0:0:0:
220,136,78994,1,8,0:0:0:0:
220,136,79162,1,0,0:0:0:0:
220,136,79247,1,0,0:0:0:0:
220,136,79331,1,8,0:0:0:0:
220,136,79415,1,8,0:0:0:0:
220,136,79499,1,0,0:0:0:0:
220,136,79668,1,8,0:0:0:0:
208,258,79837,1,12,0:0:0:0:
220,136,80174,1,0,0:0:0:0:
220,136,80342,1,8,0:0:0:0:
220,136,80511,1,8,0:0:0:0:
220,136,80595,1,8,0:0:0:0:
220,136,80679,1,0,0:0:0:0:
220,136,80763,1,0,0:0:0:0:
220,136,80848,1,0,0:0:0:0:
220,136,81016,1,8,0:0:0:0:
220,136,81101,1,8,0:0:0:0:
220,136,81269,1,8,0:0:0:0:
220,136,81353,1,0,0:0:0:0:
220,136,81690,1,8,0:0:0:0:
220,136,81859,1,0,0:0:0:0:
220,136,81943,1,0,0:0:0:0:
220,136,82028,1,0,0:0:0:0:
220,136,82196,1,0,0:0:0:0:
220,136,82365,1,8,0:0:0:0:
220,136,82533,1,0,0:0:0:0:
220,136,82617,1,0,0:0:0:0:
220,136,82702,1,8,0:0:0:0:
220,136,83039,1,8,0:0:0:0:
220,136,83207,1,0,0:0:0:0:
220,136,83292,1,0,0:0:0:0:
220,136,83376,1,0,0:0:0:0:
220,136,83544,1,0,0:0:0:0:
220,136,83713,1,8,0:0:0:0:
220,136,83881,1,0,0:0:0:0:
220,136,83966,1,0,0:0:0:0:
194,231,84050,1,8,0:0:0:0:
194,231,84134,1,8,0:0:0:0:
220,136,84219,1,0,0:0:0:0:
220,136,84387,1,8,0:0:0:0:
220,136,84556,1,0,0:0:0:0:
220,136,84640,1,0,0:0:0:0:
220,136,84724,1,8,0:0:0:0:
220,136,84893,1,0,0:0:0:0:
220,136,85061,1,8,0:0:0:0:
208,258,85230,1,4,0:0:0:0:
220,136,85567,1,8,0:0:0:0:
220,136,85735,1,8,0:0:0:0:
220,136,85904,1,0,0:0:0:0:
220,136,86072,1,0,0:0:0:0:
220,136,86157,1,8,0:0:0:0:
220,136,86241,1,0,0:0:0:0:
220,136,86325,1,0,0:0:0:0:
220,136,86410,1,8,0:0:0:0:
220,136,86494,1,0,0:0:0:0:
220,136,86578,1,0,0:0:0:0:
220,136,86662,1,8,0:0:0:0:
220,136,86747,5,0,0:0:0:0:
220,136,87084,1,8,0:0:0:0:
220,136,87252,1,0,0:0:0:0:
220,136,87337,1,0,0:0:0:0:
220,136,87421,1,8,0:0:0:0:
220,136,87505,1,8,0:0:0:0:
220,136,87589,1,0,0:0:0:0:
220,136,87758,1,8,0:0:0:0:
220,136,87926,1,0,0:0:0:0:
220,136,88011,1,0,0:0:0:0:
220,136,88095,1,8,0:0:0:0:
220,136,88263,1,0,0:0:0:0:
220,136,88432,1,8,0:0:0:0:
220,136,88516,1,8,0:0:0:0:
220,136,88601,1,8,0:0:0:0:
220,136,88769,1,0,0:0:0:0:
223,136,88853,1,0,0:0:0:0:
220,136,88938,1,0,0:0:0:0:
220,136,89106,1,8,0:0:0:0:
220,136,89275,1,0,0:0:0:0:
220,136,89443,1,8,0:0:0:0:
220,136,89612,1,0,0:0:0:0:
220,136,89696,1,0,0:0:0:0:
220,136,89780,1,8,0:0:0:0:
220,136,89949,1,0,0:0:0:0:
220,136,90033,1,0,0:0:0:0:
220,136,90117,1,0,0:0:0:0:
220,136,90286,1,0,0:0:0:0:
220,136,90454,1,8,0:0:0:0:
208,258,90623,1,12,0:0:0:0:
220,136,90960,1,0,0:0:0:0:
220,136,91129,1,8,0:0:0:0:
220,136,91297,1,8,0:0:0:0:
220,136,91466,1,0,0:0:0:0:
220,136,91550,1,0,0:0:0:0:
220,136,91634,1,0,0:0:0:0:
220,136,91803,1,8,0:0:0:0:
220,136,91887,1,0,0:0:0:0:
220,136,91971,1,0,0:0:0:0:
220,136,92056,1,8,0:0:0:0:
220,136,92140,1,0,0:0:0:0:
220,136,92477,1,8,0:0:0:0:
220,136,92646,1,0,0:0:0:0:
220,136,92730,1,0,0:0:0:0:
220,136,92814,1,0,0:0:0:0:
220,136,92983,1,0,0:0:0:0:
220,136,93151,1,8,0:0:0:0:
220,136,93320,1,8,0:0:0:0:
220,136,93404,1,8,0:0:0:0:
220,136,93488,1,0,0:0:0:0:
220,136,93825,1,8,0:0:0:0:
220,136,93994,1,8,0:0:0:0:
220,136,94078,1,8,0:0:0:0:
220,136,94162,1,8,0:0:0:0:
220,136,94331,1,0,0:0:0:0:
220,136,94499,1,8,0:0:0:0:
220,136,94668,1,8,0:0:0:0:
194,231,94837,1,0,0:0:0:0:
194,231,94921,1,0,0:0:0:0:
220,136,95005,1,0,0:0:0:0:
220,136,95089,1,0,0:0:0:0:
220,136,95174,1,8,0:0:0:0:
220,136,95342,1,0,0:0:0:0:
220,136,95426,1,0,0:0:0:0:
220,136,95511,1,8,0:0:0:0:
220,136,95595,1,8,0:0:0:0:
220,136,95679,1,0,0:0:0:0:
220,136,95848,1,8,0:0:0:0:
208,258,96016,1,0,0:0:0:0:
220,136,96185,1,8,0:0:0:0:
220,136,96353,1,0,0:0:0:0:
220,136,96522,1,8,0:0:0:0:
220,136,96606,1,0,0:0:0:0:
220,136,96690,1,0,0:0:0:0:
220,136,96775,1,8,0:0:0:0:
220,136,96859,1,0,0:0:0:0:
220,136,96943,1,8,0:0:0:0:
220,136,97028,1,8,0:0:0:0:
220,136,97112,1,0,0:0:0:0:
220,136,97196,1,8,0:0:0:0:
220,136,97280,1,0,0:0:0:0:
220,136,97365,1,0,0:0:0:0:
220,136,97449,1,8,0:0:0:0:
220,136,97533,5,0,0:0:0:0:
321,128,97870,1,8,0:0:0:0:
220,136,98039,1,8,0:0:0:0:
220,136,98123,1,0,0:0:0:0:
220,136,98207,1,8,0:0:0:0:
220,136,98376,1,0,0:0:0:0:
321,128,98544,1,8,0:0:0:0:
321,128,98881,1,0,0:0:0:0:
321,128,99050,1,0,0:0:0:0:
321,128,99219,1,8,0:0:0:0:
321,128,99387,1,0,0:0:0:0:
321,128,99471,1,0,0:0:0:0:
321,128,99556,1,8,0:0:0:0:
321,128,99640,1,8,0:0:0:0:
321,128,99724,1,0,0:0:0:0:
321,128,99893,1,8,0:0:0:0:
321,128,100061,1,0,0:0:0:0:
321,128,100146,1,0,0:0:0:0:
321,128,100230,1,0,0:0:0:0:
321,128,100567,1,8,0:0:0:0:
321,128,100735,1,8,0:0:0:0:
321,128,100820,1,8,0:0:0:0:
321,128,100904,1,0,0:0:0:0:
321,128,101072,1,0,0:0:0:0:
321,128,101241,1,8,0:0:0:0:
313,255,101410,1,4,0:0:0:0:
321,128,101747,1,0,0:0:0:0:
321,128,101915,1,8,0:0:0:0:
321,128,102084,1,8,0:0:0:0:
321,128,102168,1,0,0:0:0:0:
321,128,102252,1,8,0:0:0:0:
321,128,102421,1,0,0:0:0:0:
321,128,102589,1,8,0:0:0:0:
321,128,102674,1,0,0:0:0:0:
321,128,102842,1,8,0:0:0:0:
321,128,102926,1,0,0:0:0:0:
321,128,103095,1,0,0:0:0:0:
321,128,103263,1,8,0:0:0:0:
321,128,103432,1,8,0:0:0:0:
321,128,103516,1,8,0:0:0:0:
321,128,103601,1,0,0:0:0:0:
321,128,103769,1,0,0:0:0:0:
321,128,103938,1,8,0:0:0:0:
321,128,104106,1,8,0:0:0:0:
324,130,104275,1,0,0:0:0:0:
321,128,104443,1,8,0:0:0:0:
321,128,104528,1,0,0:0:0:0:
324,130,104612,1,8,0:0:0:0:
321,128,104696,1,0,0:0:0:0:
321,128,104780,1,8,0:0:0:0:
321,128,104949,1,0,0:0:0:0:
321,128,105117,1,0,0:0:0:0:
321,128,105202,1,0,0:0:0:0:
321,128,105286,1,8,0:0:0:0:
321,128,105454,1,8,0:0:0:0:
324,130,105623,1,0,0:0:0:0:
321,128,105960,1,8,0:0:0:0:
321,128,106044,1,8,0:0:0:0:
321,128,106129,1,0,0:0:0:0:
321,128,106297,1,0,0:0:0:0:
321,128,106466,1,0,0:0:0:0:
321,128,106550,1,0,0:0:0:0:
324,130,106634,1,8,0:0:0:0:
306,286,106803,1,12,0:0:0:0:
321,128,106971,1,0,0:0:0:0:
321,128,107140,1,8,0:0:0:0:
321,128,107308,1,8,0:0:0:0:
321,128,107477,1,0,0:0:0:0:
321,128,107561,1,0,0:0:0:0:
324,130,107646,1,0,0:0:0:0:
321,128,107730,1,8,0:0:0:0:
321,128,107814,1,0,0:0:0:0:
321,128,107898,1,0,0:0:0:0:
321,128,107983,1,8,0:0:0:0:
321,128,108067,1,8,0:0:0:0:
321,128,108151,1,0,0:0:0:0:
321,128,108235,1,8,0:0:0:0:
220,136,108320,5,0,0:0:0:0:
220,136,108488,1,0,0:0:0:0:
321,128,108657,1,8,0:0:0:0:
220,136,108825,1,0,0:0:0:0:
220,136,108910,1,8,0:0:0:0:
220,136,108994,1,0,0:0:0:0:
220,136,109162,1,0,0:0:0:0:
321,128,109247,1,0,0:0:0:0:
321,128,109331,1,8,0:0:0:0:
321,128,109499,1,8,0:0:0:0:
321,128,109668,1,0,0:0:0:0:
321,128,109837,1,8,0:0:0:0:
325,131,109921,1,0,0:0:0:0:
321,128,110005,1,8,0:0:0:0:
321,128,110174,1,8,0:0:0:0:
321,128,110342,1,0,0:0:0:0:
321,128,110426,1,0,0:0:0:0:
321,128,110511,1,0,0:0:0:0:
321,128,110679,1,8,0:0:0:0:
321,128,110848,1,8,0:0:0:0:
321,128,110932,1,8,0:0:0:0:
321,128,111016,1,0,0:0:0:0:
321,128,111353,1,8,0:0:0:0:
321,128,111522,1,8,0:0:0:0:
321,128,111606,1,8,0:0:0:0:
321,128,111690,1,0,0:0:0:0:
321,128,111859,1,0,0:0:0:0:
321,128,112028,1,8,0:0:0:0:
305,259,112196,1,4,0:0:0:0:
321,128,112365,1,8,0:0:0:0:
321,128,112533,1,0,0:0:0:0:
321,128,112702,1,8,0:0:0:0:
321,128,112870,1,0,0:0:0:0:
321,128,112954,1,8,0:0:0:0:
321,128,113039,1,0,0:0:0:0:
321,128,113207,1,0,0:0:0:0:
321,128,113376,1,8,0:0:0:0:
321,128,113460,1,8,0:0:0:0:
321,128,113629,1,8,0:0:0:0:
321,128,113713,1,0,0:0:0:0:
321,128,113881,1,0,0:0:0:0:
321,128,114050,1,8,0:0:0:0:
321,128,114134,1,8,0:0:0:0:
321,128,114219,1,8,0:0:0:0:
321,128,114387,1,0,0:0:0:0:
321,128,114556,1,0,0:0:0:0:
321,128,114640,1,0,0:0:0:0:
321,128,114724,1,8,0:0:0:0:
321,128,114893,1,8,0:0:0:0:
324,130,115061,1,0,0:0:0:0:
321,128,115230,1,0,0:0:0:0:
321,128,115314,1,0,0:0:0:0:
324,130,115398,1,8,0:0:0:0:
321,128,115483,1,8,0:0:0:0:
321,128,115567,1,8,0:0:0:0:
321,128,115735,1,0,0:0:0:0:
321,128,115904,1,0,0:0:0:0:
321,128,115988,1,0,0:0:0:0:
321,128,116072,1,8,0:0:0:0:
321,128,116241,1,8,0:0:0:0:
324,130,116410,1,0,0:0:0:0:
321,128,116578,1,0,0:0:0:0:
321,128,116747,1,8,0:0:0:0:
321,128,116831,1,8,0:0:0:0:
321,128,116915,1,0,0:0:0:0:
321,128,116999,1,0,0:0:0:0:
321,128,117084,1,8,0:0:0:0:
321,128,117252,1,0,0:0:0:0:
321,128,117337,1,0,0:0:0:0:
324,130,117421,1,8,0:0:0:0:
306,286,117589,5,4,0:0:0:0:
306,286,117758,1,4,0:0:0:0:
314,138,117926,1,8,0:0:0:0:
321,128,118095,1,0,0:0:0:0:
321,128,118179,1,0,0:0:0:0:
321,128,118263,1,0,0:0:0:0:
324,130,118432,1,8,0:0:0:0:
314,138,118516,1,8,0:0:0:0:
314,138,118601,1,8,0:0:0:0:
311,337,118769,1,12,0:0:0:0:
311,337,119106,5,4,0:0:0:0:
349,94,121129,1,0,0:0:0:0:
349,94,121466,1,0,0:0:0:0:
349,94,121634,1,8,0:0:0:0:
157,83,124162,1,0,0:0:0:0:
157,83,124331,1,0,0:0:0:0:
157,83,124499,1,8,0:0:0:0:
157,83,124837,1,0,0:0:0:0:
157,83,125005,1,8,0:0:0:0:
157,83,125679,1,0,0:0:0:0:
157,83,125848,1,8,0:0:0:0:
157,83,126185,1,0,0:0:0:0:
157,83,126522,1,0,0:0:0:0:
157,83,126859,1,0,0:0:0:0:
157,83,127196,1,8,0:0:0:0:
157,83,128207,1,0,0:0:0:0:
157,83,128376,1,8,0:0:0:0:
349,94,129219,5,0,0:0:0:0:
349,94,129556,1,0,0:0:0:0:
349,94,129724,1,8,0:0:0:0:
349,94,129893,1,0,0:0:0:0:
310,110,131915,1,0,0:0:0:0:
157,83,132252,1,8,0:0:0:0:
157,83,132421,1,8,0:0:0:0:
157,83,132589,1,0,0:0:0:0:
157,83,134949,1,0,0:0:0:0:
157,83,135117,1,0,0:0:0:0:
157,83,135286,1,8,0:0:0:0:
157,83,135623,1,0,0:0:0:0:
157,83,135792,1,8,0:0:0:0:
157,83,136466,1,8,0:0:0:0:
157,83,136634,1,8,0:0:0:0:
156,89,136971,1,0,0:0:0:0:
157,83,137308,1,8,0:0:0:0:
157,83,137646,1,0,0:0:0:0:
157,83,137983,1,8,0:0:0:0:
157,83,138994,1,8,0:0:0:0:
157,83,139162,1,8,0:0:0:0:
157,83,139331,1,0,0:0:0:0:
157,83,139499,1,0,0:0:0:0:
157,83,139668,1,8,0:0:0:0:
157,83,139837,1,0,0:0:0:0:
157,83,140005,1,8,0:0:0:0:
157,83,140174,1,0,0:0:0:0:
157,83,140342,1,8,0:0:0:0:
157,83,140511,1,8,0:0:0:0:
157,83,140595,1,8,0:0:0:0:
157,83,140679,5,0,0:0:0:0:
157,83,141016,1,0,0:0:0:0:
157,83,141353,1,8,0:0:0:0:
157,83,141690,1,8,0:0:0:0:
157,83,141859,1,0,0:0:0:0:
157,83,141943,1,0,0:0:0:0:
157,83,142028,1,0,0:0:0:0:
157,83,142365,1,0,0:0:0:0:
157,83,142702,1,0,0:0:0:0:
157,83,143039,1,0,0:0:0:0:
157,83,143207,1,0,0:0:0:0:
157,83,143292,1,0,0:0:0:0:
157,83,143376,1,8,0:0:0:0:
157,83,143713,1,8,0:0:0:0:
157,83,144050,1,0,0:0:0:0:
157,83,144387,1,8,0:0:0:0:
157,83,144556,1,0,0:0:0:0:
157,83,144640,1,0,0:0:0:0:
157,83,144724,1,0,0:0:0:0:
157,83,144893,1,0,0:0:0:0:
157,83,145061,1,0,0:0:0:0:
157,83,145398,1,8,0:0:0:0:
157,83,145483,1,0,0:0:0:0:
157,83,145651,1,0,0:0:0:0:
157,83,145735,1,8,0:0:0:0:
157,83,145904,1,0,0:0:0:0:
157,83,146072,5,8,0:0:0:0:
157,83,146410,1,0,0:0:0:0:
157,83,146747,1,8,0:0:0:0:
157,83,146915,1,0,0:0:0:0:
157,83,147084,1,8,0:0:0:0:
157,83,147252,1,0,0:0:0:0:
157,83,147421,1,0,0:0:0:0:
157,83,147758,1,8,0:0:0:0:
157,83,148095,1,8,0:0:0:0:
157,83,148432,1,0,0:0:0:0:
157,83,148516,1,0,0:0:0:0:
157,83,148601,1,0,0:0:0:0:
157,83,148769,1,8,0:0:0:0:
157,83,149106,1,0,0:0:0:0:
157,83,149275,1,8,0:0:0:0:
157,83,149359,1,8,0:0:0:0:
157,83,149443,1,8,0:0:0:0:
157,83,149612,1,0,0:0:0:0:
157,83,149780,1,8,0:0:0:0:
157,83,149949,1,8,0:0:0:0:
157,83,150117,1,0,0:0:0:0:
157,83,150286,1,0,0:0:0:0:
157,83,150454,1,8,0:0:0:0:
157,83,150792,1,0,0:0:0:0:
157,83,150960,1,0,0:0:0:0:
157,83,151129,1,8,0:0:0:0:
157,83,151297,1,8,0:0:0:0:
157,83,151466,5,0,0:0:0:0:
157,83,151803,1,0,0:0:0:0:
157,83,152140,1,8,0:0:0:0:
157,83,152308,1,8,0:0:0:0:
157,83,152477,1,0,0:0:0:0:
157,83,152646,1,0,0:0:0:0:
157,83,152730,1,0,0:0:0:0:
157,83,152814,1,0,0:0:0:0:
157,83,153151,1,8,0:0:0:0:
157,83,153488,1,8,0:0:0:0:
157,83,153825,1,0,0:0:0:0:
157,83,153994,1,0,0:0:0:0:
157,83,154078,1,0,0:0:0:0:
157,83,154162,1,8,0:0:0:0:
157,83,154499,1,8,0:0:0:0:
157,83,154668,1,8,0:0:0:0:
157,83,154837,1,0,0:0:0:0:
157,83,155174,1,8,0:0:0:0:
157,83,155258,1,8,0:0:0:0:
157,83,155342,1,0,0:0:0:0:
157,83,155426,1,0,0:0:0:0:
157,83,155511,1,0,0:0:0:0:
157,83,155679,1,0,0:0:0:0:
157,83,155848,1,8,0:0:0:0:
157,83,156016,1,8,0:0:0:0:
157,83,156185,1,0,0:0:0:0:
157,83,156353,1,0,0:0:0:0:
157,83,156438,1,0,0:0:0:0:
157,83,156522,1,8,0:0:0:0:
157,83,156690,1,0,0:0:0:0:
104,285,156859,5,4,0:0:0:0:
157,83,157196,1,8,0:0:0:0:
157,83,157702,1,0,0:0:0:0:
157,83,157870,1,8,0:0:0:0:
157,83,158039,1,0,0:0:0:0:
189,280,158207,1,4,0:0:0:0:
157,83,158544,1,8,0:0:0:0:
157,83,158881,1,0,0:0:0:0:
157,83,159050,1,0,0:0:0:0:
157,83,159219,1,8,0:0:0:0:
157,83,159387,1,8,0:0:0:0:
139,274,159556,1,4,0:0:0:0:
157,83,159893,1,8,0:0:0:0:
157,83,160230,1,0,0:0:0:0:
157,83,160398,1,0,0:0:0:0:
157,83,160567,1,8,0:0:0:0:
157,83,160735,1,8,0:0:0:0:
157,83,160820,1,8,0:0:0:0:
157,83,160904,1,0,0:0:0:0:
157,83,161241,1,8,0:0:0:0:
157,83,161410,1,0,0:0:0:0:
157,83,161578,1,0,0:0:0:0:
157,83,161747,1,0,0:0:0:0:
157,83,161915,1,8,0:0:0:0:
157,83,162084,1,0,0:0:0:0:
157,83,162168,1,8,0:0:0:0:
157,83,162252,5,0,0:0:0:0:
157,83,162589,1,8,0:0:0:0:
157,83,162758,1,0,0:0:0:0:
157,83,162926,1,8,0:0:0:0:
157,83,163095,1,0,0:0:0:0:
157,83,163263,1,8,0:0:0:0:
157,83,163432,1,0,0:0:0:0:
157,83,163601,1,8,0:0:0:0:
157,83,163769,1,0,0:0:0:0:
157,83,163853,1,0,0:0:0:0:
157,83,163938,1,8,0:0:0:0:
157,83,164106,1,0,0:0:0:0:
157,83,164275,1,8,0:0:0:0:
157,83,164443,1,8,0:0:0:0:
157,83,164528,1,0,0:0:0:0:
157,83,164612,1,8,0:0:0:0:
157,83,164780,1,8,0:0:0:0:
198,320,164949,5,4,0:0:0:0:
154,92,165623,1,8,0:0:0:0:
416,102,166297,1,0,0:0:0:0:
140,326,166971,1,12,0:0:0:0:
163,90,167308,1,0,0:0:0:0:
163,90,167477,1,8,0:0:0:0:
163,90,167533,1,8,0:0:0:0:
163,90,167589,1,8,0:0:0:0:
163,90,167646,5,0,0:0:0:0:
163,90,167814,1,0,0:0:0:0:
163,90,167983,1,0,0:0:0:0:
340,75,168151,1,8,0:0:0:0:
340,75,168320,1,8,0:0:0:0:
340,75,168488,1,0,0:0:0:0:
380,115,168657,1,8,0:0:0:0:
380,115,168741,1,0,0:0:0:0:
380,115,168825,1,8,0:0:0:0:
186,75,168994,1,0,0:0:0:0:
186,75,169162,1,0,0:0:0:0:
186,75,169331,1,8,0:0:0:0:
330,92,169499,1,0,0:0:0:0:
330,92,169584,1,0,0:0:0:0:
330,92,169668,1,8,0:0:0:0:
87,141,170005,1,8,0:0:0:0:
87,141,170174,1,8,0:0:0:0:
394,90,170342,1,0,0:0:0:0:
394,90,170679,1,0,0:0:0:0:
146,106,171016,1,8,0:0:0:0:
146,106,171185,1,0,0:0:0:0:
333,78,171353,1,8,0:0:0:0:
333,78,171438,1,0,0:0:0:0:
333,78,171522,1,8,0:0:0:0:
333,78,171606,1,8,0:0:0:0:
333,78,171690,1,0,0:0:0:0:
196,80,172028,1,0,0:0:0:0:
198,107,172365,1,8,0:0:0:0:
198,107,172533,1,0,0:0:0:0:
198,107,172617,1,0,0:0:0:0:
198,107,172702,1,8,0:0:0:0:
198,107,172786,1,0,0:0:0:0:
198,107,172870,1,8,0:0:0:0:
168,307,173039,1,4,0:0:0:0:
198,107,173207,1,0,0:0:0:0:
194,93,173376,1,0,0:0:0:0:
307,84,173544,1,8,0:0:0:0:
307,84,173629,1,8,0:0:0:0:
307,84,173713,1,0,0:0:0:0:
307,84,173881,1,0,0:0:0:0:
307,84,174050,1,8,0:0:0:0:
307,84,174134,1,8,0:0:0:0:
307,84,174219,1,8,0:0:0:0:
307,84,174387,1,0,0:0:0:0:
307,84,174556,1,0,0:0:0:0:
307,84,174640,1,0,0:0:0:0:
307,84,174724,1,0,0:0:0:0:
199,70,174893,1,0,0:0:0:0:
358,152,175061,1,8,0:0:0:0:
130,140,175398,1,8,0:0:0:0:
130,140,175483,1,0,0:0:0:0:
130,140,175567,1,8,0:0:0:0:
179,307,175735,5,12,0:0:0:0:
378,80,177084,1,0,0:0:0:0:
378,80,177421,1,0,0:0:0:0:
213,300,177758,1,12,0:0:0:0:
180,95,178095,1,8,0:0:0:0:
322,318,178432,5,4,0:0:0:0:
347,115,178601,1,8,0:0:0:0:
347,115,178685,1,0,0:0:0:0:
347,115,178769,1,0,0:0:0:0:
216,49,178938,1,0,0:0:0:0:
142,140,179106,1,8,0:0:0:0:
142,140,179275,1,8,0:0:0:0:
81,77,179443,1,0,0:0:0:0:
81,77,179528,1,8,0:0:0:0:
81,77,179612,1,8,0:0:0:0:
418,319,179780,1,4,0:0:0:0:
424,298,180033,1,4,0:0:0:0:
435,275,180286,1,4,0:0:0:0:
218,109,180454,1,8,0:0:0:0:
437,67,180707,1,0,0:0:0:0:
437,67,180792,1,8,0:0:0:0:
437,67,180960,1,8,0:0:0:0:
219,50,181129,1,0,0:0:0:0:
146,92,181466,1,0,0:0:0:0:
146,92,181634,1,0,0:0:0:0:
138,91,181719,1,0,0:0:0:0:
146,92,181803,1,8,0:0:0:0:
390,65,181971,1,0,0:0:0:0:
216,42,182140,1,8,0:0:0:0:
216,42,182308,1,8,0:0:0:0:
216,42,182393,1,8,0:0:0:0:
321,144,182477,1,0,0:0:0:0:
129,138,182814,1,0,0:0:0:0:
198,107,183151,1,8,0:0:0:0:
198,107,183320,1,0,0:0:0:0:
198,107,183404,1,0,0:0:0:0:
198,107,183489,1,8,0:0:0:0:
198,107,183573,1,0,0:0:0:0:
198,107,183657,1,8,0:0:0:0:
157,260,183825,1,4,0:0:0:0:
198,107,183994,1,0,0:0:0:0:
373,78,184162,1,8,0:0:0:0:
373,78,184331,1,0,0:0:0:0:
161,52,184499,1,8,0:0:0:0:
161,52,184668,1,8,0:0:0:0:
319,163,184837,1,8,0:0:0:0:
319,163,184921,1,8,0:0:0:0:
319,163,185005,1,8,0:0:0:0:
159,113,185174,1,0,0:0:0:0:
172,110,185342,1,0,0:0:0:0:
175,104,185426,1,0,0:0:0:0:
159,113,185511,1,8,0:0:0:0:
131,55,185679,1,0,0:0:0:0:
266,66,185848,1,8,0:0:0:0:
232,121,186016,1,0,0:0:0:0:
225,118,186101,1,0,0:0:0:0:
129,101,186185,1,8,0:0:0:0:
129,101,186269,1,8,0:0:0:0:
129,101,186353,1,8,0:0:0:0:
171,307,186522,5,4,0:0:0:0:
406,121,186859,1,8,0:0:0:0:
207,60,187028,1,0,0:0:0:0:
195,61,187365,1,0,0:0:0:0:
165,148,187533,1,8,0:0:0:0:
201,152,187702,1,8,0:0:0:0:
201,152,187870,5,0,0:0:0:0:
212,146,188039,1,0,0:0:0:0:
240,25,188207,1,8,0:0:0:0:
163,89,188376,1,0,0:0:0:0:
190,79,188460,1,0,0:0:0:0:
190,79,188544,1,8,0:0:0:0:
367,114,188713,1,0,0:0:0:0:
112,90,188881,1,12,0:0:0:0:
112,90,189050,1,8,0:0:0:0:
112,90,189134,1,8,0:0:0:0:
405,93,189219,5,0,0:0:0:0:
292,136,189556,1,8,0:0:0:0:
292,136,189724,1,0,0:0:0:0:
292,136,189808,1,0,0:0:0:0:
292,136,189893,1,8,0:0:0:0:
292,136,189977,1,8,0:0:0:0:
292,136,190061,1,0,0:0:0:0:
292,136,190230,1,8,0:0:0:0:
292,136,190398,1,0,0:0:0:0:
292,136,190483,1,0,0:0:0:0:
292,136,190567,1,8,0:0:0:0:
292,136,190735,1,0,0:0:0:0:
292,136,190904,1,8,0:0:0:0:
292,136,190988,1,8,0:0:0:0:
292,136,191072,1,0,0:0:0:0:
292,136,191241,1,8,0:0:0:0:
292,136,191410,1,0,0:0:0:0:
292,136,191578,1,8,0:0:0:0:
292,136,191747,1,8,0:0:0:0:
292,136,191831,1,8,0:0:0:0:
292,136,191915,1,0,0:0:0:0:
292,136,192084,1,0,0:0:0:0:
292,136,192168,1,0,0:0:0:0:
292,136,192252,1,8,0:0:0:0:
292,136,192421,1,0,0:0:0:0:
292,136,192505,1,8,0:0:0:0:
292,136,192589,1,8,0:0:0:0:
292,136,192674,1,0,0:0:0:0:
292,136,192758,1,0,0:0:0:0:
292,136,192926,1,8,0:0:0:0:
304,258,193095,1,12,0:0:0:0:
292,136,193432,1,0,0:0:0:0:
292,136,193601,1,8,0:0:0:0:
292,136,193769,1,8,0:0:0:0:
292,136,193853,1,0,0:0:0:0:
292,136,193938,1,8,0:0:0:0:
292,136,194022,1,8,0:0:0:0:
292,136,194106,1,0,0:0:0:0:
292,136,194275,1,8,0:0:0:0:
292,136,194359,1,0,0:0:0:0:
292,136,194528,1,8,0:0:0:0:
292,136,194612,1,0,0:0:0:0:
292,136,194949,1,8,0:0:0:0:
292,136,195117,1,0,0:0:0:0:
292,136,195202,1,0,0:0:0:0:
292,136,195286,1,8,0:0:0:0:
292,136,195370,1,8,0:0:0:0:
292,136,195454,1,0,0:0:0:0:
292,136,195623,1,8,0:0:0:0:
292,136,195792,1,0,0:0:0:0:
292,136,195876,1,0,0:0:0:0:
292,136,195960,1,8,0:0:0:0:
292,136,196297,1,8,0:0:0:0:
292,136,196466,1,8,0:0:0:0:
292,136,196550,1,8,0:0:0:0:
292,136,196634,1,0,0:0:0:0:
292,136,196719,1,8,0:0:0:0:
292,136,196803,1,0,0:0:0:0:
292,136,196971,1,8,0:0:0:0:
292,136,197140,1,0,0:0:0:0:
292,136,197224,1,0,0:0:0:0:
292,136,197308,1,8,0:0:0:0:
292,136,197393,1,8,0:0:0:0:
292,136,197477,1,0,0:0:0:0:
292,136,197646,1,8,0:0:0:0:
292,136,197814,1,8,0:0:0:0:
292,136,197898,1,8,0:0:0:0:
292,136,197983,1,0,0:0:0:0:
292,136,198067,1,8,0:0:0:0:
292,136,198151,1,0,0:0:0:0:
292,136,198320,1,8,0:0:0:0:
304,258,198488,1,4,0:0:0:0:
292,136,198825,1,8,0:0:0:0:
292,136,198994,1,8,0:0:0:0:
292,136,199162,1,0,0:0:0:0:
292,136,199331,1,0,0:0:0:0:
292,136,199415,1,8,0:0:0:0:
292,136,199499,1,8,0:0:0:0:
292,136,199584,1,0,0:0:0:0:
292,136,199668,1,8,0:0:0:0:
292,136,199752,1,8,0:0:0:0:
292,136,199837,1,0,0:0:0:0:
292,136,199921,1,8,0:0:0:0:
292,136,200005,5,0,0:0:0:0:
292,136,200342,1,8,0:0:0:0:
292,136,200511,1,0,0:0:0:0:
292,136,200595,1,8,0:0:0:0:
292,136,200679,1,8,0:0:0:0:
292,136,200763,1,0,0:0:0:0:
292,136,200848,1,8,0:0:0:0:
292,136,201016,1,8,0:0:0:0:
292,136,201185,1,0,0:0:0:0:
292,136,201269,1,0,0:0:0:0:
292,136,201353,1,0,0:0:0:0:
292,136,201522,1,0,0:0:0:0:
292,136,201690,1,8,0:0:0:0:
292,136,201775,1,8,0:0:0:0:
292,136,201859,1,8,0:0:0:0:
292,136,202028,1,8,0:0:0:0:
289,136,202112,1,8,0:0:0:0:
292,136,202196,1,0,0:0:0:0:
292,136,202365,1,8,0:0:0:0:
292,136,202533,1,0,0:0:0:0:
292,136,202702,1,8,0:0:0:0:
292,136,202870,1,0,0:0:0:0:
292,136,202954,1,0,0:0:0:0:
292,136,203039,1,8,0:0:0:0:
292,136,203207,1,0,0:0:0:0:
292,136,203292,1,8,0:0:0:0:
292,136,203376,1,0,0:0:0:0:
292,136,203544,1,0,0:0:0:0:
292,136,203713,1,8,0:0:0:0:
304,258,203881,1,12,0:0:0:0:
292,136,204219,1,0,0:0:0:0:
292,136,204387,1,8,0:0:0:0:
292,136,204556,1,8,0:0:0:0:
292,136,204724,1,0,0:0:0:0:
292,136,204808,1,0,0:0:0:0:
292,136,204893,1,0,0:0:0:0:
292,136,204977,1,0,0:0:0:0:
292,136,205061,1,8,0:0:0:0:
292,136,205146,1,0,0:0:0:0:
292,136,205230,1,0,0:0:0:0:
292,136,205314,1,8,0:0:0:0:
292,136,205398,1,0,0:0:0:0:
292,136,205735,1,8,0:0:0:0:
292,136,205904,1,8,0:0:0:0:
292,136,205988,1,8,0:0:0:0:
292,136,206072,1,0,0:0:0:0:
292,136,206241,1,0,0:0:0:0:
292,136,206410,1,8,0:0:0:0:
292,136,206578,1,0,0:0:0:0:
292,136,206662,1,0,0:0:0:0:
292,136,206747,1,8,0:0:0:0:
292,136,206915,1,0,0:0:0:0:
292,136,206999,1,0,0:0:0:0:
292,136,207084,1,8,0:0:0:0:
292,136,207168,1,8,0:0:0:0:
292,136,207252,1,8,0:0:0:0:
292,136,207421,1,8,0:0:0:0:
292,136,207589,1,0,0:0:0:0:
292,136,207674,1,0,0:0:0:0:
292,136,207758,1,8,0:0:0:0:
292,136,207926,1,0,0:0:0:0:
318,231,208095,1,8,0:0:0:0:
318,231,208179,1,8,0:0:0:0:
292,136,208263,1,0,0:0:0:0:
292,136,208348,1,0,0:0:0:0:
292,136,208432,1,8,0:0:0:0:
292,136,208601,1,8,0:0:0:0:
292,136,208685,1,0,0:0:0:0:
292,136,208769,1,0,0:0:0:0:
292,136,208853,1,8,0:0:0:0:
292,136,208938,1,0,0:0:0:0:
292,136,209106,1,8,0:0:0:0:
304,258,209275,1,0,0:0:0:0:
292,136,209359,1,0,0:0:0:0:
292,136,209443,1,8,0:0:0:0:
292,136,209612,1,0,0:0:0:0:
292,136,209780,1,8,0:0:0:0:
292,136,209865,1,8,0:0:0:0:
292,136,209949,1,8,0:0:0:0:
292,136,210033,1,8,0:0:0:0:
292,136,210117,1,0,0:0:0:0:
292,136,210202,1,8,0:0:0:0:
292,136,210286,1,0,0:0:0:0:
292,136,210370,1,0,0:0:0:0:
292,136,210454,1,8,0:0:0:0:
292,136,210539,1,0,0:0:0:0:
292,136,210623,1,0,0:0:0:0:
292,136,210707,1,8,0:0:0:0:
292,136,210792,5,0,0:0:0:0:
359,68,211129,1,8,0:0:0:0:
460,76,211297,1,0,0:0:0:0:
460,76,211381,1,8,0:0:0:0:
460,76,211466,1,0,0:0:0:0:
460,76,211634,1,0,0:0:0:0:
359,68,211803,1,8,0:0:0:0:
347,77,211971,1,8,0:0:0:0:
359,68,212140,1,0,0:0:0:0:
359,68,212308,1,0,0:0:0:0:
359,68,212393,1,0,0:0:0:0:
359,68,212477,1,8,0:0:0:0:
359,68,212646,1,0,0:0:0:0:
359,68,212730,1,0,0:0:0:0:
359,68,212814,1,8,0:0:0:0:
359,68,212898,1,8,0:0:0:0:
359,68,212983,1,0,0:0:0:0:
359,68,213151,1,8,0:0:0:0:
359,68,213320,1,8,0:0:0:0:
359,68,213488,1,0,0:0:0:0:
359,68,213825,1,8,0:0:0:0:
359,68,213994,1,0,0:0:0:0:
359,68,214078,1,0,0:0:0:0:
359,68,214162,1,0,0:0:0:0:
359,68,214331,1,0,0:0:0:0:
359,68,214499,1,8,0:0:0:0:
335,261,214668,1,4,0:0:0:0:
359,68,215005,1,0,0:0:0:0:
359,68,215174,1,8,0:0:0:0:
359,68,215342,1,8,0:0:0:0:
359,68,215426,1,8,0:0:0:0:
359,68,215511,1,8,0:0:0:0:
359,68,215679,1,0,0:0:0:0:
359,68,215848,1,8,0:0:0:0:
359,68,215932,1,8,0:0:0:0:
359,68,216101,1,8,0:0:0:0:
359,68,216185,1,0,0:0:0:0:
359,68,216353,1,0,0:0:0:0:
359,68,216522,1,8,0:0:0:0:
359,68,216606,1,8,0:0:0:0:
359,68,216690,1,0,0:0:0:0:
359,68,216775,1,0,0:0:0:0:
359,68,216859,1,8,0:0:0:0:
359,68,217028,1,0,0:0:0:0:
359,68,217196,1,8,0:0:0:0:
359,68,217365,1,8,0:0:0:0:
356,70,217533,1,0,0:0:0:0:
359,68,217702,1,8,0:0:0:0:
359,68,217786,1,0,0:0:0:0:
356,70,217870,1,8,0:0:0:0:
359,68,217954,1,8,0:0:0:0:
359,68,218039,1,0,0:0:0:0:
359,68,218207,1,0,0:0:0:0:
359,68,218376,1,8,0:0:0:0:
359,68,218460,1,8,0:0:0:0:
359,68,218544,1,8,0:0:0:0:
356,70,218881,1,0,0:0:0:0:
359,68,219050,1,0,0:0:0:0:
359,68,219219,1,8,0:0:0:0:
359,68,219387,1,0,0:0:0:0:
366,66,219471,1,0,0:0:0:0:
359,68,219556,1,0,0:0:0:0:
359,68,219724,1,8,0:0:0:0:
359,68,219808,1,8,0:0:0:0:
356,70,219893,1,8,0:0:0:0:
374,226,220061,1,12,0:0:0:0:
359,68,220398,1,8,0:0:0:0:
359,68,220567,1,8,0:0:0:0:
371,76,220735,1,0,0:0:0:0:
359,68,220820,1,0,0:0:0:0:
356,70,220904,1,0,0:0:0:0:
359,68,220988,1,8,0:0:0:0:
359,68,221072,1,0,0:0:0:0:
359,68,221157,1,0,0:0:0:0:
359,68,221241,1,8,0:0:0:0:
359,68,221325,1,8,0:0:0:0:
359,68,221410,1,0,0:0:0:0:
359,68,221494,1,8,0:0:0:0:
460,76,221578,5,0,0:0:0:0:
460,76,221747,1,0,0:0:0:0:
359,68,221915,1,8,0:0:0:0:
460,76,222084,1,8,0:0:0:0:
460,76,222168,1,0,0:0:0:0:
460,76,222252,1,8,0:0:0:0:
460,76,222421,1,0,0:0:0:0:
359,68,222589,1,8,0:0:0:0:
359,68,222758,1,0,0:0:0:0:
359,68,222842,1,0,0:0:0:0:
359,68,222926,1,8,0:0:0:0:
359,68,223095,1,0,0:0:0:0:
359,68,223263,1,8,0:0:0:0:
359,68,223432,1,0,0:0:0:0:
359,68,223601,1,0,0:0:0:0:
359,68,223685,1,0,0:0:0:0:
359,68,223769,1,0,0:0:0:0:
359,68,223938,1,8,0:0:0:0:
359,68,224106,1,8,0:0:0:0:
359,68,224190,1,8,0:0:0:0:
359,68,224275,1,0,0:0:0:0:
359,68,224612,1,8,0:0:0:0:
359,68,224780,1,0,0:0:0:0:
359,68,224865,1,0,0:0:0:0:
359,68,224949,1,8,0:0:0:0:
359,68,225117,1,0,0:0:0:0:
359,68,225286,1,8,0:0:0:0:
375,199,225454,1,4,0:0:0:0:
359,68,225623,1,8,0:0:0:0:
359,68,225792,1,0,0:0:0:0:
359,68,225960,1,8,0:0:0:0:
359,68,226129,1,0,0:0:0:0:
359,68,226213,1,0,0:0:0:0:
359,68,226297,1,0,0:0:0:0:
359,68,226466,1,0,0:0:0:0:
359,68,226634,1,8,0:0:0:0:
359,68,226719,1,8,0:0:0:0:
359,68,226887,1,8,0:0:0:0:
359,68,226971,1,0,0:0:0:0:
359,68,227140,1,0,0:0:0:0:
359,68,227308,1,8,0:0:0:0:
359,68,227393,1,0,0:0:0:0:
359,68,227477,1,8,0:0:0:0:
359,68,227646,1,0,0:0:0:0:
359,68,227814,1,0,0:0:0:0:
359,68,227898,1,0,0:0:0:0:
359,68,227983,1,8,0:0:0:0:
359,68,228151,1,8,0:0:0:0:
356,70,228320,1,0,0:0:0:0:
359,68,228488,1,0,0:0:0:0:
359,68,228572,1,0,0:0:0:0:
356,70,228657,1,8,0:0:0:0:
359,68,228741,1,8,0:0:0:0:
359,68,228825,1,0,0:0:0:0:
359,68,228994,1,8,0:0:0:0:
359,68,229162,1,0,0:0:0:0:
359,68,229247,1,0,0:0:0:0:
359,68,229331,1,8,0:0:0:0:
359,68,229499,1,8,0:0:0:0:
356,70,229668,1,0,0:0:0:0:
359,68,229837,1,0,0:0:0:0:
359,68,230005,1,8,0:0:0:0:
359,68,230089,1,8,0:0:0:0:
359,68,230174,1,0,0:0:0:0:
359,68,230258,1,0,0:0:0:0:
359,68,230342,1,8,0:0:0:0:
359,68,230511,1,0,0:0:0:0:
359,68,230595,1,0,0:0:0:0:
356,70,230679,1,8,0:0:0:0:
357,310,230848,5,12,0:0:0:0:
240,102,231522,5,8,0:0:0:0:
240,102,231690,1,0,0:0:0:0:
227,95,231859,1,0,0:0:0:0:
240,102,232028,1,8,0:0:0:0:
184,340,232365,5,4,0:0:0:0:
328,94,232702,1,8,0:0:0:0:
287,61,232870,1,0,0:0:0:0:
287,61,232954,1,0,0:0:0:0:
287,61,233039,1,0,0:0:0:0:
278,66,233207,1,0,0:0:0:0:
267,66,233376,1,8,0:0:0:0:
323,98,233713,1,0,0:0:0:0:
287,61,233881,1,0,0:0:0:0:
328,94,234050,1,8,0:0:0:0:
287,61,234219,1,0,0:0:0:0:
287,61,234303,1,0,0:0:0:0:
287,61,234471,1,0,0:0:0:0:
278,66,234556,1,0,0:0:0:0:
267,66,234724,1,8,0:0:0:0:
315,108,235061,5,0,0:0:0:0:
328,94,235398,1,8,0:0:0:0:
287,61,235567,1,0,0:0:0:0:
287,61,235651,1,0,0:0:0:0:
267,66,235735,1,0,0:0:0:0:
287,61,235820,1,0,0:0:0:0:
278,66,235904,1,0,0:0:0:0:
267,66,236072,1,8,0:0:0:0:
267,66,236241,1,0,0:0:0:0:
376,63,236578,1,0,0:0:0:0:
371,53,236747,1,8,0:0:0:0:
303,109,236999,1,0,0:0:0:0:
303,109,237084,1,0,0:0:0:0:
388,120,237252,1,0,0:0:0:0:
296,33,237421,1,8,0:0:0:0:
321,98,237674,1,8,0:0:0:0:
321,98,237758,1,0,0:0:0:0:
339,88,238095,1,8,0:0:0:0:
329,84,238263,1,0,0:0:0:0:
324,82,238348,1,0,0:0:0:0:
324,82,238432,1,0,0:0:0:0:
313,81,238601,1,0,0:0:0:0:
311,70,238769,1,8,0:0:0:0:
324,82,238938,1,8,0:0:0:0:
311,70,239106,1,0,0:0:0:0:
331,67,239443,1,8,0:0:0:0:
334,76,239612,1,0,0:0:0:0:
335,59,239949,1,0,0:0:0:0:
331,67,240117,1,8,0:0:0:0:
340,61,240286,1,0,0:0:0:0:
344,59,240370,1,0,0:0:0:0:
349,57,240454,1,0,0:0:0:0:
333,71,240792,1,8,0:0:0:0:
418,114,240960,1,0,0:0:0:0:
418,114,241044,1,0,0:0:0:0:
418,114,241129,1,0,0:0:0:0:
418,114,241213,1,0,0:0:0:0:
422,104,241297,1,0,0:0:0:0:
460,15,241466,1,8,0:0:0:0:
437,92,241634,1,0,0:0:0:0:
406,84,242140,1,8,0:0:0:0:
396,80,242308,1,0,0:0:0:0:
391,77,242393,1,0,0:0:0:0:
381,72,242477,1,0,0:0:0:0:
376,69,242646,1,0,0:0:0:0:
365,68,242814,1,8,0:0:0:0:
359,66,242983,1,8,0:0:0:0:
353,64,243067,1,8,0:0:0:0:
311,94,243151,5,0,0:0:0:0:
328,94,243488,1,8,0:0:0:0:
287,61,243657,1,0,0:0:0:0:
287,61,243741,1,0,0:0:0:0:
287,61,243825,1,0,0:0:0:0:
278,66,243994,1,8,0:0:0:0:
267,66,244162,1,8,0:0:0:0:
323,98,244499,1,0,0:0:0:0:
287,61,244668,1,0,0:0:0:0:
328,94,244837,1,8,0:0:0:0:
287,61,245005,1,0,0:0:0:0:
278,66,245342,1,0,0:0:0:0:
267,66,245511,1,8,0:0:0:0:
256,64,245679,1,0,0:0:0:0:
315,108,245848,1,0,0:0:0:0:
328,94,246185,1,8,0:0:0:0:
287,61,246353,1,0,0:0:0:0:
288,64,246438,1,0,0:0:0:0:
267,66,246522,1,8,0:0:0:0:
278,66,246690,1,0,0:0:0:0:
267,66,246859,1,8,0:0:0:0:
267,66,247028,1,0,0:0:0:0:
376,63,247365,1,0,0:0:0:0:
371,53,247533,1,8,0:0:0:0:
303,109,247870,1,0,0:0:0:0:
388,120,248039,1,0,0:0:0:0:
296,33,248207,1,8,0:0:0:0:
289,24,248376,1,8,0:0:0:0:
321,98,248460,1,8,0:0:0:0:
321,98,248544,1,0,0:0:0:0:
339,88,248881,1,8,0:0:0:0:
329,84,249050,1,0,0:0:0:0:
324,82,249134,1,0,0:0:0:0:
324,82,249219,1,0,0:0:0:0:
313,81,249387,1,0,0:0:0:0:
311,70,249556,1,8,0:0:0:0:
324,82,249724,1,8,0:0:0:0:
311,70,249893,1,0,0:0:0:0:
331,67,250230,1,8,0:0:0:0:
334,76,250398,1,0,0:0:0:0:
335,59,250567,1,8,0:0:0:0:
335,59,250735,1,0,0:0:0:0:
331,67,250904,1,8,0:0:0:0:
349,57,251241,1,0,0:0:0:0:
342,47,251410,1,0,0:0:0:0:
333,71,251578,1,8,0:0:0:0:
418,114,251747,1,0,0:0:0:0:
422,104,252084,1,0,0:0:0:0:
460,15,252252,1,8,0:0:0:0:
437,92,252421,1,0,0:0:0:0:
431,82,252589,1,8,0:0:0:0:
406,84,252758,1,0,0:0:0:0:
406,84,252926,1,8,0:0:0:0:
406,84,253095,1,0,0:0:0:0:
381,68,253263,1,8,0:0:0:0:
381,68,253348,1,8,0:0:0:0:
376,69,253432,1,8,0:0:0:0:
365,68,253601,1,8,0:0:0:0:
359,66,253769,1,8,0:0:0:0:
353,64,253853,1,8,0:0:0:0:
347,63,253938,5,0,0:0:0:0:
381,68,254275,1,8,0:0:0:0:
376,69,254443,1,0,0:0:0:0:
384,64,254528,1,0,0:0:0:0:
365,68,254612,1,0,0:0:0:0:
384,64,254949,1,8,0:0:0:0:
384,96,255286,1,0,0:0:0:0:
384,96,255623,1,8,0:0:0:0:
384,96,255792,1,8,0:0:0:0:
384,96,255876,1,8,0:0:0:0:
384,96,255960,1,0,0:0:0:0:
384,96,256297,1,8,0:0:0:0:
384,96,256466,1,8,0:0:0:0:
384,96,256634,1,0,0:0:0:0:
384,96,256971,1,8,0:0:0:0:
384,96,257140,1,0,0:0:0:0:
384,96,257224,1,0,0:0:0:0:
384,96,257308,1,0,0:0:0:0:
384,96,257646,1,8,0:0:0:0:
384,96,257983,1,0,0:0:0:0:
384,96,258151,1,0,0:0:0:0:
384,96,258320,1,8,0:0:0:0:
384,96,258488,1,0,0:0:0:0:
384,96,258572,1,0,0:0:0:0:
384,96,258657,1,0,0:0:0:0:
384,96,258994,1,8,0:0:0:0:
384,96,259162,1,0,0:0:0:0:
384,96,259247,1,0,0:0:0:0:
384,96,259331,1,8,0:0:0:0:
384,96,259668,1,8,0:0:0:0:
384,96,259837,1,0,0:0:0:0:
384,96,259921,1,0,0:0:0:0:
384,96,260005,1,0,0:0:0:0:
384,96,260342,1,8,0:0:0:0:
384,96,260511,1,8,0:0:0:0:
384,96,260679,1,0,0:0:0:0:
384,96,261016,1,8,0:0:0:0:
384,96,261185,1,8,0:0:0:0:
384,96,261269,1,8,0:0:0:0:
384,96,261353,1,0,0:0:0:0:
384,96,261522,1,0,0:0:0:0:
384,96,261690,1,8,0:0:0:0:
384,96,262028,1,0,0:0:0:0:
384,96,262196,1,0,0:0:0:0:
384,96,262365,1,8,0:0:0:0:
384,96,262533,1,0,0:0:0:0:
384,96,262617,1,0,0:0:0:0:
384,96,262702,1,8,0:0:0:0:
384,96,263039,1,8,0:0:0:0:
384,96,263207,1,8,0:0:0:0:
384,96,263376,1,0,0:0:0:0:
384,96,263544,1,8,0:0:0:0:
384,96,263713,1,0,0:0:0:0:
384,96,263881,1,8,0:0:0:0:
384,96,264050,1,0,0:0:0:0:
384,96,264219,1,0,0:0:0:0:
384,96,264387,1,8,0:0:0:0:
384,96,264556,1,8,0:0:0:0:
384,96,264724,5,4,0:0:0:0:
384,96,265061,1,0,0:0:0:0:
352,96,265314,1,8,0:0:0:0:
352,96,265398,1,0,0:0:0:0:
320,96,265735,1,0,0:0:0:0:
352,96,265904,1,0,0:0:0:0:
352,96,266072,1,0,0:0:0:0:
352,96,266410,1,0,0:0:0:0:
352,96,266578,1,0,0:0:0:0:
352,96,266747,1,8,0:0:0:0:
352,96,267084,1,8,0:0:0:0:
352,96,267252,1,0,0:0:0:0:
352,96,267337,1,0,0:0:0:0:
352,96,267421,1,0,0:0:0:0:
352,96,267758,1,0,0:0:0:0:
352,96,267926,1,8,0:0:0:0:
352,96,268011,1,8,0:0:0:0:
352,96,268095,1,0,0:0:0:0:
352,96,268263,1,8,0:0:0:0:
352,96,268432,1,8,0:0:0:0:
352,96,268769,1,0,0:0:0:0:
352,96,269106,1,0,0:0:0:0:
352,96,269275,1,0,0:0:0:0:
352,96,269359,1,0,0:0:0:0:
352,96,269443,1,8,0:0:0:0:
352,96,269780,1,8,0:0:0:0:
352,96,269949,1,8,0:0:0:0:
352,96,270033,1,8,0:0:0:0:
352,96,270117,1,0,0:0:0:0:
352,96,270454,1,8,0:0:0:0:
352,96,270623,1,0,0:0:0:0:
352,96,270707,1,0,0:0:0:0:
352,96,270792,1,0,0:0:0:0:
352,96,270960,1,0,0:0:0:0:
352,96,271129,1,8,0:0:0:0:
352,96,271297,1,8,0:0:0:0:
352,96,271381,1,8,0:0:0:0:
352,96,271466,1,0,0:0:0:0:
352,96,271634,1,0,0:0:0:0:
352,96,271803,1,8,0:0:0:0:
352,96,271887,1,8,0:0:0:0:
352,96,271971,1,0,0:0:0:0:
352,96,272056,1,0,0:0:0:0:
352,96,272140,1,8,0:0:0:0:
352,96,272308,1,0,0:0:0:0:
352,96,272393,1,0,0:0:0:0:
352,96,272477,1,8,0:0:0:0:
352,96,272646,1,8,0:0:0:0:
384,320,272814,1,4,0:0:0:0:
352,96,273151,1,8,0:0:0:0:
352,96,273320,1,0,0:0:0:0:
352,96,273404,1,0,0:0:0:0:
352,96,273488,1,8,0:0:0:0:
352,96,273657,1,0,0:0:0:0:
352,96,273741,1,0,0:0:0:0:
352,96,273825,1,8,0:0:0:0:
352,96,273910,1,0,0:0:0:0:
352,96,273994,1,8,0:0:0:0:
192,128,274837,5,0,0:0:0:0:
256,224,275174,1,12,0:0:0:0:
160,320,275511,5,4,0:0:0:0:
160,96,275679,1,0,0:0:0:0:
192,96,275848,1,8,0:0:0:0:
224,96,276016,1,0,0:0:0:0:
256,128,276185,1,8,0:0:0:0:
256,128,276269,1,8,0:0:0:0:
256,128,276353,1,0,0:0:0:0:
256,128,276438,1,0,0:0:0:0:
256,128,276522,1,8,0:0:0:0:
256,128,276578,1,8,0:0:0:0:
256,128,276634,1,8,0:0:0:0:
256,128,276690,1,0,0:0:0:0:
192,64,277196,1,0,0:0:0:0:
192,64,277533,1,8,0:0:0:0:
192,64,277589,1,8,0:0:0:0:
192,64,277646,1,8,0:0:0:0:
192,64,277702,1,0,0:0:0:0:
192,64,277786,1,0,0:0:0:0:
192,64,277870,1,8,0:0:0:0:
192,64,277926,1,0,0:0:0:0:
192,64,277983,1,0,0:0:0:0:
192,64,278039,1,8,0:0:0:0:
192,64,278123,1,0,0:0:0:0:
192,64,278207,1,8,0:0:0:0:
192,64,278376,1,0,0:0:0:0:
160,64,278544,1,8,0:0:0:0:
160,64,278713,1,0,0:0:0:0:
160,64,278797,1,0,0:0:0:0:
160,64,278881,1,8,0:0:0:0:
160,64,279134,1,0,0:0:0:0:
160,64,279219,1,0,0:0:0:0:
160,320,279387,1,12,0:0:0:0:
160,64,279893,1,8,0:0:0:0:
192,320,280061,1,12,0:0:0:0:
160,64,280398,1,0,0:0:0:0:
160,64,280567,1,8,0:0:0:0:
160,64,280735,1,8,0:0:0:0:
160,64,280820,1,8,0:0:0:0:
160,64,280904,1,0,0:0:0:0:
160,64,281072,1,0,0:0:0:0:
160,64,281241,1,0,0:0:0:0:
160,64,281410,1,0,0:0:0:0:
160,64,281578,1,8,0:0:0:0:
160,64,281662,1,0,0:0:0:0:
160,64,281747,1,8,0:0:0:0:
160,64,281831,1,0,0:0:0:0:
160,64,281915,1,8,0:0:0:0:
160,64,281971,1,8,0:0:0:0:
160,64,282028,1,8,0:0:0:0:
160,64,282084,1,0,0:0:0:0:
192,64,282421,1,0,0:0:0:0:
192,64,282758,1,0,0:0:0:0:
192,64,282926,1,8,0:0:0:0:
192,64,283095,1,0,0:0:0:0:
192,64,283179,1,0,0:0:0:0:
192,64,283263,1,8,0:0:0:0:
192,64,283432,1,8,0:0:0:0:
192,64,283601,1,4,0:0:0:0:
192,64,283769,1,0,0:0:0:0:
192,64,283938,1,8,0:0:0:0:
192,64,284022,1,0,0:0:0:0:
192,64,284190,1,0,0:0:0:0:
192,64,284275,1,8,0:0:0:0:
192,64,284443,1,8,0:0:0:0:
192,64,284499,1,8,0:0:0:0:
192,64,284556,1,8,0:0:0:0:
192,64,284612,1,0,0:0:0:0:
192,64,284780,1,12,0:0:0:0:
192,64,285117,1,0,0:0:0:0:
192,64,285202,1,0,0:0:0:0:
192,64,285286,1,8,0:0:0:0:
192,64,285454,1,0,0:0:0:0:
192,64,285623,1,0,0:0:0:0:
192,64,285792,1,8,0:0:0:0:
192,64,285960,1,8,0:0:0:0:
192,64,286129,1,8,0:0:0:0:
192,64,286213,1,8,0:0:0:0:
192,64,286297,5,0,0:0:0:0:
192,64,286466,1,0,0:0:0:0:
192,64,286634,1,0,0:0:0:0:
192,64,286719,1,0,0:0:0:0:
192,64,286803,1,0,0:0:0:0:
256,128,286971,1,8,0:0:0:0:
256,128,287055,1,8,0:0:0:0:
256,128,287139,1,0,0:0:0:0:
256,128,287224,1,0,0:0:0:0:
256,128,287308,1,8,0:0:0:0:
256,128,287364,1,8,0:0:0:0:
256,128,287420,1,8,0:0:0:0:
256,128,287476,1,0,0:0:0:0:
192,64,287983,1,0,0:0:0:0:
192,64,288320,1,8,0:0:0:0:
192,64,288488,1,8,0:0:0:0:
192,64,288657,1,0,0:0:0:0:
192,64,288825,1,8,0:0:0:0:
192,64,288994,1,4,0:0:0:0:
192,64,289162,1,0,0:0:0:0:
192,64,289247,1,0,0:0:0:0:
160,64,289331,1,8,0:0:0:0:
192,64,289415,1,8,0:0:0:0:
160,64,289499,1,0,0:0:0:0:
160,64,289668,1,8,0:0:0:0:
192,64,289752,1,0,0:0:0:0:
160,64,289921,1,0,0:0:0:0:
160,64,290005,1,8,0:0:0:0:
160,320,290174,1,12,0:0:0:0:
160,64,290511,1,0,0:0:0:0:
160,64,290679,1,8,0:0:0:0:
192,320,290848,1,4,0:0:0:0:
160,64,291185,1,0,0:0:0:0:
160,64,291353,1,8,0:0:0:0:
160,64,291522,1,8,0:0:0:0:
160,64,291606,1,8,0:0:0:0:
160,64,291690,1,0,0:0:0:0:
160,64,291859,1,0,0:0:0:0:
160,64,292028,1,8,0:0:0:0:
160,64,292196,1,0,0:0:0:0:
160,64,292280,1,0,0:0:0:0:
160,64,292365,1,8,0:0:0:0:
160,64,292533,1,8,0:0:0:0:
160,64,292617,1,0,0:0:0:0:
160,64,292702,1,8,0:0:0:0:
160,64,292870,1,8,0:0:0:0:
160,256,293039,1,4,0:0:0:0:
160,64,293207,1,8,0:0:0:0:
160,64,293292,1,8,0:0:0:0:
160,64,293376,1,0,0:0:0:0:
192,64,293544,1,0,0:0:0:0:
192,64,293713,1,8,0:0:0:0:
192,64,293881,1,0,0:0:0:0:
192,64,293966,1,0,0:0:0:0:
192,64,294050,1,8,0:0:0:0:
192,64,294134,1,0,0:0:0:0:
192,64,294219,1,8,0:0:0:0:
192,64,294387,1,4,0:0:0:0:
192,64,294556,1,0,0:0:0:0:
192,64,294724,1,0,0:0:0:0:
192,64,294893,1,8,0:0:0:0:
192,64,294977,1,8,0:0:0:0:
192,64,295061,1,0,0:0:0:0:
192,64,295230,1,0,0:0:0:0:
192,64,295398,1,8,0:0:0:0:
192,64,295567,1,8,0:0:0:0:
192,64,295651,1,8,0:0:0:0:
192,64,295735,1,0,0:0:0:0:
192,64,295820,1,0,0:0:0:0:
192,64,295904,1,8,0:0:0:0:
192,64,296072,1,8,0:0:0:0:
192,64,296157,1,0,0:0:0:0:
192,64,296241,1,0,0:0:0:0:
192,64,296325,1,0,0:0:0:0:
192,64,296410,1,8,0:0:0:0:
192,64,296494,1,8,0:0:0:0:
192,64,296578,1,0,0:0:0:0:
192,64,296662,1,0,0:0:0:0:
192,64,296747,1,8,0:0:0:0:
192,64,296803,1,0,0:0:0:0:
192,64,296859,1,0,0:0:0:0:
192,64,296915,1,8,0:0:0:0:
192,64,296999,1,0,0:0:0:0:
192,64,297084,5,8,0:0:0:0:
192,64,297421,1,8,0:0:0:0:
220,136,297589,1,0,0:0:0:0:
220,136,297674,1,0,0:0:0:0:
220,136,297758,1,0,0:0:0:0:
220,136,297926,1,0,0:0:0:0:
321,128,298095,1,8,0:0:0:0:
321,128,298432,1,0,0:0:0:0:
321,128,298601,1,0,0:0:0:0:
321,128,298769,1,8,0:0:0:0:
321,128,298938,1,8,0:0:0:0:
321,128,299022,1,0,0:0:0:0:
321,128,299106,1,8,0:0:0:0:
321,128,299190,1,8,0:0:0:0:
321,128,299275,1,0,0:0:0:0:
321,128,299443,1,8,0:0:0:0:
321,128,299612,1,0,0:0:0:0:
321,128,299696,1,0,0:0:0:0:
321,128,299780,1,0,0:0:0:0:
321,128,300117,1,8,0:0:0:0:
321,128,300286,1,8,0:0:0:0:
321,128,300370,1,8,0:0:0:0:
321,128,300454,1,8,0:0:0:0:
321,128,300623,1,0,0:0:0:0:
321,128,300792,1,8,0:0:0:0:
313,255,300960,1,12,0:0:0:0:
321,128,301297,1,0,0:0:0:0:
321,128,301466,1,8,0:0:0:0:
321,128,301634,1,8,0:0:0:0:
321,128,301719,1,8,0:0:0:0:
321,128,301803,1,8,0:0:0:0:
321,128,301971,1,0,0:0:0:0:
321,128,302140,1,8,0:0:0:0:
321,128,302224,1,8,0:0:0:0:
321,128,302308,1,0,0:0:0:0:
321,128,302393,1,8,0:0:0:0:
321,128,302477,1,0,0:0:0:0:
321,128,302814,1,8,0:0:0:0:
321,128,302983,1,0,0:0:0:0:
321,128,303151,1,8,0:0:0:0:
321,128,303320,1,0,0:0:0:0:
321,128,303488,1,8,0:0:0:0:
321,128,303657,1,8,0:0:0:0:
324,130,303825,1,0,0:0:0:0:
321,128,303994,1,8,0:0:0:0:
321,128,304078,1,0,0:0:0:0:
324,130,304162,1,8,0:0:0:0:
321,128,304247,1,8,0:0:0:0:
321,128,304331,1,0,0:0:0:0:
321,128,304499,1,0,0:0:0:0:
321,128,304837,1,8,0:0:0:0:
321,128,305005,1,8,0:0:0:0:
324,130,305174,1,0,0:0:0:0:
321,128,305511,1,8,0:0:0:0:
321,128,305679,1,8,0:0:0:0:
321,128,305848,1,0,0:0:0:0:
321,128,306016,1,0,0:0:0:0:
321,128,306101,1,0,0:0:0:0:
324,130,306185,1,8,0:0:0:0:
306,286,306353,1,12,0:0:0:0:
321,128,306690,1,8,0:0:0:0:
321,128,306859,1,8,0:0:0:0:
321,128,307028,1,0,0:0:0:0:
288,128,307280,1,8,0:0:0:0:
288,128,307365,1,0,0:0:0:0:
288,128,307533,1,8,0:0:0:0:
288,128,307702,1,0,0:0:0:0:
288,128,307786,1,8,0:0:0:0:
192,64,307870,5,0,0:0:0:0:
192,64,308207,1,8,0:0:0:0:
220,136,308376,1,8,0:0:0:0:
220,136,308460,1,8,0:0:0:0:
220,136,308544,1,8,0:0:0:0:
220,136,308713,1,0,0:0:0:0:
321,128,308881,1,8,0:0:0:0:
321,128,309219,1,0,0:0:0:0:
321,128,309387,1,0,0:0:0:0:
321,128,309556,1,8,0:0:0:0:
321,128,309724,1,8,0:0:0:0:
321,128,309808,1,8,0:0:0:0:
321,128,309893,1,0,0:0:0:0:
321,128,310061,1,0,0:0:0:0:
321,128,310230,1,8,0:0:0:0:
321,128,310398,1,0,0:0:0:0:
321,128,310483,1,0,0:0:0:0:
321,128,310567,1,0,0:0:0:0:
321,128,310904,1,8,0:0:0:0:
321,128,311072,1,0,0:0:0:0:
321,128,311157,1,0,0:0:0:0:
321,128,311241,1,0,0:0:0:0:
321,128,311410,1,0,0:0:0:0:
321,128,311578,1,8,0:0:0:0:
313,255,311747,1,12,0:0:0:0:
321,128,312084,1,0,0:0:0:0:
321,128,312252,1,8,0:0:0:0:
321,128,312421,1,8,0:0:0:0:
321,128,312505,1,8,0:0:0:0:
321,128,312589,1,8,0:0:0:0:
321,128,312758,1,0,0:0:0:0:
321,128,312926,1,8,0:0:0:0:
321,128,313011,1,0,0:0:0:0:
321,128,313095,1,0,0:0:0:0:
321,128,313179,1,8,0:0:0:0:
321,128,313263,1,0,0:0:0:0:
321,128,313601,1,8,0:0:0:0:
321,128,313769,1,0,0:0:0:0:
321,128,313853,1,0,0:0:0:0:
321,128,313938,1,0,0:0:0:0:
321,128,314106,1,0,0:0:0:0:
321,128,314275,1,8,0:0:0:0:
321,128,314443,1,8,0:0:0:0:
384,288,314612,1,4,0:0:0:0:
324,130,314949,1,8,0:0:0:0:
321,128,315117,1,0,0:0:0:0:
321,128,315454,1,0,0:0:0:0:
321,128,315623,1,8,0:0:0:0:
321,128,315792,1,8,0:0:0:0:
352,288,315960,1,4,0:0:0:0:
321,128,316297,1,8,0:0:0:0:
321,128,316466,1,8,0:0:0:0:
321,128,316550,1,8,0:0:0:0:
321,128,316634,1,0,0:0:0:0:
321,128,316803,1,0,0:0:0:0:
324,130,316971,1,8,0:0:0:0:
306,286,317140,1,12,0:0:0:0:
306,286,317308,1,0,0:0:0:0:
306,286,317477,1,0,0:0:0:0:
288,288,317561,1,0,0:0:0:0:
306,286,317646,1,0,0:0:0:0:
288,160,317814,1,8,0:0:0:0:
288,160,317898,1,8,0:0:0:0:
288,160,317983,1,8,0:0:0:0:
288,160,318151,1,0,0:0:0:0:
416,128,318320,1,12,0:0:0:0:
384,320,318657,5,4,0:0:0:0:
288,64,318825,1,0,0:0:0:0:
288,64,318994,1,8,0:0:0:0:
288,64,319162,1,0,0:0:0:0:
288,64,319247,1,0,0:0:0:0:
288,64,319331,1,0,0:0:0:0:
288,64,319499,1,0,0:0:0:0:
288,64,319668,1,8,0:0:0:0:
288,64,319837,1,8,0:0:0:0:
288,64,320005,1,0,0:0:0:0:
288,64,320342,1,8,0:0:0:0:
288,64,320511,1,8,0:0:0:0:
288,64,320595,1,8,0:0:0:0:
288,64,320679,1,0,0:0:0:0:
288,64,320848,1,0,0:0:0:0:
288,64,321016,1,8,0:0:0:0:
288,64,321185,1,8,0:0:0:0:
288,64,321353,1,0,0:0:0:0:
288,64,321522,1,0,0:0:0:0:
288,64,321690,1,8,0:0:0:0:
288,64,321859,1,0,0:0:0:0:
288,64,321943,1,0,0:0:0:0:
288,64,322028,1,0,0:0:0:0:
288,64,322196,1,0,0:0:0:0:
288,64,322365,1,8,0:0:0:0:
288,64,322533,1,0,0:0:0:0:
288,64,322870,1,0,0:0:0:0:
288,64,323039,1,8,0:0:0:0:
288,64,323207,1,8,0:0:0:0:
288,64,323292,1,8,0:0:0:0:
288,64,323376,1,0,0:0:0:0:
288,64,323544,1,0,0:0:0:0:
288,64,323713,1,8,0:0:0:0:
288,64,323881,1,0,0:0:0:0:
288,64,323966,1,8,0:0:0:0:
288,64,324050,1,0,0:0:0:0:
288,64,324387,1,8,0:0:0:0:
288,64,324556,1,0,0:0:0:0:
288,64,324640,1,0,0:0:0:0:
288,64,324724,1,0,0:0:0:0:
288,64,324893,1,0,0:0:0:0:
288,64,325061,1,8,0:0:0:0:
288,64,325230,1,0,0:0:0:0:
288,64,325567,1,0,0:0:0:0:
288,64,325735,1,8,0:0:0:0:
288,64,325904,1,8,0:0:0:0:
288,64,325988,1,8,0:0:0:0:
288,64,326072,1,0,0:0:0:0:
288,64,326241,1,0,0:0:0:0:
288,96,326410,1,8,0:0:0:0:
288,96,326578,1,8,0:0:0:0:
288,96,326747,1,0,0:0:0:0:
288,96,327084,1,8,0:0:0:0:
288,96,327252,1,0,0:0:0:0:
288,96,327337,1,0,0:0:0:0:
288,96,327421,1,8,0:0:0:0:
288,96,327589,1,0,0:0:0:0:
288,96,327758,1,8,0:0:0:0:
288,96,327926,1,8,0:0:0:0:
288,96,328095,1,0,0:0:0:0:
288,96,328432,1,8,0:0:0:0:
288,96,328601,1,0,0:0:0:0:
288,96,328853,1,8,0:0:0:0:
288,96,328938,1,0,0:0:0:0:
288,96,329106,1,8,0:0:0:0:
288,96,329275,1,0,0:0:0:0:
288,96,329359,1,8,0:0:0:0:
288,96,329443,5,0,0:0:0:0:
288,96,329780,1,8,0:0:0:0:
288,96,329949,1,0,0:0:0:0:
288,96,330033,1,0,0:0:0:0:
288,96,330117,1,8,0:0:0:0:
288,96,330286,1,0,0:0:0:0:
288,96,330454,1,8,0:0:0:0:
288,96,330623,1,0,0:0:0:0:
288,96,330707,1,0,0:0:0:0:
288,96,330792,1,0,0:0:0:0:
288,96,330960,1,0,0:0:0:0:
288,96,331129,1,8,0:0:0:0:
288,96,331297,1,8,0:0:0:0:
288,96,331381,1,8,0:0:0:0:
288,96,331466,1,0,0:0:0:0:
288,96,331634,1,0,0:0:0:0:
288,96,331803,1,8,0:0:0:0:
288,96,331971,1,8,0:0:0:0:
288,96,332140,1,0,0:0:0:0:
288,96,332477,1,8,0:0:0:0:
288,96,332646,1,0,0:0:0:0:
288,96,332730,1,0,0:0:0:0:
288,96,332814,1,0,0:0:0:0:
288,96,332983,1,0,0:0:0:0:
288,96,333151,1,8,0:0:0:0:
288,96,333320,1,8,0:0:0:0:
288,96,333404,1,8,0:0:0:0:
288,96,333488,1,0,0:0:0:0:
288,96,333657,1,0,0:0:0:0:
288,96,333825,1,8,0:0:0:0:
320,96,333994,1,0,0:0:0:0:
320,96,334078,1,0,0:0:0:0:
320,96,334162,1,8,0:0:0:0:
288,96,334331,1,0,0:0:0:0:
288,96,334499,1,8,0:0:0:0:
320,96,334668,1,0,0:0:0:0:
320,96,334752,1,8,0:0:0:0:
320,96,334837,1,0,0:0:0:0:
320,96,335174,1,8,0:0:0:0:
320,96,335342,1,0,0:0:0:0:
320,96,335426,1,0,0:0:0:0:
320,96,335511,1,0,0:0:0:0:
320,96,335679,1,0,0:0:0:0:
320,96,335848,1,8,0:0:0:0:
320,96,336016,1,8,0:0:0:0:
305,96,336185,1,0,0:0:0:0:
320,96,336522,1,8,0:0:0:0:
320,96,336690,1,0,0:0:0:0:
320,96,336775,1,0,0:0:0:0:
320,96,336859,1,8,0:0:0:0:
320,96,337028,1,0,0:0:0:0:
320,96,337196,1,8,0:0:0:0:
320,96,337365,1,8,0:0:0:0:
320,96,337533,1,0,0:0:0:0:
320,96,337702,1,0,0:0:0:0:
320,96,337870,1,8,0:0:0:0:
320,96,338039,1,0,0:0:0:0:
320,96,338123,1,0,0:0:0:0:
320,96,338207,1,0,0:0:0:0:
320,96,338376,1,0,0:0:0:0:
320,96,338544,1,8,0:0:0:0:
320,96,338713,1,0,0:0:0:0:
320,96,338881,1,8,0:0:0:0:
320,96,339050,1,0,0:0:0:0:
320,96,339219,1,8,0:0:0:0:
320,96,339387,1,0,0:0:0:0:
320,96,339556,1,8,0:0:0:0:
320,96,339640,1,8,0:0:0:0:
320,96,339724,1,0,0:0:0:0:
320,96,339893,1,8,0:0:0:0:
320,96,340146,1,8,0:0:0:0:
224,96,340230,5,0,0:0:0:0:
224,96,340567,1,8,0:0:0:0:
224,96,340735,1,0,0:0:0:0:
224,96,340904,1,8,0:0:0:0:
224,96,341072,1,0,0:0:0:0:
224,96,341241,1,8,0:0:0:0:
224,96,341578,1,0,0:0:0:0:
224,96,341915,1,8,0:0:0:0:
224,96,342252,1,0,0:0:0:0:
224,96,342421,1,0,0:0:0:0:
224,96,342589,1,8,0:0:0:0:
224,96,342758,1,8,0:0:0:0:
224,96,342926,1,0,0:0:0:0:
224,96,343263,1,8,0:0:0:0:
224,96,343432,1,0,0:0:0:0:
224,96,343516,1,0,0:0:0:0:
224,96,343601,1,0,0:0:0:0:
224,96,343769,1,0,0:0:0:0:
224,96,343938,1,8,0:0:0:0:
224,96,344275,1,0,0:0:0:0:
224,96,344443,1,0,0:0:0:0:
224,96,344612,1,8,0:0:0:0:
192,96,344780,1,0,0:0:0:0:
192,96,344949,1,8,0:0:0:0:
224,96,345117,1,0,0:0:0:0:
224,96,345286,1,8,0:0:0:0:
192,96,345539,1,8,0:0:0:0:
192,96,345623,1,0,0:0:0:0:
192,96,345960,1,8,0:0:0:0:
192,96,346129,1,0,0:0:0:0:
192,96,346213,1,0,0:0:0:0:
192,96,346297,1,0,0:0:0:0:
192,96,346466,1,0,0:0:0:0:
192,96,346634,1,8,0:0:0:0:
207,96,346971,1,0,0:0:0:0:
192,96,347308,1,8,0:0:0:0:
192,96,347477,1,8,0:0:0:0:
192,96,347646,1,0,0:0:0:0:
207,96,347814,1,0,0:0:0:0:
192,96,347983,1,8,0:0:0:0:
192,96,348320,1,0,0:0:0:0:
192,96,348657,1,8,0:0:0:0:
192,96,348825,1,0,0:0:0:0:
192,96,348910,1,0,0:0:0:0:
192,96,348994,1,8,0:0:0:0:
192,96,349162,1,0,0:0:0:0:
192,96,349331,1,8,0:0:0:0:
192,96,349668,1,0,0:0:0:0:
192,96,350005,1,8,0:0:0:0:
192,96,350174,1,0,0:0:0:0:
192,96,350426,1,8,0:0:0:0:
192,96,350511,1,0,0:0:0:0:
192,96,350679,1,8,0:0:0:0:
192,96,350932,1,8,0:0:0:0:
224,96,351016,5,0,0:0:0:0:
224,96,351353,1,8,0:0:0:0:
224,96,351690,1,0,0:0:0:0:
224,96,351859,1,0,0:0:0:0:
224,96,352028,1,8,0:0:0:0:
224,96,352365,1,0,0:0:0:0:
224,96,352702,1,8,0:0:0:0:
224,96,352954,1,0,0:0:0:0:
224,96,353039,1,0,0:0:0:0:
224,96,353207,1,0,0:0:0:0:
224,96,353376,1,8,0:0:0:0:
224,96,353713,1,0,0:0:0:0:
224,96,354050,1,8,0:0:0:0:
224,96,354219,1,8,0:0:0:0:
224,96,354387,1,0,0:0:0:0:
224,96,354556,1,0,0:0:0:0:
224,96,354724,1,8,0:0:0:0:
224,96,355061,1,0,0:0:0:0:
224,96,355398,1,8,0:0:0:0:
192,96,355567,1,0,0:0:0:0:
224,96,355651,1,0,0:0:0:0:
192,96,355735,1,0,0:0:0:0:
192,96,355904,1,0,0:0:0:0:
224,96,356072,1,8,0:0:0:0:
192,96,356325,1,8,0:0:0:0:
192,96,356410,1,0,0:0:0:0:
192,96,356578,1,0,0:0:0:0:
192,96,356662,1,0,0:0:0:0:
192,96,356747,1,8,0:0:0:0:
192,96,356915,1,0,0:0:0:0:
192,96,356999,1,0,0:0:0:0:
192,96,357084,1,0,0:0:0:0:
192,96,357168,1,0,0:0:0:0:
192,96,357252,1,0,0:0:0:0:
192,96,357421,1,8,0:0:0:0:
192,96,357589,1,8,0:0:0:0:
192,96,357674,1,8,0:0:0:0:
207,96,357758,1,0,0:0:0:0:
192,96,357926,1,0,0:0:0:0:
192,96,358011,1,0,0:0:0:0:
192,96,358095,1,8,0:0:0:0:
192,96,358263,1,8,0:0:0:0:
197,100,358348,1,0,0:0:0:0:
192,96,358432,1,8,0:0:0:0:
207,96,358516,1,8,0:0:0:0:
207,96,358601,1,0,0:0:0:0:
213,96,358685,1,0,0:0:0:0:
192,96,358769,1,8,0:0:0:0:
192,96,358938,1,0,0:0:0:0:
192,96,359022,1,0,0:0:0:0:
192,96,359106,1,8,0:0:0:0:
192,96,359275,1,0,0:0:0:0:
192,96,359443,1,8,0:0:0:0:
207,96,359612,1,0,0:0:0:0:
213,96,359696,1,0,0:0:0:0:
192,96,359780,1,0,0:0:0:0:
192,96,359949,1,0,0:0:0:0:
192,96,360117,1,8,0:0:0:0:
192,96,360454,1,4,0:0:0:0:
192,96,360792,1,8,0:0:0:0:
192,96,360960,1,8,0:0:0:0:
192,96,361129,1,0,0:0:0:0:
192,96,361466,1,12,0:0:0:0:
