osu file format v14

[General]
AudioFilename: audio.mp3
AudioLeadIn: 0
PreviewTime: 75282
Countdown: 1
SampleSet: Soft
StackLeniency: 0.7
Mode: 0
LetterboxInBreaks: 0
WidescreenStoryboard: 0

[Editor]
Bookmarks: 16630,22024,32810,54383,75956
DistanceSpacing: 2.1
BeatDivisor: 8
GridSize: 4
TimelineZoom: 1

[Metadata]
Title:White Eternity (Soleily & Epsilon Remix)
TitleUnicode:White Eternity (Soleily & Epsilon Remix)
Artist:Nitta Emi
ArtistUnicode:新田恵海
Creator:Beafowl
Version:xd
Source:アストラエアの白き永遠
Tags:
BeatmapID:1650819
BeatmapSetID:786406

[Difficulty]
HPDrainRate:6
CircleSize:4.5
OverallDifficulty:8
ApproachRate:9.5
SliderMultiplier:1.4
SliderTickRate:1

[Events]
//Background and Video events
//Break Periods
//Storyboard Layer 0 (Background)
//Storyboard Layer 1 (Fail)
//Storyboard Layer 2 (Pass)
//Storyboard Layer 3 (Foreground)
//Storyboard Sound Samples

[TimingPoints]
451,337.078651685393,4,2,1,100,1,0
19327,-83.3333333333333,4,2,1,100,0,0
20338,-71.4285714285714,4,2,1,100,0,0
21855,-50,4,2,1,100,0,0
22024,-166.666666666667,4,2,1,100,0,0
32810,-100,4,2,1,100,0,0
54383,-83.3333333333333,4,2,1,100,0,0
65170,-83.3333333333333,4,2,3,100,0,0
70563,-83.3333333333333,4,2,2,100,0,0
71743,-50,4,2,2,100,0,0
71911,-83.3333333333333,4,2,2,100,0,0
73259,-66.6666666666667,4,2,1,100,0,0
74271,-50,4,2,1,100,0,0
74608,-50,4,2,3,100,0,0
75956,-62.5,4,2,1,100,0,1
85057,-62.5,4,2,1,100,0,0
85226,-55.5555555555556,4,2,1,100,0,1
86406,-55.5555555555556,4,2,1,100,0,0
86743,-62.5,4,2,1,100,0,1
90619,-55.5555555555556,4,2,1,100,0,1
92136,-62.5,4,2,1,100,0,1
97192,-55.5555555555556,4,2,1,100,0,0
97529,-55.5555555555556,4,2,1,100,0,1
98203,-62.5,4,2,1,100,0,1
101406,-55.5555555555556,4,2,1,100,0,1
102922,-62.5,4,2,1,100,0,1
106799,-55.5555555555556,4,2,1,100,0,1
108316,-62.5,4,2,1,100,0,1
112192,-55.5555555555556,4,2,1,100,0,1
113877,-62.5,4,2,1,100,0,1
114889,-50,4,2,1,100,0,1
115057,-66.6666666666667,4,2,1,100,0,1
117754,-66.6666666666667,4,2,3,100,0,1
119102,-166.666666666667,4,2,3,100,0,0
124495,-125,4,2,3,100,0,0
129889,-100,4,2,3,100,0,0
140675,-76.9230769230769,4,2,1,100,0,0
156855,-100,4,2,1,100,0,0
162248,-66.6666666666667,4,2,1,100,0,0
164945,-100,4,2,1,100,0,0
167642,-50,4,2,1,100,0,1
175731,-50,4,2,1,100,0,0
177080,-100,4,2,1,100,0,0
178428,-45.4545454545455,4,2,1,100,0,1
186518,-45.4545454545455,4,2,1,100,0,0
189215,-45.4545454545455,4,2,1,100,0,0

[HitObjects]
84,88,451,6,0,L|96:240,1,140,2|0,0:0|0:0,0:0:0:0:
95,227,1125,1,8,0:0:0:0:
212,124,1462,2,0,L|224:276,1,140
223,263,2136,1,2,0:0:0:0:
340,160,2473,2,0,L|352:312,1,140,8|0,0:0|0:0,0:0:0:0:
92,273,3147,6,0,P|160:289|224:261,1,140,2|0,0:0|0:0,0:0:0:0:
222,262,3821,1,8,0:0:0:0:
52,100,4158,2,0,P|88:159|153:184,1,140
151,184,4832,1,2,0:0:0:0:
293,340,5170,1,8,0:0:0:0:
293,340,5507,1,2,0:0:0:0:
151,184,5675,1,8,0:0:0:0:
357,139,5844,6,0,B|369:223|369:223|416:264,1,140,2|0,0:0|0:0,0:0:0:0:
410,259,6518,1,8,0:0:0:0:
250,180,6855,2,0,B|238:96|238:96|191:55,1,140
197,60,7529,1,2,0:0:0:0:
79,177,7866,2,0,B|91:261|91:261|138:302,1,140,8|0,0:0|0:0,0:0:0:0:
363,204,8540,6,0,L|355:343,1,140,2|0,0:0|0:0,0:0:0:0:
355,343,9215,1,8,0:0:0:0:
216,150,9552,2,0,L|223:289,1,140
224,289,10227,1,2,0:0:0:0:
363,204,10563,1,8,0:0:0:0:
216,150,10900,1,2,0:0:0:0:
355,65,11068,5,8,0:0:0:0:
355,65,11153,1,8,0:0:0:0:
355,65,11237,2,0,L|359:139,1,70,6|0,0:0|0:0,0:0:0:0:
236,159,11574,2,0,L|240:233,1,70
323,308,11911,1,8,0:0:0:0:
364,79,12248,6,0,L|368:153,1,70
245,173,12585,2,0,L|249:247,1,70
332,322,12922,1,2,0:0:0:0:
254,187,13259,6,0,L|258:261,1,70,8|0,0:0|0:0,0:0:0:0:
341,336,13596,1,0,0:0:0:0:
132,226,13934,6,0,P|127:260|145:302,1,70,2|0,0:0|0:0,0:0:0:0:
254,187,14271,2,0,P|259:153|241:111,1,70
159,45,14608,1,8,0:0:0:0:
118,237,14945,6,0,P|113:271|131:313,1,70
240,198,15282,2,0,P|245:164|227:122,1,70
145,56,15619,1,2,0:0:0:0:
226,209,15956,6,0,P|231:175|213:133,1,70,8|0,0:0|0:0,0:0:0:0:
131,67,16293,1,2,0:0:0:0:
115,231,16462,1,8,0:0:0:0:
284,91,16630,6,0,P|298:117|302:140,3,35,2|0|0|0,0:0|0:0|0:0|0:0,0:0:0:0:
338,145,16967,2,0,P|342:174|338:197,3,35
312,215,17304,1,8,0:0:0:0:
303,248,17388,1,0,0:0:0:0:
281,275,17472,1,0,0:0:0:0:
251,292,17556,1,0,0:0:0:0:
216,295,17641,1,0,0:0:0:0:
183,284,17725,1,0,0:0:0:0:
157,261,17809,1,0,0:0:0:0:
142,230,17893,1,0,0:0:0:0:
134,196,17979,6,0,P|125:168|116:153,1,35
35,75,18147,2,0,P|44:103|53:118,1,35
145,209,18316,6,0,P|134:175|123:156,1,35,2|0,0:0|0:0,0:0:0:0:
23,61,18484,2,0,P|34:95|45:114,1,35
142,230,18653,5,8,0:0:0:0:
169,208,18737,1,0,0:0:0:0:
202,196,18821,1,0,0:0:0:0:
237,195,18905,1,0,0:0:0:0:
270,206,18990,1,0,0:0:0:0:
302,220,19074,1,0,0:0:0:0:
337,221,19158,1,0,0:0:0:0:
370,209,19242,1,0,0:0:0:0:
396,186,19327,6,0,L|399:127,1,41.9999987182618,2|0,0:0|0:0,0:0:0:0:
338,11,19495,2,0,L|335:70,1,41.9999987182618
270,206,19664,2,0,L|273:147,1,41.9999987182618
212,31,19832,2,0,L|209:90,1,41.9999987182618
215,281,20001,5,8,0:0:0:0:
246,296,20085,1,0,0:0:0:0:
280,299,20169,1,0,0:0:0:0:
313,288,20253,1,0,0:0:0:0:
340,266,20338,2,0,P|361:245|378:212,1,48.9999985046387,2|0,0:0|0:0,0:0:0:0:
487,112,20507,2,0,P|466:91|433:74,1,48.9999985046387,8|0,0:0|0:0,0:0:0:0:
270,206,20675,5,4,0:3:0:0:
295,25,20844,1,0,0:0:0:0:
169,157,21012,1,0,0:0:0:0:
348,125,21181,1,2,0:3:0:0:
184,45,21349,1,0,0:3:0:0:
184,45,21434,1,0,0:3:0:0:
184,45,21518,1,0,0:3:0:0:
376,134,21686,1,8,0:3:0:0:
124,123,21855,6,0,L|128:198,1,70
202,255,22024,6,0,B|233:253|264:265|280:279|287:286|295:293|305:312|324:338|324:338|327:307|329:275|335:243|336:219|347:199|361:182|422:170|426:162|456:171|474:187|497:209|495:245|491:259|479:273|470:294|424:318|411:319|391:310|368:292|371:259|360:238|344:206|325:192|292:187|264:185|242:176|226:174|198:172|198:172|211:159|220:147|227:136|233:102|233:102|287:107|320:118|342:132|342:132|374:116|395:112|419:110|466:121|466:121|485:104|496:81|492:62|470:43|470:43|427:26|397:22|363:49|312:24,2,1343.99995898438,4|0|4,0:0|0:0|0:0,0:0:0:0:
41,321,33147,5,0,0:0:0:0:
195,248,33484,1,0,0:0:0:0:
55,152,33821,1,0,0:0:0:0:
61,131,33990,2,0,L|219:125,1,140
293,207,34495,2,0,L|214:211,1,70
356,138,34833,2,0,P|380:176|386:208,1,70
339,299,35170,1,0,0:0:0:0:
112,254,35507,6,0,P|164:200|238:224,1,140
313,267,36012,2,0,L|306:117,2,140
208,318,36855,5,0,0:0:0:0:
135,271,37024,1,0,0:0:0:0:
236,228,37192,5,0,0:0:0:0:
309,181,37361,1,0,0:0:0:0:
208,138,37529,6,0,L|129:135,1,70
49,248,37866,2,0,L|128:245,1,70
309,181,38203,6,0,P|351:245|427:237,1,140
474,172,38709,1,0,0:0:0:0:
346,62,38877,2,0,P|274:42|206:65,1,140
112,147,39383,2,0,P|184:167|252:144,1,140
377,137,39889,2,0,L|391:207,1,70
278,235,40226,2,0,L|264:305,1,70
376,333,40563,1,0,0:0:0:0:
152,291,40900,6,0,L|126:152,1,140
153,60,41406,6,0,B|196:68|216:87|233:113|240:152|243:165|243:165|279:97|279:97|281:143|293:182|333:201|374:210|397:202|415:187|426:144|414:115|356:105,1,490
328,273,42922,6,0,P|406:274|461:236,1,140
476,157,43428,1,0,0:0:0:0:
254,181,43597,2,0,B|216:227|216:227|227:320,1,140
302,368,44102,1,0,0:0:0:0:
354,223,44271,2,0,P|362:182|356:146,1,70
238,41,44608,5,0,0:0:0:0:
238,41,44776,2,0,L|254:181,1,140
183,258,45282,2,0,L|105:266,1,70
283,349,45619,2,0,L|213:340,1,70
313,267,45956,1,0,0:0:0:0:
311,86,46293,6,0,P|395:80|439:127,1,140
256,160,46799,2,0,B|209:138|209:138|105:154,2,140
325,223,47642,2,0,P|289:248|248:253,1,70
345,131,47979,2,0,P|384:149|409:182,1,70
349,309,48316,1,0,0:0:0:0:
263,253,48484,1,0,0:0:0:0:
219,352,48653,1,0,0:0:0:0:
133,296,48821,1,0,0:0:0:0:
226,162,48990,6,0,P|313:169|350:210,1,140
233,328,49495,2,0,L|221:253,1,70
71,217,49833,2,0,L|146:205,1,70
265,190,50170,6,0,B|291:207|302:233|301:260|301:260|318:233|333:199|363:192|386:203|423:221|444:222|490:199,1,280
295,113,51181,2,0,P|255:108|218:122,2,70
181,185,51686,6,0,P|145:111|167:59,1,140
264,191,52192,2,0,P|217:259|161:266,1,140
228,117,52698,2,0,P|310:122|344:167,1,140
342,164,53372,6,0,L|346:243,1,70
247,231,53709,2,0,L|251:310,1,70
152,298,54046,2,0,L|156:377,1,70
40,214,54383,6,0,B|71:173|71:173|189:159,1,167.999994873047,4|0,0:0|0:0,0:0:0:0:
254,231,54889,1,0,0:0:0:0:
155,367,55057,2,0,L|150:273,1,83.9999974365235
186,159,55394,1,0,0:0:0:0:
186,159,55563,2,0,P|278:125|318:195,1,167.999994873047
297,281,56068,2,0,P|345:279|390:254,1,83.9999974365235
209,209,56406,2,0,P|186:251|185:303,1,83.9999974365235
315,168,56743,2,0,P|289:127|245:100,1,83.9999974365235
80,220,57080,6,0,P|168:255|209:206,1,167.999994873047
308,84,57585,2,0,L|315:172,1,83.9999974365235
430,265,57922,2,0,L|423:181,1,83.9999974365235
292,96,58259,2,0,L|305:279,1,167.999994873047
247,345,58765,1,0,0:0:0:0:
84,266,58934,2,0,P|141:210|211:245,1,167.999994873047
247,345,59439,1,0,0:0:0:0:
316,263,59608,1,0,0:0:0:0:
187,132,59776,6,0,B|239:146|268:181|268:181|286:156|325:121,1,167.999994873047
402,54,60282,2,0,P|424:93|428:139,1,83.9999974365235
280,202,60619,2,0,P|292:158|321:123,1,83.9999974365235
466,218,60956,2,0,L|378:213,1,83.9999974365235
243,280,61293,1,0,0:0:0:0:
370,223,61462,1,0,0:0:0:0:
258,142,61630,2,0,B|203:120|203:120|93:152,1,167.999994873047
30,264,62136,2,0,L|121:237,1,83.9999974365235
258,142,62473,6,0,B|340:112|330:178|427:137,1,167.999994873047
232,64,62979,2,0,P|177:134|206:205,1,167.999994873047
306,227,63484,1,0,0:0:0:0:
125,329,63653,6,0,P|205:285|264:329,1,167.999994873047
428,337,64158,1,0,0:0:0:0:
334,357,64327,1,0,0:0:0:0:
408,243,64495,1,0,0:0:0:0:
314,263,64664,1,0,0:0:0:0:
442,346,64833,1,0,0:0:0:0:
299,253,65001,1,0,0:0:0:0:
450,176,65170,6,0,B|394:144|394:144|279:160,1,167.999994873047,4|8,0:0|0:0,0:0:0:0:
219,225,65675,2,0,P|312:263|370:205,1,167.999994873047,0|2,0:0|0:0,0:0:0:0:
376,134,66181,1,8,0:0:0:0:
236,64,66349,2,0,B|212:81|188:99|184:150|184:150|147:137|105:149,1,167.999994873047,0|2,0:0|0:0,0:0:0:0:
29,247,66855,2,0,L|118:243,1,83.9999974365235,8|0,0:0|0:0,0:0:0:0:
240,159,67192,2,0,L|244:248,1,83.9999974365235,0|2,0:0|0:0,0:0:0:0:
117,328,67529,2,0,L|206:324,1,83.9999974365235,8|0,0:0|0:0,0:0:0:0:
330,221,67866,6,0,B|354:273|334:320|334:320|369:291|406:306,1,167.999994873047,2|8,0:0|0:0,0:0:0:0:
448,166,68372,2,0,P|471:217|463:252,1,83.9999974365235
390,91,68709,2,0,P|441:68|476:76,1,83.9999974365235,2|8,0:0|0:0,0:0:0:0:
330,221,69046,6,0,B|279:249|279:249|165:223,1,167.999994873047,0|2,0:0|0:0,0:0:0:0:
82,267,69552,1,8,0:0:0:0:
48,111,69720,2,0,B|99:83|99:83|213:109,1,167.999994873047,0|2,0:0|0:0,0:0:0:0:
171,224,70226,1,8,0:0:0:0:
293,63,70394,5,0,0:0:0:0:
293,63,70479,1,0,0:0:0:0:
293,63,70563,2,0,P|303:110|294:151,1,83.9999974365235,2|0,0:0|0:0,0:0:0:0:
153,237,70900,1,8,0:0:0:0:
358,197,71068,1,0,0:0:0:0:
399,197,71152,1,0,0:0:0:0:
433,221,71236,1,0,0:0:0:0:
448,259,71320,1,0,0:0:0:0:
438,299,71405,1,2,0:0:0:0:
135,250,71574,1,8,0:0:0:0:
351,346,71743,2,0,L|266:343,1,70
97,324,71911,5,6,0:0:0:0:
121,290,71995,1,0,0:0:0:0:
135,250,72079,1,0,0:0:0:0:
136,209,72163,1,0,0:0:0:0:
123,169,72248,2,0,P|118:147|98:122,1,41.9999987182618,8|0,0:0|0:0,0:0:0:0:
269,15,72417,2,0,P|256:34|253:65,1,41.9999987182618
233,185,72585,5,0,0:0:0:0:
271,201,72669,1,0,0:0:0:0:
313,200,72753,1,2,0:0:0:0:
350,182,72838,1,0,0:0:0:0:
390,169,72922,1,8,0:0:0:0:
429,181,73006,1,0,0:0:0:0:
456,212,73090,1,0,0:0:0:0:
460,254,73175,1,0,0:0:0:0:
440,290,73259,6,0,L|380:309,1,52.5000020027161,6|0,0:0|0:0,0:0:0:0:
201,280,73428,1,0,0:0:0:0:
201,280,73512,1,0,0:0:0:0:
201,280,73597,2,0,L|195:216,1,52.5000020027161,8|0,0:0|0:0,0:0:0:0:
91,56,73765,1,0,0:0:0:0:
91,56,73849,1,0,0:0:0:0:
91,56,73934,2,0,L|85:120,1,52.5000020027161,6|0,0:0|0:0,0:0:0:0:
30,266,74102,5,0,0:0:0:0:
30,266,74186,1,0,0:0:0:0:
30,266,74271,2,0,P|64:278|115:271,1,70,8|0,0:0|0:0,0:0:0:0:
306,167,74439,2,0,P|272:155|221:162,1,70,2|0,0:0|0:0,0:0:0:0:
150,348,74608,5,8,0:0:0:0:
306,167,74776,1,0,0:0:0:0:
340,174,74860,1,0,0:0:0:0:
374,182,74944,1,8,0:0:0:0:
149,143,75113,1,0,0:0:0:0:
149,143,75198,1,0,0:0:0:0:
149,143,75282,2,0,P|141:189|162:226,1,70
286,339,75450,2,0,P|294:293|273:256,1,70
225,105,75619,2,0,B|373:95|373:95|323:156,1,210
149,143,75956,6,0,P|142:86|172:37,1,112,6|0,0:0|0:0,0:0:0:0:
334,154,76293,1,8,0:0:0:0:
74,186,76462,1,0,0:0:0:0:
89,207,76546,1,0,0:0:0:0:
111,223,76630,2,0,P|141:232|191:223,1,56
256,128,76799,1,2,0:0:0:0:
171,318,76967,1,8,0:0:0:0:
376,302,77136,5,0,0:0:0:0:
377,276,77220,1,0,0:0:0:0:
379,250,77304,2,0,L|384:137,1,112,2|0,0:0|0:0,0:0:0:0:
235,113,77642,1,8,0:0:0:0:
295,282,77810,1,0,0:0:0:0:
295,282,77894,1,0,0:0:0:0:
295,282,77979,2,0,L|227:279,1,56
64,347,78147,2,0,L|67:279,1,56,2|0,0:0|0:0,0:0:0:0:
225,134,78316,2,0,L|108:129,1,112,8|0,0:0|0:0,0:0:0:0:
302,195,78653,6,0,B|329:159|320:111|320:111|356:116|382:162,1,168,2|0,0:0|0:0,0:0:0:0:
295,282,78990,2,0,P|242:259|217:212,1,112,8|0,0:0|0:0,0:0:0:0:
371,47,79327,1,0,0:0:0:0:
394,58,79411,1,0,0:0:0:0:
413,76,79495,1,2,0:0:0:0:
225,134,79664,1,8,0:0:0:0:
451,295,79833,6,0,B|398:262|398:262|277:285,1,168,4|0,0:0|0:0,0:0:0:0:
213,354,80170,5,2,0:0:0:0:
302,195,80338,1,8,0:0:0:0:
120,198,80507,2,0,P|140:224|173:240,1,56
71,79,80675,2,0,P|38:83|8:103,1,56
198,96,80844,1,2,0:0:0:0:
209,72,80928,1,0,0:0:0:0:
210,46,81012,1,8,0:0:0:0:
302,195,81181,5,0,0:0:0:0:
290,218,81265,1,8,0:0:0:0:
288,244,81349,2,0,B|342:266|342:266|422:248,1,112,6|0,0:0|0:0,0:0:0:0:
469,119,81686,1,8,0:0:0:0:
256,126,81855,2,0,L|198:140,1,56
65,44,82024,2,0,L|79:102,1,56
104,195,82192,1,2,0:0:0:0:
340,156,82361,2,0,P|341:99|307:52,1,112,8|0,0:0|0:0,0:0:0:0:
310,240,82698,6,0,P|367:241|414:207,1,112,2|0,0:0|0:0,0:0:0:0:
256,126,83035,1,8,0:0:0:0:
116,303,83203,1,0,0:0:0:0:
112,275,83287,1,0,0:0:0:0:
109,247,83372,2,0,L|101:181,1,56
184,33,83540,2,0,L|177:88,1,56,2|0,0:0|0:0,0:0:0:0:
269,248,83709,2,0,L|256:124,1,112,8|0,0:0|0:0,0:0:0:0:
362,246,84046,6,0,B|362:284|338:311|338:311|381:348|436:307,1,168,2|0,0:0|0:0,0:0:0:0:
460,146,84383,2,0,L|472:263,1,112,8|0,0:0|0:0,0:0:0:0:
269,248,84720,5,0,0:0:0:0:
460,146,84889,1,2,0:0:0:0:
277,32,85057,1,8,0:0:0:0:
362,246,85226,6,0,B|320:251|289:241|289:241|240:260|240:260|196:255|158:267,1,188.999994232178,4|0,0:0|0:0,0:0:0:0:
135,154,85563,6,0,P|170:147|220:153,1,62.9999980773926,8|0,0:0|0:0,0:0:0:0:
105,353,85731,2,0,P|81:326|61:279,1,62.9999980773926,8|0,0:0|0:0,0:0:0:0:
293,280,85900,1,0,0:0:0:0:
293,280,85984,1,0,0:0:0:0:
293,280,86068,2,0,P|281:313|251:354,1,62.9999980773926,0|8,0:0|0:0,0:0:0:0:
177,262,86237,1,2,0:0:0:0:
296,108,86406,1,8,0:0:0:0:
57,113,86574,5,0,0:0:0:0:
77,93,86658,1,8,0:0:0:0:
103,82,86743,2,0,P|154:69|216:72,1,112,6|0,0:0|0:0,0:0:0:0:
370,253,87080,1,8,0:0:0:0:
296,108,87248,1,0,0:0:0:0:
280,131,87332,1,0,0:0:0:0:
259,149,87417,2,0,P|226:159|192:160,1,56
103,82,87585,1,2,0:0:0:0:
43,293,87754,6,0,P|23:246|31:180,1,112,8|0,0:0|0:0,0:0:0:0:
244,42,88091,2,0,P|264:89|256:155,1,112,2|0,0:0|0:0,0:0:0:0:
96,94,88428,5,8,0:0:0:0:
182,256,88597,1,0,0:0:0:0:
331,54,88765,1,0,0:0:0:0:
338,80,88849,1,0,0:0:0:0:
340,108,88934,2,0,P|343:146|338:176,1,56,2|0,0:0|0:0,0:0:0:0:
276,337,89102,2,0,P|265:277|273:213,1,112,8|0,0:0|0:0,0:0:0:0:
452,270,89439,6,0,P|476:326|396:320,1,168,2|0,0:0|0:0,0:0:0:0:
411,194,89776,2,0,B|428:140|428:140|406:82,1,112,8|0,0:0|0:0,0:0:0:0:
269,226,90113,1,0,0:0:0:0:
296,224,90197,1,0,0:0:0:0:
324,222,90281,1,2,0:0:0:0:
219,333,90450,1,8,0:0:0:0:
317,111,90619,6,0,B|261:108|261:108|188:122|188:122|125:115,1,188.999994232178,4|0,0:0|0:0,0:0:0:0:
62,183,90956,5,2,0:0:0:0:
202,25,91125,1,8,0:0:0:0:
269,226,91293,6,0,L|337:222,1,62.9999980773926
501,330,91462,2,0,L|438:326,1,62.9999980773926
325,121,91630,1,2,0:0:0:0:
356,122,91714,1,0,0:0:0:0:
387,124,91798,1,8,0:0:0:0:
276,335,91967,5,0,0:0:0:0:
244,333,92051,1,8,0:0:0:0:
213,331,92136,2,0,L|199:217,1,112,6|0,0:0|0:0,0:0:0:0:
50,114,92473,1,8,0:0:0:0:
242,35,92642,2,0,L|248:90,1,56
120,232,92810,2,0,L|113:176,1,56
109,46,92979,1,2,0:0:0:0:
315,161,93147,2,0,L|429:147,1,112,8|0,0:0|0:0,0:0:0:0:
199,287,93484,6,0,B|220:254|220:254|300:244,1,112,6|0,0:0|0:0,0:0:0:0:
126,337,93821,1,8,0:0:0:0:
260,162,93990,1,0,0:0:0:0:
287,155,94074,1,0,0:0:0:0:
314,160,94158,2,0,P|342:171|368:202,1,56
328,333,94327,2,0,L|267:341,1,56,2|0,0:0|0:0,0:0:0:0:
120,249,94495,6,0,P|106:193|123:129,1,112,8|0,0:0|0:0,0:0:0:0:
373,60,94833,2,0,P|387:116|370:180,1,112,6|0,0:0|0:0,0:0:0:0:
125,127,95170,1,8,0:0:0:0:
336,256,95338,1,0,0:0:0:0:
166,52,95507,1,6,0:0:0:0:
223,292,95675,1,0,0:0:0:0:
241,93,95844,1,8,0:0:0:0:
110,328,96012,5,2,0:0:0:0:
336,256,96181,1,8,0:0:0:0:
125,127,96349,1,2,0:0:0:0:
351,55,96518,1,8,0:0:0:0:
223,292,96686,1,2,0:0:0:0:
156,40,96855,1,0,0:0:0:0:
180,53,96939,1,8,0:0:0:0:
199,73,97024,2,0,P|212:101|214:146,1,56,2|0,0:0|0:0,0:0:0:0:
314,331,97192,5,8,0:0:0:0:
374,323,97276,1,0,0:0:0:0:
411,274,97361,1,2,0:0:0:0:
400,213,97444,1,8,0:0:0:0:
350,179,97529,1,6,0:0:0:0:
209,308,97698,5,0,0:0:0:0:
383,335,97866,1,8,0:0:0:0:
312,93,98035,2,0,P|280:117|261:149,1,62.9999980773926
400,213,98203,1,0,0:0:0:0:
427,211,98287,1,0,0:0:0:0:
455,209,98371,1,2,0:0:0:0:
262,319,98540,2,0,L|135:328,1,112,8|0,0:0|0:0,0:0:0:0:
282,147,98877,6,0,B|309:196|309:196|289:260,1,112,2|0,0:0|0:0,0:0:0:0:
133,175,99215,1,8,0:0:0:0:
292,66,99383,2,0,P|318:74|355:111,1,56
207,179,99552,2,0,P|200:152|214:101,1,56
348,197,99720,1,2,0:0:0:0:
130,357,99889,2,0,B|103:308|103:308|123:244,1,112,8|0,0:0|0:0,0:0:0:0:
207,179,100142,5,0,0:0:0:0:
207,179,100226,2,0,B|245:188|275:182|275:182|311:192|311:192|351:180|384:195,1,168,2|0,0:0|0:0,0:0:0:0:
463,131,100563,2,0,P|480:187|468:240,1,112,8|0,0:0|0:0,0:0:0:0:
241,338,100900,1,0,0:0:0:0:
237,310,100984,1,0,0:0:0:0:
234,282,101068,1,2,0:0:0:0:
372,190,101237,1,8,0:0:0:0:
114,93,101406,6,0,B|128:218|128:218|182:173,1,188.999994232178,4|0,0:0|0:0,0:0:0:0:
250,119,101743,1,2,0:0:0:0:
148,301,101911,1,8,0:0:0:0:
357,299,102080,2,0,L|278:315,1,62.9999980773926
250,119,102248,2,0,L|303:179,1,62.9999980773926
148,301,102417,1,2,0:0:0:0:
148,301,102501,1,0,0:0:0:0:
148,301,102585,2,0,L|173:224,1,62.9999980773926,8|0,0:0|0:0,0:0:0:0:
282,40,102754,5,0,0:0:0:0:
286,103,102838,1,8,0:0:0:0:
291,166,102923,2,0,L|300:289,1,112,6|0,0:0|0:0,0:0:0:0:
375,115,103259,1,8,0:0:0:0:
108,174,103428,2,0,L|153:226,1,56
277,219,103597,1,0,0:0:0:0:
304,218,103681,1,0,0:0:0:0:
331,224,103765,1,2,0:0:0:0:
155,309,103934,2,0,P|91:293|56:247,1,112,8|0,0:0|0:0,0:0:0:0:
281,82,104271,6,0,P|227:96|191:138,1,112,2|0,0:0|0:0,0:0:0:0:
331,224,104608,1,8,0:0:0:0:
404,104,104776,1,0,0:0:0:0:
250,231,104945,1,0,0:0:0:0:
222,232,105029,1,0,0:0:0:0:
194,234,105113,1,2,0:0:0:0:
428,192,105282,2,0,P|428:259|389:308,1,112,8|0,0:0|0:0,0:0:0:0:
331,224,105535,5,0,0:0:0:0:
331,224,105619,2,0,B|222:232|222:232|267:168,1,168,2|0,0:0|0:0,0:0:0:0:
301,79,105956,2,0,P|239:70|193:88,1,112,8|0,0:0|0:0,0:0:0:0:
369,140,106293,1,0,0:0:0:0:
143,167,106462,1,2,0:0:0:0:
280,350,106630,1,8,0:0:0:0:
374,119,106799,6,0,B|333:104|295:112|295:112|266:91|266:91|227:94|194:87,1,188.999994232178,6|0,0:0|0:0,0:0:0:0:
143,167,107136,6,0,P|118:143|102:111,1,62.9999980773926,8|0,0:0|0:0,0:0:0:0:
201,290,107304,2,0,P|192:323|173:353,1,62.9999980773926,8|0,0:0|0:0,0:0:0:0:
279,179,107473,2,0,P|312:169|347:171,1,62.9999980773926
201,290,107642,1,0,0:0:0:0:
201,290,107726,1,8,0:0:0:0:
201,290,107810,2,0,P|167:299|132:297,1,62.9999980773926,2|0,0:0|0:0,0:0:0:0:
34,227,107979,1,8,0:0:0:0:
327,358,108147,5,0,0:0:0:0:
331,295,108231,1,8,0:0:0:0:
336,232,108316,2,0,L|345:109,1,112,6|0,0:0|0:0,0:0:0:0:
208,37,108653,1,8,0:0:0:0:
434,46,108821,2,0,L|430:101,1,56
417,266,108990,1,0,0:0:0:0:
444,268,109074,1,0,0:0:0:0:
472,270,109158,1,2,0:0:0:0:
253,160,109327,2,0,L|244:271,1,112,8|0,0:0|0:0,0:0:0:0:
401,354,109664,5,2,0:0:0:0:
230,284,109833,1,0,0:0:0:0:
376,170,110001,1,8,0:0:0:0:
217,297,110170,1,0,0:0:0:0:
186,95,110338,1,0,0:0:0:0:
182,67,110422,1,0,0:0:0:0:
178,39,110506,1,2,0:0:0:0:
389,58,110675,2,0,L|372:188,1,112,8|0,0:0|0:0,0:0:0:0:
408,273,110928,5,0,0:0:0:0:
408,273,111012,2,0,B|360:286|324:265|324:265|283:274|283:274|217:262,1,168,2|0,0:0|0:0,0:0:0:0:
126,303,111349,2,0,P|125:234|145:192,1,112,8|0,0:0|0:0,0:0:0:0:
374,169,111686,1,0,0:0:0:0:
346,167,111770,1,0,0:0:0:0:
318,165,111854,1,2,0:0:0:0:
203,343,112024,1,8,0:0:0:0:
133,62,112192,6,0,L|148:264,1,188.999994232178,4|0,0:0|0:0,0:0:0:0:
203,343,112529,1,2,0:0:0:0:
374,169,112698,1,8,0:0:0:0:
310,358,112866,2,0,L|320:278,1,62.9999980773926
216,109,113035,2,0,L|223:171,1,62.9999980773926
411,253,113203,1,2,0:0:0:0:
411,253,113288,1,0,0:0:0:0:
411,253,113372,2,0,L|403:190,1,62.9999980773926,8|0,0:0|0:0,0:0:0:0:
183,38,113540,5,2,0:0:0:0:
142,83,113624,1,8,0:0:0:0:
146,144,113708,2,0,P|195:185|258:175,1,112,6|0,0:0|0:0,0:0:0:0:
362,67,114046,1,8,0:0:0:0:
301,255,114215,6,0,P|326:222|335:187,1,56
261,44,114383,2,0,P|277:82|302:107,1,56
463,114,114552,1,2,0:0:0:0:
241,183,114720,1,8,0:0:0:0:
412,341,114889,6,0,L|339:340,1,70
176,316,115057,5,6,0:0:0:0:
174,300,115141,1,0,0:0:0:0:
172,285,115225,1,0,0:0:0:0:
171,269,115309,1,0,0:0:0:0:
169,254,115394,1,8,0:0:0:0:
209,221,115478,1,0,0:0:0:0:
259,205,115562,1,0,0:0:0:0:
311,209,115646,1,0,0:0:0:0:
358,231,115731,6,0,P|391:244|434:248,1,52.5000020027161
328,99,115900,2,0,P|340:66|344:23,1,52.5000020027161,2|0,0:0|0:0,0:0:0:0:
195,129,116068,2,0,P|162:116|119:112,1,52.5000020027161,8|0,0:0|0:0,0:0:0:0:
225,262,116237,2,0,P|212:294|208:337,1,52.5000020027161
362,335,116406,5,6,0:0:0:0:
411,319,116490,1,0,0:0:0:0:
439,276,116574,1,0,0:0:0:0:
434,225,116658,1,0,0:0:0:0:
398,188,116743,2,0,P|366:167|320:167,1,52.5000020027161,8|0,0:0|0:0,0:0:0:0:
181,289,116911,2,0,P|215:271|238:231,1,52.5000020027161
268,115,117080,5,6,0:0:0:0:
252,66,117164,1,0,0:0:0:0:
209,38,117248,1,0,0:0:0:0:
158,43,117332,1,0,0:0:0:0:
121,79,117417,2,0,P|100:111|100:157,1,52.5000020027161,8|0,0:0|0:0,0:0:0:0:
222,296,117585,2,0,P|204:261|164:238,1,52.5000020027161,2|0,0:0|0:0,0:0:0:0:
23,170,117754,5,8,0:0:0:0:
302,250,117922,1,0,0:0:0:0:
302,250,118007,1,0,0:0:0:0:
302,250,118091,1,8,0:0:0:0:
209,38,118259,5,0,0:0:0:0:
209,38,118344,1,0,0:0:0:0:
209,38,118428,1,0,0:0:0:0:
121,79,118597,1,0,0:0:0:0:
138,170,118765,1,0,0:0:0:0:
230,187,118934,1,0,0:0:0:0:
272,104,119102,6,0,B|312:128|364:128|416:104|416:104|414:146|381:187|356:197|326:201|292:208|288:228|272:264|272:304|289:319|335:332|384:323|375:258,1,503.999984619141
472,197,121462,1,0,0:0:0:0:
250,164,121799,6,0,B|217:208|198:259|205:312|205:312|172:297|118:287|56:309|56:309|114:260|160:182|101:159|46:147|4:183|25:243,1,587.999982055665
57,309,124327,1,0,0:0:0:0:
161,185,124495,6,0,P|124:136|54:121,1,112
184,62,125001,2,0,L|299:58,1,112
295,58,125675,1,0,0:0:0:0:
400,86,125844,6,0,P|383:121|359:148,1,56
267,162,126181,2,0,P|284:197|308:224,1,56
398,273,126518,6,0,L|336:282,1,56
214,339,126855,2,0,L|276:348,1,56
399,282,127192,2,0,B|424:300|436:352|436:352|443:253|481:218|481:218,1,224
361,54,128203,5,0,0:0:0:0:
298,105,128372,2,0,L|300:228,1,112
394,285,128877,2,0,L|393:229,1,56
445,82,129215,6,0,P|411:131|347:141,1,112
361,54,129720,1,0,0:0:0:0:
249,97,129889,6,0,P|237:57|249:24,1,70
167,146,130226,2,0,P|179:186|167:219,1,70
69,268,130563,5,0,0:0:0:0:
161,325,130731,1,0,0:0:0:0:
161,211,130900,1,0,0:0:0:0:
253,268,131068,1,0,0:0:0:0:
151,210,131237,6,0,L|227:199,1,70
351,133,131574,2,0,L|275:122,1,70
131,59,131911,2,0,L|141:203,1,140
253,268,132417,1,0,0:0:0:0:
351,133,132585,6,0,L|356:63,1,70
468,177,132922,2,0,L|462:107,1,70
345,202,133259,2,0,L|350:132,1,70
473,246,133597,2,0,L|467:176,1,70
345,202,133934,5,0,0:0:0:0:
244,232,134102,1,0,0:0:0:0:
274,333,134271,1,0,0:0:0:0:
375,303,134439,1,0,0:0:0:0:
232,225,134608,1,0,0:0:0:0:
386,309,134776,1,0,0:0:0:0:
246,342,134945,2,0,P|208:347|166:340,1,70
102,219,135282,6,0,B|58:243|58:243|71:351,1,140
197,330,135788,2,0,L|180:177,1,140
181,190,136462,1,0,0:0:0:0:
204,68,136630,6,0,P|242:82|268:102,1,70
421,122,136967,2,0,P|383:136|357:156,1,70
204,176,137304,2,0,P|242:190|268:210,1,70
421,230,137642,2,0,P|383:244|357:264,1,70
162,291,137979,6,0,B|207:301|230:340|230:340|232:293|242:237|313:221|356:240|370:275|370:276,1,280
147,192,138989,5,0,0:0:0:0:
162,291,139158,1,0,0:0:0:0:
145,179,139327,2,0,L|122:25,1,140
225,37,139833,1,0,0:0:0:0:
243,173,140001,6,0,P|276:183|328:162,1,70
448,86,140338,2,0,P|415:76|363:97,1,70
195,234,140675,6,0,P|296:260|375:228,1,181.999991668702,6|2,0:0|0:0,0:0:0:0:
281,137,141181,1,0,0:0:0:0:
465,213,141349,2,0,P|462:266|438:307,1,90.9999958343508,2|0,0:0|0:0,0:0:0:0:
398,138,141686,2,0,P|445:114|492:114,1,90.9999958343508,2|0,0:0|0:0,0:0:0:0:
320,264,142024,5,2,0:0:0:0:
281,137,142192,1,0,0:0:0:0:
154,176,142361,2,0,L|136:278,1,90.9999958343508,2|0,0:0|0:0,0:0:0:0:
281,137,142698,2,0,L|201:70,1,90.9999958343508,2|0,0:0|0:0,0:0:0:0:
252,267,143035,2,0,L|349:231,1,90.9999958343508,2|0,0:0|0:0,0:0:0:0:
128,210,143372,5,2,0:0:0:0:
241,288,143540,1,0,0:0:0:0:
175,131,143709,2,0,L|273:125,1,90.9999958343508,2|0,0:0|0:0,0:0:0:0:
398,263,144046,2,0,L|392:165,1,90.9999958343508,2|0,0:0|0:0,0:0:0:0:
255,43,144383,1,2,0:0:0:0:
484,102,144552,5,0,0:0:0:0:
476,123,144636,1,0,0:0:0:0:
469,145,144720,1,2,0:0:0:0:
265,125,144889,5,0,0:0:0:0:
273,146,144973,1,0,0:0:0:0:
280,168,145057,1,2,0:0:0:0:
469,145,145226,5,0,0:0:0:0:
461,166,145310,1,0,0:0:0:0:
454,188,145394,1,2,0:0:0:0:
280,168,145563,5,0,0:0:0:0:
288,189,145647,1,0,0:0:0:0:
295,211,145731,1,2,0:0:0:0:
161,77,145900,5,0,0:0:0:0:
161,77,145984,1,0,0:0:0:0:
161,77,146068,2,0,L|126:177,1,90.9999958343508,6|0,0:0|0:0,0:0:0:0:
245,329,146406,2,0,L|214:243,1,90.9999958343508,2|0,0:0|0:0,0:0:0:0:
45,164,146743,1,2,0:0:0:0:
232,143,146911,1,0,0:0:0:0:
92,248,147080,2,0,L|122:333,1,90.9999958343508,2|0,0:0|0:0,0:0:0:0:
300,204,147417,5,2,0:0:0:0:
196,344,147585,1,0,0:0:0:0:
391,228,147754,2,0,P|393:178|366:139,1,90.9999958343508,2|0,0:0|0:0,0:0:0:0:
233,270,148091,2,0,P|275:296|322:292,1,90.9999958343508,2|0,0:0|0:0,0:0:0:0:
275,112,148428,2,0,P|230:135|210:178,1,90.9999958343508,2|0,0:0|0:0,0:0:0:0:
388,318,148765,6,0,L|391:207,1,90.9999958343508,2|0,0:0|0:0,0:0:0:0:
358,92,149102,1,2,0:0:0:0:
268,279,149271,6,0,L|271:168,1,90.9999958343508,0|2,0:0|0:0,0:0:0:0:
238,53,149608,1,0,0:0:0:0:
148,240,149776,1,2,0:0:0:0:
118,14,149945,6,0,L|124:59,2,45.4999979171754,0|0|2,0:0|0:0|0:0,0:0:0:0:
358,92,150282,6,0,L|364:137,2,45.4999979171754,0|0|2,0:0|0:0|0:0,0:0:0:0:
124,59,150619,6,0,L|130:104,2,45.4999979171754,0|0|2,0:0|0:0|0:0,0:0:0:0:
364,137,150956,6,0,L|370:182,2,45.4999979171754,0|0|2,0:0|0:0|0:0,0:0:0:0:
100,193,151293,5,0,0:0:0:0:
100,193,151377,1,0,0:0:0:0:
100,193,151462,2,0,P|159:193|196:170,1,90.9999958343508,6|0,0:0|0:0,0:0:0:0:
394,48,151799,2,0,P|335:48|298:71,1,90.9999958343508,2|0,0:0|0:0,0:0:0:0:
261,239,152136,1,2,0:0:0:0:
130,104,152304,1,0,0:0:0:0:
303,161,152473,2,0,L|401:155,1,90.9999958343508,2|0,0:0|0:0,0:0:0:0:
244,244,152810,5,2,0:0:0:0:
302,69,152979,1,0,0:0:0:0:
475,186,153147,2,0,L|384:191,1,90.9999958343508,2|0,0:0|0:0,0:0:0:0:
153,249,153484,2,0,L|243:243,1,90.9999958343508,2|0,0:0|0:0,0:0:0:0:
444,303,153821,2,0,L|353:308,1,90.9999958343508,2|0,0:0|0:0,0:0:0:0:
150,154,154158,6,0,P|138:207|153:250,1,90.9999958343508,2|0,0:0|0:0,0:0:0:0:
231,131,154495,1,2,0:0:0:0:
56,195,154664,1,0,0:0:0:0:
199,315,154833,2,0,P|252:327|295:312,1,90.9999958343508,2|0,0:0|0:0,0:0:0:0:
236,147,155170,1,2,0:0:0:0:
405,331,155338,6,0,L|412:284,1,45.4999979171754
426,196,155507,1,2,0:0:0:0:
257,282,155675,6,0,L|250:235,1,45.4999979171754
236,147,155844,1,2,0:0:0:0:
426,196,156012,6,0,L|433:149,1,45.4999979171754
447,61,156181,1,2,0:0:0:0:
236,147,156349,1,2,0:0:0:0:
416,287,156518,1,2,0:0:0:0:
273,68,156686,1,2,0:0:0:0:
155,302,156855,6,0,L|239:297,1,70,6|0,0:0|0:0,0:0:0:0:
326,143,157192,2,0,L|339:371,1,210,8|2,0:0|0:0,0:0:0:0:
113,281,157866,2,0,L|197:276,1,70,8|0,0:0|0:0,0:0:0:0:
410,193,158203,6,0,P|376:227|345:240,1,70,6|0,0:0|0:0,0:0:0:0:
178,115,158540,2,0,P|242:67|325:149,1,210,8|2,0:0|0:0,0:0:0:0:
305,321,159215,2,0,P|271:287|258:256,1,70,8|0,0:0|0:0,0:0:0:0:
152,97,159552,6,0,L|155:181,1,70,6|0,0:0|0:0,0:0:0:0:
23,319,159889,2,0,B|55:332|73:360|73:360|89:310|128:267|183:265,1,210,8|2,0:0|0:0,0:0:0:0:
336,345,160563,2,0,L|252:348,1,70,8|0,0:0|0:0,0:0:0:0:
429,280,160900,6,0,P|446:318|449:353,1,70,6|0,0:0|0:0,0:0:0:0:
317,212,161237,2,0,B|336:181|357:168|378:157|378:157|336:149|290:113|286:60,1,210,8|2,0:0|0:0,0:0:0:0:
503,259,161911,2,0,L|419:262,1,70,8|0,0:0|0:0,0:0:0:0:
317,212,162164,5,0,0:0:0:0:
317,212,162248,2,0,B|275:212|275:212|211:239|211:239|156:238,1,157.500006008148,6|0,0:0|0:0,0:0:0:0:
67,232,162585,5,8,0:0:0:0:
232,330,162754,1,2,0:0:0:0:
9,331,162922,5,8,0:0:0:0:
126,133,163091,1,2,0:0:0:0:
240,347,163259,5,8,0:0:0:0:
357,149,163428,1,2,0:0:0:0:
159,277,163597,5,8,0:0:0:0:
245,55,163765,1,2,0:0:0:0:
302,284,163934,1,8,0:0:0:0:
124,134,164102,1,2,0:0:0:0:
357,149,164271,1,8,0:0:0:0:
140,290,164439,5,8,0:0:0:0:
357,149,164608,1,8,0:0:0:0:
101,133,164776,1,8,0:0:0:0:
320,300,164945,6,0,L|399:306,1,70
212,263,165282,2,0,L|206:342,1,70
299,188,165619,2,0,L|312:42,1,140
42,227,166293,6,0,P|72:238|135:217,1,70
225,105,166630,2,0,P|200:125|187:190,1,70
239,324,166967,1,0,0:0:0:0:
311,48,167304,6,0,L|308:71,3,17.5
322,81,167473,6,0,L|325:104,3,17.5
311,114,167642,6,0,P|262:113|225:133,1,70,6|0,0:0|0:0,0:0:0:0:
57,199,167810,2,0,B|101:202|116:223|137:248|137:248|161:168|161:168|187:209|229:222|266:212,1,280
441,335,168316,6,0,B|434:300|434:300|446:253,1,70,8|0,0:0|0:0,0:0:0:0:
381,113,168484,2,0,B|388:148|388:148|376:195,1,70
253,337,168653,2,0,P|247:264|318:281,1,140
140,292,168990,6,0,L|127:200,1,70,2|0,0:0|0:0,0:0:0:0:
51,131,169158,2,0,L|38:39,1,70
163,314,169327,6,0,L|150:222,1,70
74,153,169495,2,0,L|61:61,1,70
186,336,169664,6,0,B|224:291|224:291|271:322|324:323|367:278,1,210,8|0,0:0|0:0,0:0:0:0:
404,176,170001,2,0,P|444:203|468:243,1,70
359,72,170170,2,0,P|406:62|451:74,1,70
362,282,170338,6,0,B|326:311|307:352|307:352|294:303|255:271|255:271|238:228|292:243|326:194|289:120,1,350,6|0,0:0|0:0,0:0:0:0:
145,78,170844,2,0,P|140:125|162:164,1,70
294,263,171012,2,0,P|311:195|289:122,1,140,8|0,0:0|0:0,0:0:0:0:
91,244,171349,6,0,L|-1:246,1,70
208,299,171518,2,0,L|144:365,1,70
329,255,171686,6,0,B|310:188|310:188|325:118|325:118|305:52,1,210,2|0,0:0|0:0,0:0:0:0:
142,29,172024,6,0,B|160:94|160:94|146:166|146:166|166:232,1,210
329,255,172361,6,0,L|310:187,1,70,8|0,0:0|0:0,0:0:0:0:
146,165,172529,2,0,L|166:232,1,70
362,295,172698,6,0,L|343:227,1,70
113,125,172866,2,0,L|132:193,1,70
395,335,173035,6,0,L|376:267,1,70,6|0,0:0|0:0,0:0:0:0:
275,68,173203,2,0,B|271:100|256:127|236:143|236:143|289:122|353:106|435:158,1,280
207,353,173709,6,0,P|232:324|245:273,1,70,8|0,0:0|0:0,0:0:0:0:
421,150,173877,2,0,P|383:142|332:157,1,70
138,66,174046,2,0,P|162:126|216:78,1,140
54,190,174383,6,0,P|81:217|122:234,1,70,2|0,0:0|0:0,0:0:0:0:
330,280,174552,2,0,P|303:253|262:236,1,70
120,358,174720,2,0,B|151:342|151:342|179:301,1,70
264,112,174889,2,0,B|233:128|233:128|213:156,1,70
253,325,175057,6,0,B|285:344|302:367|302:367|325:319|325:319|419:278,1,210,8|0,0:0|0:0,0:0:0:0:
421,150,175394,2,0,L|485:121,1,70
291,46,175563,2,0,L|355:74,1,70
225,121,175731,5,4,0:0:0:0:
226,127,177080,6,0,L|234:199,1,70,2|0,0:0|0:0,0:0:0:0:
117,197,177417,2,0,L|125:269,1,70
252,305,177754,2,0,P|320:287|348:350,1,140
382,83,178428,6,0,B|398:95|398:95|423:96|423:96|463:116,1,77.0000023498536,6|0,0:0|0:0,0:0:0:0:
298,25,178597,2,0,B|281:74|281:74|301:133|301:133|249:126|209:141|209:141|155:115|155:115|101:141,1,308.000009399414,0|2,0:0|0:0,0:0:0:0:
384,250,179102,6,0,B|394:216|394:216|426:177,1,77.0000023498536,12|0,0:0|0:0,0:0:0:0:
246,313,179271,2,0,B|272:280|272:280|282:246,1,77.0000023498536
281,25,179439,2,0,B|269:59|267:85|267:85|233:106|233:106|227:141|202:164,1,154.000004699707
86,326,179776,6,0,B|129:333|129:333|181:326|181:326|246:336,1,154.000004699707,6|0,0:0|0:0,0:0:0:0:
426,245,180029,2,0,B|383:238|383:238|331:245|331:245|266:235,1,154.000004699707,6|0,0:0|0:0,0:0:0:0:
217,74,180282,2,0,P|256:85|280:113,1,77.0000023498536,6|0,0:0|0:0,0:0:0:0:
136,246,180450,6,0,B|150:212|198:182|198:182|129:157|129:157|107:93,1,231.000007049561,12|0,0:0|0:0,0:0:0:0:
254,38,180788,2,0,L|281:117,1,77.0000023498536,2|0,0:0|0:0,0:0:0:0:
422,232,180956,2,0,L|397:159,1,77.0000023498536
243,283,181125,6,0,B|299:295|299:295|320:209|320:209|188:179|188:179|154:302,1,385.000011749268,6|0,0:0|0:0,0:0:0:0:
289,378,181630,6,0,B|314:375|314:375|341:380|341:380|376:371,1,77.0000023498536,2|0,0:0|0:0,0:0:0:0:
468,186,181799,2,0,B|429:206|429:206|433:263|433:263|418:329,1,154.000004699707,12|0,0:0|0:0,0:0:0:0:
304,128,182136,6,0,P|340:119|386:130,1,77.0000023498536,2|0,0:0|0:0,0:0:0:0:
154,49,182304,2,0,P|191:56|228:47,1,77.0000023498536,2|0,0:0|0:0,0:0:0:0:
292,228,182473,6,0,B|246:219|229:180|229:180|167:195|167:195|151:174|114:168|114:168|75:185,1,231.000007049561,6|0,0:0|0:0,0:0:0:0:
258,293,182810,6,0,B|281:260|281:260|292:227|292:227|354:268|408:248|408:248|421:200,1,231.000007049561,6|0,0:0|0:0,0:0:0:0:
228,47,183147,6,0,L|223:130,1,77.0000023498536,12|0,0:0|0:0,0:0:0:0:
157,317,183316,2,0,L|161:240,1,77.0000023498536
287,44,183484,6,0,L|248:135,1,77.0000023498536
97,319,183653,2,0,L|133:234,1,77.0000023498536
355,65,183821,6,0,L|287:137,1,77.0000023498536,6|0,0:0|0:0,0:0:0:0:
81,242,183990,2,0,B|146:225|146:225|196:256|196:256|248:194|316:242|311:315|235:316,1,308.000009399414,0|2,0:0|0:0,0:0:0:0:
123,111,184495,6,0,B|160:103|160:103|222:128,1,77.0000023498536,12|0,0:0|0:0,0:0:0:0:
392,266,184664,2,0,B|355:274|355:274|293:249,1,77.0000023498536
281,38,184833,2,0,B|323:114|237:114|290:192,1,154.000004699707,2|0,0:0|0:0,0:0:0:0:
50,181,185170,6,0,P|29:146|23:102,1,77.0000023498536,6|0,0:0|0:0,0:0:0:0:
139,318,185338,2,0,P|99:308|64:281,1,77.0000023498536
284,183,185507,6,0,P|323:192|358:219,1,77.0000023498536
124,149,185675,2,0,P|159:128|203:122,1,77.0000023498536,2|0,0:0|0:0,0:0:0:0:
256,300,185844,1,12,0:0:0:0:
464,54,186012,6,0,L|407:115,1,77.0000023498536
208,165,186181,2,0,L|289:183,1,77.0000023498536,2|0,0:0|0:0,0:0:0:0:
433,332,186349,2,0,L|408:252,1,77.0000023498536
457,39,186518,5,6,0:0:0:0:
256,192,186602,12,0,188372,0:0:0:0:
