osu file format v14

[General]
AudioFilename: audio.mp3
AudioLeadIn: 0
PreviewTime: 186757
Countdown: 0
SampleSet: Soft
StackLeniency: 0.7
Mode: 2
LetterboxInBreaks: 0
EpilepsyWarning: 1
WidescreenStoryboard: 1

[Editor]
Bookmarks: 54454,97600,140746,189286,210859,254005,297151,340297
DistanceSpacing: 1.2
BeatDivisor: 4
GridSize: 8
TimelineZoom: 4.099998

[Metadata]
Title:White Eternity (Soleily & Epsilon Remix)
TitleUnicode:White Eternity (Soleily & Epsilon Remix)
Artist:Nitta Emi
ArtistUnicode:新田恵海
Creator:-Luminate
Version:Lumi Spec's Destiny
Source:アストラエアの白き永遠
Tags:astralair no shiroki towa galgame eroge opening remix spectator video game japanese dnb drum and bass pop jpop electronic
BeatmapID:3087698
BeatmapSetID:1507555

[Difficulty]
HPDrainRate:6
CircleSize:4.2
OverallDifficulty:9.3
ApproachRate:9.3
SliderMultiplier:1.95
SliderTickRate:2

[Events]
//Background and Video events
0,0,"Yuki.jpg",0,0
//Break Periods
2,22295,29630
//Storyboard Layer 0 (Background)
//Storyboard Layer 1 (Fail)
//Storyboard Layer 2 (Pass)
//Storyboard Layer 3 (Foreground)
//Storyboard Layer 4 (Overlay)
//Storyboard Sound Samples

[TimingPoints]
522,337.078651685393,4,2,5,45,1,0
859,-100,4,2,1,45,0,0
16701,-100,4,2,2,40,0,0
22095,-100,4,2,5,50,0,0
32207,-100,4,2,1,30,0,0
41308,-100,4,2,1,15,0,0
41477,-100,4,2,1,30,0,0
45184,-100,4,2,1,15,0,0
45353,-100,4,2,1,30,0,0
45521,-100,4,2,1,15,0,0
45690,-100,4,2,1,30,0,0
45859,-100,4,2,1,15,0,0
46027,-100,4,2,1,30,0,0
46196,-100,4,2,1,15,0,0
46364,-100,4,2,1,30,0,0
49398,-100,4,2,1,15,0,0
49566,-100,4,2,1,30,0,0
49735,-100,4,2,1,15,0,0
49904,-100,4,2,1,30,0,0
50072,-100,4,2,1,15,0,0
50241,-100,4,2,1,30,0,0
53780,-100,4,2,1,35,0,0
54117,-100,4,2,1,40,0,0
54454,-100,4,2,5,40,0,0
54960,-100,4,2,1,40,0,0
65241,-100,4,2,1,45,0,0
65578,-100,4,2,1,25,0,0
66083,-100,4,2,1,45,0,0
66252,-100,4,2,1,30,0,0
66589,-100,4,2,1,45,0,0
66926,-100,4,2,1,30,0,0
67432,-100,4,2,1,45,0,0
67600,-100,4,2,1,30,0,0
67937,-100,4,2,1,45,0,0
68274,-100,4,2,1,35,0,0
68948,-100,4,2,1,25,0,0
69117,-100,4,2,1,45,0,0
69623,-100,4,2,1,35,0,0
70128,-100,4,2,1,50,0,0
70297,-100,4,2,1,35,0,0
70634,-100,4,2,1,60,0,0
72993,-100,4,2,1,65,0,0
73330,-100,4,2,1,70,0,0
75184,-100,4,2,2,30,0,0
75690,-100,4,2,1,70,0,0
76027,-83.3333333333333,4,2,2,80,0,1
78724,-90.9090909090909,4,2,2,80,0,1
79904,-83.3333333333333,4,2,2,80,0,1
81420,-90.9090909090909,4,2,2,80,0,1
81926,-76.9230769230769,4,2,2,80,0,1
82432,-83.3333333333333,4,2,2,80,0,1
84117,-71.4285714285714,4,2,2,80,0,1
84623,-76.9230769230769,4,2,2,80,0,1
85297,-83.3333333333333,4,2,2,80,0,1
85802,-76.9230769230769,4,2,2,80,0,1
86814,-83.3333333333333,4,2,2,80,0,1
87825,-76.9230769230769,4,2,2,80,0,1
88162,-83.3333333333333,4,2,2,80,0,1
89510,-90.9090909090909,4,2,2,80,0,1
90690,-83.3333333333333,4,2,2,80,0,1
94904,-76.9230769230769,4,2,2,80,0,1
96757,-83.3333333333333,4,2,2,80,0,1
97095,-76.9230769230769,4,2,2,80,0,1
97432,-74.0740740740741,4,2,2,70,0,0
97600,-90.9090909090909,4,2,5,75,0,1
97769,-90.9090909090909,4,2,3,75,0,1
100634,-83.3333333333333,4,2,3,75,0,1
101477,-83.3333333333333,4,2,10,75,0,1
101519,-83.3333333333333,4,2,3,75,0,1
112263,-83.3333333333333,4,2,10,75,0,1
112305,-83.3333333333333,4,2,3,75,0,1
115128,-90.9090909090909,4,2,3,65,0,1
117656,-100,4,2,2,60,0,0
117825,-100,4,2,2,40,0,0
118836,-100,4,2,10,60,0,0
119173,-100,4,2,1,30,0,0
119342,-100,4,2,0,30,0,0
140746,-95.2380952380952,4,2,1,45,0,0
143443,-90.9090909090909,4,2,1,45,0,0
143611,-95.2380952380952,4,2,1,45,0,0
150859,-90.9090909090909,4,2,1,50,0,0
151533,-95.2380952380952,4,2,1,55,0,0
156252,-100,4,2,1,55,0,0
156926,-90.9090909090909,4,2,1,60,0,0
158274,-86.9565217391304,4,2,1,65,0,0
162319,-90.9090909090909,4,2,1,65,0,0
162993,-90.9090909090909,4,2,1,70,0,0
163668,-90.9090909090909,4,2,1,75,0,0
165016,-90.9090909090909,4,2,1,65,0,0
167038,-90.9090909090909,4,2,6,65,0,0
167291,-90.9090909090909,4,2,1,5,0,0
167375,-90.9090909090909,4,2,1,45,0,0
167713,-37.037037037037,4,2,7,70,0,1
167755,-90.9090909090909,4,2,7,70,0,1
168387,-90.9090909090909,4,2,7,70,0,1
169735,-40,4,2,7,70,0,1
170409,-37.037037037037,4,2,7,70,0,1
170451,-90.9090909090909,4,2,7,70,0,1
171083,-90.9090909090909,4,2,7,70,0,1
171757,-35.7142857142857,4,2,7,70,0,1
172095,-35.7142857142857,4,2,30,70,0,1
172263,-35.7142857142857,4,2,7,70,0,1
172432,-76.9230769230769,4,2,7,70,0,1
173106,-34.4827586206897,4,2,7,70,0,1
173148,-90.9090909090909,4,2,7,70,0,1
173780,-90.9090909090909,4,2,7,70,0,1
175128,-35.7142857142857,4,2,7,70,0,1
175465,-90.9090909090909,4,2,7,70,0,1
175802,-90.9090909090909,4,2,1,70,0,0
176139,-90.9090909090909,4,2,1,35,0,0
176477,-90.9090909090909,4,2,1,35,0,0
177151,-90.9090909090909,4,2,1,50,0,0
178499,-37.037037037037,4,2,8,70,0,1
178541,-90.9090909090909,4,2,8,70,0,1
179173,-90.9090909090909,4,2,8,70,0,1
180521,-34.4827586206897,4,2,8,70,0,1
181196,-37.037037037037,4,2,8,70,0,1
181238,-90.9090909090909,4,2,8,70,0,1
181870,-90.9090909090909,4,2,8,70,0,1
182544,-33.3333333333333,4,2,8,70,0,1
182881,-35.7142857142857,4,2,30,70,0,1
183050,-35.7142857142857,4,2,8,70,0,1
183218,-90.9090909090909,4,2,8,70,0,1
183387,-90.9090909090909,4,2,7,70,0,1
183892,-35.7142857142857,4,2,8,70,0,1
184566,-90.9090909090909,4,2,8,70,0,1
185241,-90.9090909090909,4,2,7,70,0,1
185915,-90.9090909090909,4,2,8,70,0,1
186589,-90.9090909090909,4,2,5,70,0,0
186757,-90.9090909090909,4,2,1,35,0,0
188274,-90.9090909090909,4,2,1,50,0,0
189286,-83.3333333333333,4,2,2,80,0,1
194679,-52.6315789473684,4,2,2,80,0,1
195016,-83.3333333333333,4,2,2,80,0,1
202769,-52.6315789473684,4,2,2,80,0,1
203106,-83.3333333333333,4,2,2,80,0,1
210690,-90.9090909090909,4,2,2,70,0,0
210859,-83.3333333333333,4,2,5,80,0,1
210943,-83.3333333333333,4,2,3,75,0,1
211364,-83.3333333333333,4,2,3,75,0,1
211533,-83.3333333333333,4,2,3,75,0,1
212038,-83.3333333333333,4,2,3,75,0,1
212207,-83.3333333333333,4,2,3,75,0,1
214735,-83.3333333333333,4,2,10,75,0,1
214777,-83.3333333333333,4,2,3,75,0,1
225521,-83.3333333333333,4,2,10,75,0,1
225564,-83.3333333333333,4,2,3,75,0,1
230915,-90.9090909090909,4,2,2,70,0,0
231083,-90.9090909090909,4,2,1,45,0,0
231420,-83.3333333333333,4,2,1,45,0,0
232432,-90.9090909090909,4,2,1,40,0,0
251308,-90.9090909090909,4,2,1,40,0,0
252319,-90.9090909090909,4,2,1,45,0,0
252488,-90.9090909090909,4,2,1,50,0,0
252656,-90.9090909090909,4,2,1,60,0,0
252993,-90.9090909090909,4,2,1,55,0,0
253330,-90.9090909090909,4,2,1,50,0,0
253668,-90.9090909090909,4,2,1,40,0,0
254005,-90.9090909090909,4,2,5,40,0,0
254173,-90.9090909090909,4,2,1,30,0,0
264117,-90.9090909090909,4,2,1,45,0,0
264791,-90.9090909090909,4,2,5,50,0,0
264960,-90.9090909090909,4,2,1,50,0,0
270184,-90.9090909090909,4,2,1,60,0,0
274061,-90.9090909090909,4,2,2,40,0,0
275241,-90.9090909090909,4,2,3,60,0,0
275578,-90.9090909090909,4,2,1,75,0,1
275662,-90.9090909090909,4,2,3,75,0,0
277600,-90.9090909090909,4,2,1,75,0,0
278274,-90.9090909090909,4,2,3,75,0,0
279454,-90.9090909090909,4,2,1,70,0,1
279538,-90.9090909090909,4,2,1,70,0,0
280128,-90.9090909090909,4,2,1,70,0,1
280213,-90.9090909090909,4,2,3,70,0,0
283668,-90.9090909090909,4,2,1,70,0,1
283752,-90.9090909090909,4,2,1,70,0,0
284847,-90.9090909090909,4,2,1,70,0,1
284932,-90.9090909090909,4,2,1,70,0,0
285521,-90.9090909090909,4,2,1,70,0,1
285606,-90.9090909090909,4,2,1,70,0,0
286533,-90.9090909090909,4,2,3,70,0,0
287544,-76.9230769230769,4,2,1,70,0,0
288892,-90.9090909090909,4,2,1,5,0,0
289061,-90.9090909090909,4,2,1,70,0,1
289145,-90.9090909090909,4,2,1,70,0,0
289398,-90.9090909090909,4,2,3,70,0,0
289735,-40,4,2,1,70,0,0
290241,-90.9090909090909,4,2,1,70,0,1
290325,-90.9090909090909,4,2,1,70,0,0
290915,-90.9090909090909,4,2,1,70,0,1
290999,-90.9090909090909,4,2,1,70,0,0
291757,-90.9090909090909,4,2,1,70,0,1
291842,-90.9090909090909,4,2,1,70,0,0
297151,-83.3333333333333,4,2,5,70,0,1
297319,-83.3333333333333,4,2,2,70,0,1
307937,-83.3333333333333,4,2,5,70,0,1
308190,-83.3333333333333,4,2,2,70,0,1
317375,-90.9090909090909,4,2,2,40,0,0
318724,-90.9090909090909,4,2,5,60,0,0
318808,-90.9090909090909,4,2,2,60,0,0
319566,-90.9090909090909,4,2,2,60,0,0
325465,-83.3333333333333,4,2,2,60,0,0
329510,-90.9090909090909,4,2,2,55,0,0
340297,-90.9090909090909,4,2,5,50,0,0
340465,-90.9090909090909,4,2,2,50,0,0
351083,-90.9090909090909,4,2,2,40,0,0
356477,-90.9090909090909,4,2,2,35,0,0

[Colours]
Combo1 : 241,155,249
Combo2 : 188,121,255
Combo3 : 57,164,242
Combo4 : 204,223,225

[HitObjects]
96,288,522,6,0,L|312:288,2,195,4|2|8,0:0|0:0|0:1,0:0:0:0:
328,200,1533,1,2,0:0:0:0:
72,288,1870,6,0,L|64:64,1,195,2|8,0:0|0:0,0:0:0:0:
260,93,2544,2,0,L|36:93,1,195,10|0,0:1|0:0,0:0:0:0:
368,288,3218,6,0,L|152:288,2,195,10|0|8,0:0|0:0|0:1,0:0:0:0:
136,200,4229,1,2,0:0:0:0:
392,288,4566,6,0,L|400:64,1,195,2|8,0:0|0:0,0:0:0:0:
204,93,5240,2,0,L|428:93,1,195,8|10,0:1|0:0,0:0:0:0:
272,152,5746,1,8,0:1:0:0:
400,224,5915,6,0,L|168:224,2,195,10|2|8,0:0|0:0|0:1,0:0:0:0:
176,328,6926,1,2,0:0:0:0:
400,224,7263,6,0,L|408:16,1,195,2|8,0:0|0:0,0:0:0:0:
184,224,7937,2,0,L|176:0,1,195,8|0,0:1|0:0,0:0:0:0:
400,320,8611,6,0,L|168:320,2,195,10|0|8,0:0|0:0|0:1,0:0:0:0:
176,208,9623,1,2,0:0:0:0:
400,112,9960,6,0,L|176:112,1,195,2|8,0:0|0:0,0:0:0:0:
424,232,10634,1,8,0:1:0:0:
200,320,10971,1,8,0:0:0:0:
328,280,11139,2,8,L|328:192,1,48.75,8|8,0:1|0:1,0:1:0:0:
88,168,11308,6,0,L|312:168,2,195,14|0|8,0:0|0:0|0:1,0:0:0:0:
336,304,12319,1,2,0:0:0:0:
80,344,12656,6,0,L|296:344,1,195,2|8,0:0|0:0,0:0:0:0:
80,336,13330,2,0,L|72:104,1,195,8|0,0:1|0:0,0:0:0:0:
344,96,14005,6,0,L|128:96,2,195,10|0|8,0:0|0:0|0:1,0:0:0:0:
112,256,15016,1,2,0:0:0:0:
352,344,15353,6,0,L|360:120,1,195,2|8,0:0|0:0,0:0:0:0:
104,144,16027,1,8,0:1:0:0:
360,136,16364,1,8,0:0:0:0:
232,112,16533,1,8,0:1:0:0:
472,344,16701,6,0,L|456:256,1,48.75,14|0,0:0|0:0,0:0:0:0:
376,304,16870,2,0,L|360:232,1,48.75,0|0,0:0|0:0,0:0:0:0:
272,256,17038,2,0,L|264:184,1,48.75,0|0,0:0|0:0,0:0:0:0:
176,208,17207,2,0,L|168:120,1,48.75,0|0,0:0|0:0,0:0:0:0:
368,248,17375,2,0,L|376:160,1,48.75,8|0,0:1|0:0,0:0:0:0:
288,184,17544,2,0,L|296:96,1,48.75,0|0,0:0|0:0,0:0:0:0:
208,136,17713,2,0,L|216:56,1,48.75,0|0,0:0|0:0,0:0:0:0:
124,95,17881,2,0,L|132:23,1,48.75,0|0,0:0|0:0,0:0:0:0:
200,256,18050,6,0,L|104:256,1,48.75,0|0,0:0|0:0,0:0:0:0:
56,208,18218,2,0,L|128:208,1,48.75,0|0,0:0|0:0,0:0:0:0:
192,200,18387,2,0,L|200:104,1,48.75,8|0,0:0|0:0,0:0:0:0:
120,144,18555,2,0,L|128:64,1,48.75,0|0,0:0|0:0,0:0:0:0:
312,320,18724,2,0,L|328:232,1,48.75,8|0,0:1|0:0,0:0:0:0:
400,288,18892,2,0,L|416:224,1,48.75,0|0,0:0|0:0,0:0:0:0:
320,224,19061,2,0,L|312:160,1,48.75,0|0,0:0|0:0,0:0:0:0:
232,192,19229,2,0,L|224:120,1,48.75,0|0,0:0|0:0,0:0:0:0:
440,128,19398,6,0,L|368:120,1,48.75,14|0,0:0|0:0,0:0:0:0:
320,80,19566,2,0,L|400:72,1,48.75,0|0,0:0|0:0,0:0:0:0:
440,128,19735,2,0,L|376:120,1,48.75,0|0,0:0|0:0,0:0:0:0:
320,80,19904,2,0,L|392:72,1,48.75,0|0,0:0|0:0,0:0:0:0:
208,312,20072,2,0,L|200:240,1,48.75,8|0,0:1|0:0,0:0:0:0:
280,256,20241,2,0,L|272:184,1,48.75,0|0,0:0|0:0,0:0:0:0:
352,184,20409,1,8,0:0:0:0:
120,104,20578,1,8,0:1:0:0:
352,64,20746,6,0,L|480:64,2,97.5,14|0|0,0:0|0:0|0:0,0:0:0:0:
192,264,21252,1,2,0:0:0:0:
328,328,21420,2,0,L|336:256,1,48.75,0|0,3:0|3:0,3:0:0:0:
256,272,21589,2,0,L|248:200,1,48.75,0|0,3:0|3:0,3:0:0:0:
328,208,21757,1,0,3:0:0:0:
192,168,21926,1,0,0:1:0:0:
464,104,22095,5,4,0:0:0:0:
256,192,30184,12,0,31870,0:0:0:0:
144,200,32207,5,2,0:0:0:0:
376,200,32544,1,2,0:0:0:0:
104,328,32881,6,0,P|72:256|128:136,1,195,4|0,0:0|0:0,0:0:0:0:
304,112,33555,1,0,0:0:0:0:
112,96,33892,1,2,0:0:0:0:
256,328,34061,6,0,P|416:280|472:136,1,292.5,2|2,0:0|0:0,0:0:0:0:
216,264,34904,2,0,L|208:24,1,195,2|0,0:0|0:0,0:0:0:0:
440,48,35578,6,0,L|200:48,1,195,2|0,0:0|0:0,0:0:0:0:
360,176,36083,2,0,L|152:176,1,195,2|0,0:0|0:0,0:0:0:0:
424,336,36757,6,0,P|496:208|392:96,1,292.5,2|0,0:0|0:0,0:0:0:0:
200,88,37600,1,0,0:0:0:0:
416,40,37937,1,0,0:0:0:0:
200,320,38274,6,0,L|0:272,2,195,2|0|0,0:0|0:0|0:0,0:0:0:0:
400,328,39286,1,0,0:0:0:0:
248,328,39454,6,0,P|168:256|264:120,1,292.5,2|0,0:0|0:0,0:0:0:0:
472,64,40297,2,0,L|264:64,1,195,2|0,0:0|0:0,0:0:0:0:
40,272,40971,6,0,L|264:272,1,195,2|0,0:0|0:0,0:0:0:0:
464,272,41477,2,0,B|352:272|352:272|288:176|288:176|400:176|400:176|288:176|288:176|352:73|352:73|480:72,1,682.5,2|0,0:0|0:0,0:0:0:0:
272,160,42993,1,2,0:0:0:0:
464,232,43330,1,2,0:0:0:0:
240,320,43668,6,0,L|24:288,2,195,2|0|0,0:0|0:0|0:0,0:0:0:0:
64,320,44679,1,0,0:0:0:0:
200,320,44847,6,0,P|280:224|184:112,1,292.5,2|0,0:0|0:0,0:0:0:0:
384,96,45690,2,0,L|400:328,1,195,0|0,0:0|0:0,0:0:0:0:
144,320,46364,6,0,L|384:320,1,195,2|0,0:0|0:0,0:0:0:0:
208,216,46870,2,0,L|440:216,1,195,2|0,0:0|0:0,0:0:0:0:
112,48,47544,6,0,P|272:192|104:336,1,487.5,2|0,0:0|0:0,0:0:0:0:
384,328,49061,6,0,L|392:112,1,195,2|0,0:0|0:0,0:0:0:0:
272,128,49566,1,2,0:0:0:0:
488,72,49904,1,2,0:0:0:0:
248,352,50241,6,0,P|104:184|288:32,1,487.5,2|0,0:0|0:0,0:0:0:0:
376,120,51252,1,0,0:0:0:0:
264,216,51420,1,2,0:0:0:0:
376,272,51589,1,0,0:0:0:0:
200,344,51757,6,0,P|104:304|80:208,1,195,2|0,0:0|0:0,0:0:0:0:
256,256,52263,2,0,P|360:192|360:96,1,195,2|0,0:0|0:0,0:0:0:0:
192,24,52769,6,0,P|136:104|208:160,1,195,2|0,0:0|0:0,0:0:0:0:
448,176,53443,1,2,0:0:0:0:
248,240,53780,1,2,0:0:0:0:
448,320,54117,1,2,0:0:0:0:
50,312,54454,5,4,0:0:0:0:
43,181,54791,1,0,0:0:0:0:
308,313,54960,2,0,P|356:284|286:190,1,195,2|0,0:0|0:0,0:0:0:0:
170,132,55465,1,2,0:0:0:0:
431,312,55802,5,0,0:0:0:0:
403,238,55971,1,0,0:0:0:0:
356,175,56139,1,0,0:0:0:0:
285,140,56308,1,0,0:0:0:0:
157,113,56477,1,2,0:0:0:0:
286,93,56645,1,0,0:0:0:0:
422,76,56814,1,2,0:0:0:0:
286,93,56982,1,0,0:0:0:0:
111,317,57151,6,0,P|31:221|127:109,1,292.5,2|0,0:0|0:0,0:0:0:0:
396,202,57993,1,0,0:0:0:0:
116,346,58330,2,0,L|112:-55,1,390,2|0,0:0|0:0,0:0:0:0:
268,136,59342,1,0,0:0:0:0:
111,169,59510,2,0,L|109:57,1,97.5,2|0,0:0|0:0,0:0:0:0:
412,262,59847,6,0,P|402:198|266:131,1,195,2|0,0:0|0:0,0:0:0:0:
148,99,60353,1,2,0:0:0:0:
447,48,60690,1,2,0:0:0:0:
43,56,61027,6,0,L|32:279,1,195,2|0,0:0|0:0,0:0:0:0:
171,211,61533,1,0,0:0:0:0:
327,171,61701,2,0,P|382:120|300:53,1,195,2|0,0:0|0:0,0:0:0:0:
42,43,62207,1,2,0:0:0:0:
305,135,62544,5,2,0:0:0:0:
53,283,62881,2,0,L|42:167,1,97.5,0|2,0:0|0:0,0:0:0:0:
165,188,63218,2,0,L|154:72,1,97.5
310,64,63555,1,0,0:0:0:0:
152,223,63724,6,0,P|93:191|160:97,1,195,2|0,0:0|0:0,0:0:0:0:
306,58,64229,1,2,0:0:0:0:
139,97,64398,1,0,0:0:0:0:
306,58,64566,1,2,0:0:0:0:
315,145,64735,1,0,0:0:0:0:
37,209,64904,1,2,0:0:0:0:
169,239,65072,1,0,0:0:0:0:
466,158,65241,5,14,0:0:0:0:
185,253,65578,1,8,0:1:0:0:
323,209,65746,1,2,0:0:0:0:
41,138,66083,1,8,0:0:0:0:
31,242,66252,1,10,0:1:0:0:
306,350,66589,5,10,0:0:0:0:
382,317,66757,1,0,0:0:0:0:
411,242,66926,1,10,0:1:0:0:
374,169,67095,1,0,0:0:0:0:
290,142,67263,1,2,0:0:0:0:
143,95,67432,1,10,0:0:0:0:
290,142,67600,1,8,0:1:0:0:
302,237,67769,1,0,0:0:0:0:
154,296,67937,6,0,P|96:255|180:192,1,195,10|8,0:0|0:1,0:0:0:0:
329,146,68443,1,2,0:0:0:0:
163,89,68780,1,2,0:0:0:0:
280,80,68948,1,8,0:1:0:0:
441,91,69117,6,0,L|451:314,1,195,2|8,0:0|0:0,0:0:0:0:
328,251,69623,1,8,0:1:0:0:
185,308,69791,2,0,L|403:274,1,195,2|0,0:0|0:0,0:0:0:0:
227,225,70297,1,8,0:1:0:0:
377,196,70465,1,8,0:0:0:0:
435,186,70550,1,8,0:1:0:0:
231,60,70634,5,14,0:0:0:0:
101,102,70802,1,0,0:0:0:0:
159,117,70887,1,0,0:0:0:0:
216,134,70971,1,8,0:1:0:0:
376,89,71139,1,8,0:0:0:0:
224,140,71308,1,0,0:0:0:0:
220,188,71392,1,0,0:0:0:0:
217,237,71477,1,8,0:0:0:0:
362,283,71645,1,8,0:1:0:0:
214,244,71814,1,8,0:0:0:0:
160,254,71898,1,0,0:0:0:0:
344,368,71982,5,14,0:0:0:0:
395,358,72066,1,0,0:0:0:0:
426,318,72150,1,0,0:0:0:0:
424,267,72234,1,0,0:0:0:0:
388,228,72319,1,10,0:1:0:0:
337,225,72403,1,0,0:0:0:0:
178,199,72488,2,0,L|170:112,1,48.75,8|0,0:0|0:0,0:0:0:0:
249,125,72656,2,8,L|241:38,1,48.75,0|0,0:0|0:0,0:0:0:0:
165,73,72825,2,0,L|157:-14,1,48.75,8|0,0:0|0:0,0:0:0:0:
320,88,72993,1,10,0:1:0:0:
386,88,73078,1,0,0:0:0:0:
185,280,73162,1,0,0:0:0:0:
120,279,73247,1,0,0:0:0:0:
322,314,73330,5,14,0:0:0:0:
310,261,73415,1,0,0:0:0:0:
278,227,73499,1,0,0:0:0:0:
229,205,73583,1,0,0:0:0:0:
47,158,73668,1,8,0:1:0:0:
183,158,73836,1,8,0:0:0:0:
446,61,74005,1,14,3:2:0:0:
386,61,74090,1,0,3:0:0:0:
234,214,74173,1,0,3:0:0:0:
294,214,74258,1,0,3:0:0:0:
457,306,74342,1,8,3:1:0:0:
150,347,74510,6,0,L|140:254,1,48.75,10|0,0:0|0:0,0:0:0:0:
226,295,74679,2,0,L|216:202,1,48.75,0|0,0:0|0:0,0:0:0:0:
301,255,74847,2,0,L|291:162,1,48.75,0|0,0:0|0:0,0:0:0:0:
216,172,75016,1,0,0:0:0:0:
77,171,75184,1,2,0:0:0:0:
224,188,75353,1,8,0:3:0:0:
227,236,75437,1,8,0:3:0:0:
230,284,75521,1,8,0:3:0:0:
480,89,75690,1,4,0:3:0:0:
44,104,76027,6,0,L|31:251,1,116.999996429443,14|0,0:0|0:0,0:0:0:0:
320,156,76364,1,8,0:1:0:0:
167,149,76533,2,0,L|157:253,1,58.4999982147217,2|0,0:0|0:0,0:0:0:0:
344,246,76701,2,0,L|228:246,1,116.999996429443,10|8,0:0|0:0,0:0:0:0:
480,319,77038,2,0,L|485:242,1,58.4999982147217,8|0,0:1|0:0,0:0:0:0:
291,323,77207,2,0,L|200:324,1,58.4999982147217,2|0,0:0|0:0,0:0:0:0:
44,104,77375,6,0,L|31:251,1,116.999996429443,10|0,0:0|0:0,0:0:0:0:
309,221,77713,2,0,L|193:221,1,116.999996429443,8|2,0:1|0:0,0:0:0:0:
469,238,78050,2,0,L|378:238,1,58.4999982147217,10|0,0:0|0:0,0:0:0:0:
203,239,78218,1,8,0:0:0:0:
469,238,78387,2,0,L|479:354,1,116.999996429443,10|0,0:1|0:0,0:0:0:0:
203,146,78724,6,0,L|330:146,1,107.25000327301,14|0,0:0|0:0,0:0:0:0:
150,75,79061,1,8,0:1:0:0:
311,147,79229,1,2,0:0:0:0:
318,200,79314,1,0,0:0:0:0:
325,252,79398,1,10,0:0:0:0:
172,254,79566,1,8,0:0:0:0:
437,255,79735,1,8,0:1:0:0:
160,254,79904,6,0,P|102:234|116:74,1,233.999992858887,14|8,0:0|0:0,0:0:0:0:
403,63,80409,1,8,0:1:0:0:
244,35,80578,1,2,0:0:0:0:
403,63,80746,1,10,0:0:0:0:
142,101,80915,1,8,0:0:0:0:
288,103,81083,1,8,0:1:0:0:
21,179,81252,1,10,0:0:0:0:
80,181,81336,1,8,0:1:0:0:
287,245,81420,6,0,L|300:119,1,107.25000327301,14|0,0:0|0:0,0:0:0:0:
150,101,81757,1,8,0:1:0:0:
408,72,81926,2,0,L|337:58,1,63.3749970989229,2|0,0:0|0:0,0:0:0:0:
146,194,82095,2,0,L|75:180,2,63.3749970989229,10|0|8,0:0|0:0|0:0,0:0:0:0:
456,181,82432,2,0,L|310:172,1,116.999996429443,8|2,0:1|0:0,0:0:0:0:
81,324,82769,6,0,L|68:197,1,116.999996429443,10|0,0:0|0:0,0:0:0:0:
235,182,83106,1,8,0:1:0:0:
61,207,83274,1,2,0:0:0:0:
68,147,83358,1,0,0:0:0:0:
99,96,83442,1,10,0:0:0:0:
149,62,83526,1,0,0:0:0:0:
208,52,83611,1,8,0:0:0:0:
63,33,83780,1,8,0:1:0:0:
209,57,83948,1,2,0:0:0:0:
475,147,84117,6,0,L|308:148,1,136.499995834351,14|0,0:0|0:0,0:0:0:0:
53,150,84454,1,8,0:1:0:0:
326,284,84623,2,0,L|462:283,1,126.749994197846,2|10,0:0|0:0,0:0:0:0:
178,218,84960,2,0,L|42:217,1,126.749994197846,8|8,0:0|0:1,0:0:0:0:
323,139,85297,6,0,L|331:285,1,116.999996429443,14|0,0:0|0:0,0:0:0:0:
52,271,85634,1,8,0:1:0:0:
335,333,85802,2,0,L|461:333,1,126.749994197846,8|8,0:1|0:0,0:0:0:0:
192,258,86139,2,0,L|186:183,1,63.3749970989229,10|8,0:0|0:1,0:0:0:0:
334,141,86308,1,10,0:0:0:0:
178,138,86477,1,8,0:1:0:0:
437,55,86645,1,8,0:1:0:0:
378,54,86729,1,8,0:1:0:0:
149,87,86814,6,0,L|21:88,1,116.999996429443,14|0,0:0|0:0,0:0:0:0:
314,188,87151,1,8,0:1:0:0:
166,186,87319,2,0,L|161:262,1,58.4999982147217,2|0,0:0|0:0,0:0:0:0:
313,282,87488,2,0,L|309:352,1,58.4999982147217,10|0,0:0|0:0,0:0:0:0:
230,359,87656,1,2,0:0:0:0:
456,285,87825,2,0,L|460:215,1,63.3749970989229,8|0,0:1|0:0,0:0:0:0:
309,128,87993,2,0,L|214:127,1,63.3749970989229,2|0,0:0|0:0,0:0:0:0:
56,221,88162,6,0,L|178:222,1,116.999996429443,10|0,0:0|0:0,0:0:0:0:
456,221,88499,2,0,L|334:222,1,116.999996429443,8|2,0:1|0:0,0:0:0:0:
56,220,88836,2,0,L|52:150,1,58.4999982147217,10|0,0:0|0:0,0:0:0:0:
218,114,89005,1,8,0:0:0:0:
469,140,89173,2,0,L|339:139,1,116.999996429443,8|2,0:1|0:0,0:0:0:0:
48,332,89510,6,0,L|59:200,1,107.25000327301,14|0,0:0|0:0,0:0:0:0:
216,205,89847,1,8,0:1:0:0:
57,224,90016,1,2,0:0:0:0:
50,170,90100,1,0,0:0:0:0:
43,116,90184,1,10,0:0:0:0:
341,89,90353,1,8,0:0:0:0:
182,108,90522,1,8,0:1:0:0:
479,232,90690,6,0,P|474:174|333:71,1,233.999992858887,14|8,0:0|0:0,0:0:0:0:
192,91,91196,1,8,0:1:0:0:
346,72,91365,1,2,0:0:0:0:
52,196,91533,1,10,0:0:0:0:
202,175,91702,1,8,0:0:0:0:
476,229,91870,1,8,0:1:0:0:
202,175,92038,1,8,0:0:0:0:
142,177,92123,1,8,0:1:0:0:
356,128,92207,6,0,L|492:130,1,116.999996429443,14|0,0:0|0:0,0:0:0:0:
205,289,92544,1,8,0:1:0:0:
352,291,92712,1,2,0:0:0:0:
340,233,92797,1,0,0:0:0:0:
306,185,92881,1,10,0:0:0:0:
257,152,92965,1,0,0:0:0:0:
198,146,93049,1,8,0:0:0:0:
476,71,93218,1,8,0:1:0:0:
332,66,93387,1,10,0:0:0:0:
58,137,93555,6,0,L|46:258,1,116.999996429443,14|0,0:0|0:0,0:0:0:0:
318,233,93892,2,0,L|330:354,1,116.999996429443,8|2,0:1|0:0,0:0:0:0:
183,344,94229,1,10,0:0:0:0:
241,336,94314,1,0,0:0:0:0:
298,329,94398,1,8,0:0:0:0:
30,136,94566,1,8,0:1:0:0:
181,108,94735,1,10,0:0:0:0:
471,151,94904,6,0,L|303:150,1,126.749994197846,14|0,0:0|0:0,0:0:0:0:
102,357,95241,2,0,L|112:277,1,63.3749970989229,8|0,0:1|0:0,0:0:0:0:
254,285,95409,2,0,L|327:285,1,63.3749970989229,10|0,0:0|0:0,0:0:0:0:
472,172,95578,6,0,L|304:171,1,126.749994197846,14|0,0:0|0:0,0:0:0:0:
43,82,95915,2,0,L|35:144,1,63.3749970989229,8|0,0:1|0:0,0:0:0:0:
197,208,96083,2,0,L|101:207,1,63.3749970989229,10|0,0:0|0:0,0:0:0:0:
318,212,96252,5,14,0:1:0:0:
168,294,96420,2,0,L|239:294,1,63.3749970989229,8|0,0:0|0:0,0:0:0:0:
475,213,96589,1,8,0:1:0:0:
330,296,96757,2,0,L|401:296,1,58.4999982147217,8|0,0:0|0:0,0:0:0:0:
233,172,96926,2,0,L|169:172,1,58.4999982147217,8|8,0:0|0:1,0:0:0:0:
383,78,97095,1,8,0:0:0:0:
243,77,97263,1,8,0:1:0:0:
392,77,97432,2,8,L|310:76,1,65.8125002510548,8|8,0:1|0:1,0:1:0:0:
136,80,97600,5,6,0:0:0:0:
264,80,97769,2,0,L|312:80,2,26.8125008182526,2|0|0,0:0|0:0|0:0,0:0:0:0:
112,80,97937,1,8,0:1:0:0:
240,152,98106,1,2,0:0:0:0:
214,152,98148,1,0,0:0:0:0:
187,152,98190,1,0,0:0:0:0:
40,232,98274,2,0,L|168:232,2,107.25000327301,8|8|8,0:0|0:0|0:1,0:0:0:0:
304,344,98780,5,2,0:1:0:0:
328,296,98822,1,0,0:0:0:0:
312,240,98864,1,0,0:0:0:0:
272,208,98906,1,0,0:0:0:0:
224,200,98948,1,8,0:0:0:0:
360,72,99117,2,0,L|392:72,2,26.8125008182526,2|0|0,0:1|0:0|0:0,0:0:0:0:
192,72,99286,1,8,0:1:0:0:
304,160,99454,2,0,L|336:160,2,26.8125008182526,2|0|0,0:1|0:0|0:0,0:0:0:0:
152,160,99623,2,0,L|80:160,1,53.6250016365052,10|0,0:0|0:0,0:0:0:0:
160,288,99791,2,0,L|168:224,1,53.6250016365052,8|0,0:0|0:0,0:0:0:0:
91,213,99960,2,0,L|99:149,1,53.6250016365052,8|0,0:1|0:0,0:0:0:0:
184,144,100128,2,0,L|248:144,1,53.6250016365052,2|0,0:1|0:0,0:0:0:0:
448,328,100297,5,4,0:1:0:0:
416,320,100339,1,0,0:0:0:0:
392,304,100381,1,0,0:0:0:0:
376,280,100423,1,0,0:0:0:0:
376,240,100465,1,0,0:0:0:0:
392,208,100507,1,0,0:0:0:0:
416,192,100550,1,0,0:0:0:0:
448,192,100592,1,0,0:0:0:0:
384,192,100634,6,0,L|256:192,1,116.999996429443,8|0,0:1|0:0,0:0:0:0:
336,160,100887,1,0,0:0:0:0:
264,136,100971,2,0,L|256:64,1,58.4999982147217,8|0,2:2|0:0,0:0:0:0:
328,48,101139,2,0,L|248:48,1,58.4999982147217,8|0,0:0|0:0,0:0:0:0:
112,48,101308,1,8,0:1:0:0:
352,320,101477,6,0,P|416:256|336:152,1,233.999992858887,6|8,0:0|0:0,0:0:0:0:
112,168,101982,1,8,0:1:0:0:
344,64,102151,2,0,L|400:64,2,29.2499991073609,2|0|0,0:0|0:0|0:0,0:0:0:0:
112,64,102319,2,0,L|240:64,2,116.999996429443,2|8|8,0:1|0:0|0:1,0:0:0:0:
352,216,102825,2,0,L|424:216,1,58.4999982147217,8|8,0:0|0:1,0:0:0:0:
184,320,102993,5,12,0:0:0:0:
296,248,103162,1,2,0:1:0:0:
264,248,103204,1,0,0:0:0:0:
232,248,103246,1,0,0:0:0:0:
64,240,103330,1,8,0:1:0:0:
184,168,103499,1,2,0:2:0:0:
216,168,103541,1,0,0:0:0:0:
248,168,103583,1,0,0:0:0:0:
416,168,103668,2,0,L|280:168,2,116.999996429443,10|8|8,0:0|0:0|0:1,0:0:0:0:
184,72,104173,2,0,L|144:72,2,29.2499991073609,2|0|0,0:1|0:0|0:0,0:0:0:0:
416,72,104342,5,8,0:0:0:0:
272,304,104510,2,0,L|264:264,4,29.2499991073609,2|0|0|0|8,0:1|0:0|0:0|0:0|0:1,0:0:0:0:
136,336,104847,2,0,L|120:288,2,29.2499991073609,2|0|0,0:1|0:0|0:0,0:0:0:0:
288,328,105016,1,2,0:1:0:0:
288,256,105100,1,0,0:0:0:0:
216,216,105184,1,2,0:1:0:0:
288,192,105269,1,0,0:0:0:0:
208,176,105353,1,8,0:1:0:0:
208,104,105437,1,0,0:0:0:0:
272,64,105521,1,2,0:1:0:0:
208,32,105606,1,0,0:0:0:0:
368,40,105690,6,0,P|416:96|360:176,1,175.499994644165,4|0,0:3|0:0,0:0:0:0:
160,176,106027,1,8,0:1:0:0:
288,176,106196,2,0,L|360:176,2,58.4999982147217,0|0|8,0:0|0:0|0:0,0:0:0:0:
56,240,106533,1,8,0:0:0:0:
288,304,106701,1,8,0:1:0:0:
56,144,106870,6,0,L|200:144,1,116.999996429443,12|0,0:0|0:0,0:0:0:0:
416,144,107207,1,8,0:1:0:0:
176,56,107375,1,8,0:1:0:0:
304,56,107544,1,8,0:0:0:0:
56,176,107713,2,0,L|128:176,2,58.4999982147217,8|8|8,0:0|0:1|0:0,0:0:0:0:
304,232,108050,1,8,0:1:0:0:
168,232,108218,2,0,L|104:232,1,58.4999982147217,8|8,0:0|0:1,0:0:0:0:
304,152,108387,5,4,0:0:0:0:
192,112,108555,2,0,L|160:112,2,29.2499991073609,2|0|0,0:0|0:0|0:0,0:0:0:0:
392,112,108724,1,8,0:1:0:0:
272,312,108893,1,2,0:0:0:0:
240,312,108935,1,0,0:0:0:0:
208,312,108977,1,0,0:0:0:0:
352,256,109061,1,8,0:0:0:0:
400,232,109145,1,0,0:0:0:0:
352,208,109229,1,8,0:0:0:0:
120,200,109398,1,8,0:1:0:0:
368,184,109566,5,2,0:1:0:0:
400,168,109609,1,0,0:0:0:0:
416,128,109651,1,0,0:0:0:0:
400,88,109693,1,0,0:0:0:0:
368,72,109735,1,8,0:0:0:0:
216,72,109904,2,0,L|168:72,2,29.2499991073609,2|0|0,0:1|0:0|0:0,0:0:0:0:
368,72,110072,1,8,0:1:0:0:
256,208,110241,2,0,L|208:208,2,29.2499991073609,2|0|0,0:1|0:0|0:0,0:0:0:0:
432,320,110409,2,0,L|440:256,1,58.4999982147217,10|0,0:0|0:0,0:0:0:0:
368,248,110578,2,0,L|296:248,1,58.4999982147217,8|0,0:0|0:0,0:0:0:0:
384,184,110746,2,0,L|392:112,1,58.4999982147217,8|0,0:1|0:0,0:0:0:0:
312,96,110915,2,0,L|370:96,1,58.4999982147217,2|0,0:1|0:0,0:0:0:0:
120,336,111083,5,4,0:1:0:0:
93,324,111125,1,0,0:0:0:0:
71,305,111167,1,0,0:0:0:0:
58,279,111209,1,0,0:0:0:0:
56,250,111251,1,0,0:0:0:0:
63,222,111293,1,0,0:0:0:0:
80,198,111335,1,0,0:0:0:0:
104,182,111377,1,0,0:0:0:0:
144,176,111420,6,0,L|280:176,1,116.999996429443,8|0,0:1|0:0,0:0:0:0:
200,120,111673,1,0,0:0:0:0:
264,80,111757,1,8,0:0:0:0:
200,64,111842,1,0,0:0:0:0:
136,48,111926,1,8,0:0:0:0:
400,168,112095,1,8,0:1:0:0:
136,48,112263,6,0,P|88:112|144:184,1,175.499994644165,6|0,0:0|0:0,0:0:0:0:
336,224,112600,1,8,0:0:0:0:
208,264,112769,1,8,0:1:0:0:
440,296,112937,2,0,L|480:296,2,29.2499991073609,2|0|0,0:0|0:0|0:0,0:0:0:0:
208,336,113106,2,0,L|64:336,1,116.999996429443,2|8,0:1|0:0,0:0:0:0:
336,200,113443,1,8,0:1:0:0:
88,128,113611,2,0,L|168:128,1,58.4999982147217,8|8,0:0|0:1,0:0:0:0:
336,120,113780,5,12,0:0:0:0:
208,120,113948,2,0,L|160:120,2,29.2499991073609,2|0|0,0:1|0:0|0:0,0:0:0:0:
376,280,114117,1,8,0:1:0:0:
496,160,114286,1,2,0:1:0:0:
464,160,114328,1,0,0:0:0:0:
424,160,114370,1,0,0:0:0:0:
216,288,114454,1,10,0:0:0:0:
280,288,114538,1,0,0:0:0:0:
344,288,114623,1,8,0:0:0:0:
112,240,114791,5,8,0:1:0:0:
86,226,114833,1,0,0:3:0:0:
69,202,114875,1,0,0:0:0:0:
64,174,114917,1,0,0:0:0:0:
71,146,114959,1,2,0:1:0:0:
90,124,115001,1,0,0:0:0:0:
117,112,115043,1,0,0:0:0:0:
344,120,115128,6,0,L|280:120,1,53.6250016365052,12|0,0:0|0:0,0:0:0:0:
120,224,115297,2,0,L|192:224,1,53.6250016365052,0|0,0:0|0:0,0:0:0:0:
352,328,115465,2,0,L|424:328,1,53.6250016365052,8|0,0:1|0:0,0:0:0:0:
224,152,115634,2,0,L|288:152,1,53.6250016365052
424,232,115802,2,0,L|432:176,1,53.6250016365052,8|0,0:0|0:0,0:0:0:0:
352,168,115971,2,0,L|344:104,1,53.6250016365052,8|0,0:0|0:0,0:0:0:0:
272,128,116139,2,0,L|264:64,1,53.6250016365052,8|0,0:1|0:0,0:0:0:0:
432,32,116308,2,0,L|376:32,1,53.6250016365052
200,320,116477,5,12,0:0:0:0:
264,296,116561,1,0,0:0:0:0:
312,256,116645,1,0,0:0:0:0:
320,192,116729,1,0,0:0:0:0:
168,184,116814,2,0,L|160:112,1,53.6250016365052,8|0,0:1|0:0,0:0:0:0:
240,144,116982,2,0,L|248:72,1,53.6250016365052
60,184,117151,2,0,L|180:184,1,107.25000327301,8|8,0:0|0:0,0:0:0:0:
424,112,117488,1,8,0:1:0:0:
168,56,117656,1,4,0:0:0:0:
288,88,117825,5,0,0:0:0:0:
344,120,117909,1,0,0:0:0:0:
368,184,117993,1,0,0:0:0:0:
344,256,118078,1,0,0:0:0:0:
280,280,118162,1,0,0:0:0:0:
344,288,118246,1,0,0:0:0:0:
368,304,118330,1,0,0:0:0:0:
344,328,118415,1,0,0:0:0:0:
280,352,118499,1,0,0:0:0:0:
344,328,118583,1,0,0:0:0:0:
408,304,118668,1,8,0:0:0:0:
136,280,118836,2,0,P|96:224|160:176,1,146.25,2|0,0:0|0:0,0:0:0:0:
344,328,119173,5,4,0:0:0:0:
424,272,119342,1,0,0:0:0:0:
456,176,119510,1,0,0:0:0:0:
416,80,119679,1,0,0:0:0:0:
336,32,119847,1,0,0:0:0:0:
240,32,120016,1,0,0:0:0:0:
336,32,120184,1,0,0:0:0:0:
384,120,120353,1,0,0:0:0:0:
224,360,120521,5,2,0:0:0:0:
136,328,120690,1,0,0:0:0:0:
96,248,120859,1,0,0:0:0:0:
96,160,121027,1,0,0:0:0:0:
256,144,121196,1,0,0:0:0:0:
264,48,121364,1,0,0:0:0:0:
168,40,121533,1,0,0:0:0:0:
264,48,121701,1,0,0:0:0:0:
120,328,121870,5,2,0:0:0:0:
40,272,122039,1,0,0:0:0:0:
24,176,122207,1,0,0:0:0:0:
48,80,122376,1,0,0:0:0:0:
128,32,122544,1,0,0:0:0:0:
240,32,122713,1,0,0:0:0:0:
320,96,122881,1,0,0:0:0:0:
336,192,123050,1,0,0:0:0:0:
176,192,123218,5,2,0:0:0:0:
96,256,123387,1,0,0:0:0:0:
96,344,123555,1,0,0:0:0:0:
200,344,123724,1,0,0:0:0:0:
96,344,123892,1,0,0:0:0:0:
96,256,124061,1,0,0:0:0:0:
208,216,124229,1,0,0:0:0:0:
96,192,124398,1,0,0:0:0:0:
264,96,124566,5,2,0:0:0:0:
360,56,124735,1,0,0:0:0:0:
264,32,124904,1,0,0:0:0:0:
392,96,125072,1,2,0:0:0:0:
456,160,125241,1,0,0:0:0:0:
472,248,125409,1,0,0:0:0:0:
456,320,125578,1,0,0:0:0:0:
296,344,125746,1,0,0:0:0:0:
144,320,125915,6,0,L|136:208,1,97.5,2|0,0:0|0:0,0:0:0:0:
297,217,126252,2,0,L|305:105,1,97.5
176,64,126589,2,0,L|296:64,1,97.5,2|0,0:0|0:0,0:0:0:0:
401,119,126926,2,0,L|281:119,1,97.5
128,344,127263,6,0,P|16:264|144:88,1,390,2|0,0:0|0:0,0:0:0:0:
248,80,128106,1,0,0:0:0:0:
368,152,128274,2,0,L|376:48,1,97.5,2|2,0:0|0:0,0:0:0:0:
232,352,128611,5,0,0:0:0:0:
144,336,128780,1,0,0:0:0:0:
72,256,128948,1,0,0:0:0:0:
56,152,129117,1,0,0:0:0:0:
216,192,129286,2,0,L|224:88,1,97.5,2|0,0:0|0:0,0:0:0:0:
88,48,129623,2,0,L|192:48,1,97.5,2|2,0:0|0:0,0:0:0:0:
368,352,129960,5,0,0:0:0:0:
440,296,130128,1,0,0:0:0:0:
480,208,130297,1,0,0:0:0:0:
440,104,130465,1,0,0:0:0:0:
352,48,130634,1,0,0:0:0:0:
440,104,130802,1,0,0:0:0:0:
448,216,130971,1,0,0:0:0:0:
352,288,131139,1,0,0:0:0:0:
200,328,131308,5,2,0:0:0:0:
192,216,131477,1,0,0:0:0:0:
328,192,131645,1,0,0:0:0:0:
336,80,131814,1,0,0:0:0:0:
184,64,131982,2,0,L|80:64,1,97.5,2|0,0:0|0:0,0:0:0:0:
232,136,132319,2,0,L|344:136,1,97.5,2|2,0:0|0:0,0:0:0:0:
184,352,132656,5,0,0:0:0:0:
96,296,132825,1,0,0:0:0:0:
96,200,132993,1,0,0:0:0:0:
192,128,133162,1,0,0:0:0:0:
304,128,133330,1,0,0:0:0:0:
384,192,133499,1,0,0:0:0:0:
384,288,133668,1,0,0:0:0:0:
304,344,133836,1,0,0:0:0:0:
144,304,134005,5,2,0:0:0:0:
248,264,134173,1,0,0:0:0:0:
304,184,134342,1,0,0:0:0:0:
312,88,134510,1,0,0:0:0:0:
184,160,134679,1,0,0:0:0:0:
184,72,134847,1,0,0:0:0:0:
312,40,135016,1,0,0:0:0:0:
184,16,135184,1,0,0:0:0:0:
320,152,135353,6,0,L|432:152,1,97.5,2|0,0:0|0:0,0:0:0:0:
272,304,135690,1,0,0:0:0:0:
416,320,135859,1,2,0:0:0:0:
472,232,136027,1,0,0:0:0:0:
416,152,136196,1,0,0:0:0:0:
304,96,136364,1,0,0:0:0:0:
416,40,136533,1,0,0:0:0:0:
264,272,136701,6,0,L|160:272,1,97.5,2|0,0:0|0:0,0:0:0:0:
304,176,137038,2,0,L|416:176,1,97.5
256,72,137375,2,0,L|368:72,1,97.5,2|0,0:0|0:0,0:0:0:0:
224,264,137713,2,0,L|216:144,1,97.5,0|0,0:0|0:0,0:0:0:0:
384,344,138050,6,0,P|480:192|336:80,1,390,2|0,0:0|0:0,0:0:0:0:
216,152,138892,1,0,0:0:0:0:
336,272,139061,2,0,L|344:160,1,97.5,2|0,0:0|0:0,0:0:0:0:
216,152,139398,5,2,0:0:0:0:
208,48,139566,1,2,0:0:0:0:
336,32,139735,1,0,0:0:0:0:
208,24,139904,1,0,0:0:0:0:
440,288,140072,1,2,0:0:0:0:
320,240,140241,1,0,0:0:0:0:
440,176,140409,1,2,0:0:0:0:
320,136,140578,1,0,0:0:0:0:
59,72,140746,6,0,L|49:175,1,102.374996875763,12|0,0:0|0:0,0:0:0:0:
191,153,141083,2,0,L|201:256,1,102.374996875763,8|0,0:0|0:0,0:0:0:0:
49,173,141420,2,0,L|54:240,1,51.1874984378815,8|0,0:0|0:0,0:0:0:0:
209,331,141589,2,0,L|324:329,1,102.374996875763,2|8,0:0|0:0,0:0:0:0:
39,89,141926,6,0,L|170:83,1,102.374996875763,2|8,0:0|0:0,0:0:0:0:
376,192,142263,1,0,0:0:0:0:
427,189,142347,1,0,0:0:0:0:
478,187,142431,1,8,0:0:0:0:
333,152,142600,1,0,0:0:0:0:
478,187,142769,2,0,L|481:238,1,51.1874984378815,8|0,0:0|0:0,0:0:0:0:
323,293,142937,2,0,L|220:297,2,102.374996875763,2|8|2,0:0|0:0|0:0,0:0:0:0:
482,257,143443,6,0,P|459:192|333:124,1,214.500006546021,8|8,0:0|0:0,0:0:0:0:
194,100,143948,1,2,0:0:0:0:
348,124,144117,1,8,0:0:0:0:
350,174,144201,1,0,0:0:0:0:
352,225,144286,1,2,0:0:0:0:
106,322,144454,6,0,L|11:280,1,102.374996875763,8|0,0:0|0:0,0:0:0:0:
166,243,144791,2,0,L|71:201,1,102.374996875763,8|0,0:0|0:0,0:0:0:0:
226,170,145128,2,0,L|131:128,1,102.374996875763,8|0,0:0|0:0,0:0:0:0:
363,85,145465,1,8,0:0:0:0:
365,136,145550,1,0,0:0:0:0:
368,186,145634,1,2,0:0:0:0:
235,234,145802,1,8,0:0:0:0:
476,267,145971,1,10,0:0:0:0:
235,234,146139,6,0,L|94:245,1,102.374996875763,8|0,0:0|0:0,0:0:0:0:
286,138,146477,2,0,L|427:149,1,102.374996875763,8|0,0:0|0:0,0:0:0:0:
237,81,146814,2,0,L|242:148,1,51.1874984378815,8|0,0:0|0:0,0:0:0:0:
397,239,146983,2,0,L|512:237,1,102.374996875763,2|8,0:0|0:0,0:0:0:0:
245,233,147319,6,0,L|235:369,1,102.374996875763,2|8,0:0|0:0,0:0:0:0:
397,322,147656,1,0,0:0:0:0:
345,322,147740,1,0,0:0:0:0:
294,322,147824,1,8,0:0:0:0:
449,323,147993,1,0,0:0:0:0:
294,322,148162,1,8,0:0:0:0:
289,272,148246,1,0,0:0:0:0:
284,221,148330,1,2,0:0:0:0:
132,281,148499,2,0,L|121:167,1,102.374996875763,8|2,0:0|0:0,0:0:0:0:
407,201,148836,6,0,P|469:176|395:106,1,204.749993751526,8|0,0:0|0:0,0:0:0:0:
242,90,149342,2,0,L|355:78,1,102.374996875763,2|8,0:0|0:0,0:0:0:0:
96,128,149679,1,2,0:0:0:0:
241,189,149847,1,8,0:0:0:0:
481,89,150016,6,0,L|484:196,1,102.374996875763,2|8,0:0|0:0,0:0:0:0:
333,203,150353,2,0,L|330:310,1,102.374996875763,0|8,0:0|0:0,0:0:0:0:
48,192,150690,1,0,0:0:0:0:
207,143,150859,1,8,0:0:0:0:
153,150,150943,1,0,0:0:0:0:
99,156,151027,1,10,0:0:0:0:
331,68,151196,1,8,0:0:0:0:
481,89,151364,1,10,0:0:0:0:
161,205,151533,6,0,L|152:315,1,102.374996875763,4|0,0:0|0:0,0:0:0:0:
306,331,151870,2,0,L|175:340,1,102.374996875763,8|0,0:0|0:0,0:0:0:0:
355,251,152207,2,0,L|361:189,1,51.1874984378815,8|0,0:0|0:0,0:0:0:0:
198,116,152375,2,0,L|67:125,1,102.374996875763,2|8,0:0|0:0,0:0:0:0:
252,250,152713,2,0,L|258:188,1,51.1874984378815,2|0,0:0|0:0,0:0:0:0:
89,36,152881,6,0,L|191:28,1,102.374996875763,8|0,0:0|0:0,0:0:0:0:
37,45,153218,2,0,L|28:147,1,102.374996875763,8|0,0:0|0:0,0:0:0:0:
292,143,153555,2,0,L|367:136,2,51.1874984378815,8|0|2,0:0|0:0|0:0,0:0:0:0:
141,82,153892,2,0,L|132:184,1,102.374996875763,8|2,0:0|0:0,0:0:0:0:
383,301,154229,5,8,0:0:0:0:
234,284,154398,2,0,L|224:166,1,102.374996875763,0|8,0:0|0:0,0:0:0:0:
374,225,154735,2,0,L|364:107,1,102.374996875763,2|8,0:0|0:0,0:0:0:0:
216,95,155072,1,2,0:0:0:0:
474,203,155241,5,8,0:0:0:0:
328,157,155409,2,0,L|465:146,1,102.374996875763,0|8,0:0|0:0,0:0:0:0:
277,256,155746,2,0,L|140:245,2,102.374996875763,0|8|2,0:0|0:0|0:0,0:0:0:0:
25,255,156252,5,8,0:0:0:0:
279,174,156420,1,10,0:0:0:0:
149,216,156589,1,8,0:0:0:0:
403,135,156757,1,8,0:0:0:0:
149,216,156926,6,0,L|139:334,1,107.25000327301,12|0,0:0|0:0,0:0:0:0:
434,258,157263,1,8,0:1:0:0:
300,243,157432,2,0,P|304:188|449:133,1,214.500006546021,2|8,0:0|0:0,0:0:0:0:
171,86,157937,1,8,0:1:0:0:
20,54,158106,1,10,0:0:0:0:
308,263,158274,6,0,P|360:234|287:118,1,224.250004277229,14|8,0:0|0:1,0:0:0:0:
133,86,158780,1,2,0:0:0:0:
307,129,158948,2,0,L|311:16,1,112.125002138615,8|8,0:0|0:0,0:0:0:0:
50,180,159286,1,10,0:1:0:0:
201,212,159455,1,0,0:0:0:0:
468,125,159623,6,0,L|475:244,1,112.125002138615,14|0,0:0|0:0,0:0:0:0:
305,243,159960,2,0,L|297:361,1,112.125002138615,8|0,0:1|0:0,0:0:0:0:
128,289,160297,2,0,L|135:177,1,112.125002138615,10|8,0:0|0:0,0:0:0:0:
454,155,160634,1,8,0:1:0:0:
307,152,160802,1,0,0:0:0:0:
44,125,160971,6,0,L|37:244,1,112.125002138615,14|0,0:0|0:0,0:0:0:0:
212,243,161308,2,0,L|220:361,1,112.125002138615,8|2,0:1|0:0,0:0:0:0:
396,289,161645,2,0,L|388:177,1,112.125002138615,10|0,0:0|0:0,0:0:0:0:
58,155,161982,1,10,0:1:0:0:
200,152,162151,1,8,0:0:0:0:
264,152,162235,1,8,0:1:0:0:
472,113,162319,6,0,L|479:246,1,107.25000327301,14|0,0:0|0:0,0:0:0:0:
179,227,162656,1,8,0:1:0:0:
318,227,162825,1,8,0:0:0:0:
63,149,162993,1,14,0:1:0:0:
319,145,163162,1,0,0:0:0:0:
179,71,163330,1,8,0:1:0:0:
435,67,163499,1,8,0:0:0:0:
176,160,163668,5,14,0:1:0:0:
35,158,163836,1,0,0:0:0:0:
336,160,164005,1,8,0:1:0:0:
477,158,164173,1,8,0:0:0:0:
206,256,164342,1,8,0:1:0:0:
478,249,164510,1,8,0:1:0:0:
206,256,164679,1,8,0:1:0:0:
478,249,164847,1,8,0:1:0:0:
344,230,165016,5,14,0:0:0:0:
348,128,165184,1,2,0:0:0:0:
204,226,165353,1,0,0:0:0:0:
208,124,165521,1,2,0:0:0:0:
67,47,165690,1,8,0:1:0:0:
65,101,165859,1,0,0:0:0:0:
63,161,166027,1,0,0:0:0:0:
60,220,166196,1,0,0:0:0:0:
226,156,166364,5,8,0:0:0:0:
222,54,166532,1,0,0:0:0:0:
56,163,166701,1,0,0:0:0:0:
52,61,166869,1,8,0:0:0:0:
415,55,167038,1,4,0:1:0:0:
278,164,167375,5,0,3:0:0:0:
263,145,167418,1,0,3:0:0:0:
284,164,167460,1,0,3:0:0:0:
256,145,167503,1,0,3:0:0:0:
289,164,167544,1,0,3:0:0:0:
250,145,167587,1,0,3:0:0:0:
295,164,167628,1,0,3:0:0:0:
244,145,167671,1,0,3:0:0:0:
83,276,167713,6,0,B|76:12|76:12|338:14,1,526.500002008438,12|0,0:0|0:0,0:0:0:0:
185,13,168218,1,8,0:0:0:0:
472,163,168387,2,0,L|457:163,1,13.4062504091263,2|0,0:1|0:0,0:0:0:0:
250,219,168555,2,0,L|229:219,1,13.4062504091263,2|0,0:0|0:0,0:0:0:0:
20,148,168724,1,8,0:0:0:0:
154,146,168892,1,0,0:0:0:0:
411,252,169061,5,12,0:3:0:0:
417,252,169229,1,4,0:3:0:0:
275,251,169398,1,0,0:0:0:0:
417,252,169566,1,0,0:0:0:0:
74,248,169735,6,0,B|41:151|66:3|66:3|321:3,1,487.5,8|0,0:1|0:0,0:0:0:0:
454,6,170241,1,0,0:0:0:0:
192,223,170409,6,0,B|453:221|453:221|305:2,1,526.500002008438,12|0,0:0|0:0,0:0:0:0:
170,35,170915,2,0,L|166:55,1,13.4062504091263,2|0,0:0|0:0,0:0:0:0:
312,32,171083,1,8,0:1:0:0:
29,66,171252,2,0,L|25:86,1,13.4062504091263,2|0,0:0|0:0,0:0:0:0:
316,57,171420,1,8,0:0:0:0:
167,57,171589,1,0,0:0:0:0:
452,216,171757,6,0,B|179:215|179:215|309:-33|309:-33|168:201,1,818.999975006104,10|0,0:0|0:0,0:0:0:0:
442,297,172432,2,0,L|448:217,1,63.3749970989229,8|0,0:1|0:0,0:0:0:0:
368,226,172600,2,0,L|374:154,1,63.3749970989229,2|0,0:0|0:0,0:0:0:0:
159,333,172769,2,0,L|165:261,1,63.3749970989229,2|0,0:0|0:0,0:0:0:0:
362,289,172937,2,0,L|449:292,1,63.3749970989229,2|0,0:1|0:0,0:0:0:0:
250,185,173106,6,0,B|191:111|167:66|167:66|102:190|102:190|387:188|387:188|288:301|288:301|243:283|243:186,1,848.250025886536,12|0,0:0|0:0,0:0:0:0:
475,111,173780,2,0,L|496:111,1,13.4062504091263,8|0,0:1|0:0,0:0:0:0:
229,57,173948,2,0,L|208:57,1,13.4062504091263,2|0,0:0|0:0,0:0:0:0:
354,57,174117,2,0,L|340:144,1,53.6250016365052,2|0,0:1|0:0,0:0:0:0:
152,103,174286,1,0,0:0:0:0:
433,276,174454,6,0,L|435:254,1,13.4062504091263,12|0,0:3|0:0,0:0:0:0:
304,197,174623,2,0,L|306:175,1,13.4062504091263,4|0,0:3|0:0,0:0:0:0:
445,153,174791,1,0,0:0:0:0:
173,31,174960,2,0,L|171:9,1,13.4062504091263,0|0,0:0|0:0,0:0:0:0:
445,153,175128,2,0,B|174:189|174:189|176:50|176:50|165:170|165:170|312:324|312:324|323:181,1,818.999975006104,8|0,0:1|0:0,0:0:0:0:
47,282,175802,5,4,0:0:0:0:
47,282,176139,1,2,0:0:0:0:
47,282,176477,1,0,0:0:0:0:
47,282,176814,1,2,0:0:0:0:
256,269,177151,5,8,0:0:0:0:
167,222,177319,1,0,3:0:0:0:
166,167,177404,1,0,3:0:0:0:
165,113,177488,1,0,3:0:0:0:
64,75,177656,1,8,0:0:0:0:
342,171,177825,5,8,0:1:0:0:
209,137,177993,1,0,3:0:0:0:
208,81,178078,1,0,3:0:0:0:
453,64,178162,2,0,L|467:96,6,26.8125008182526,0|0|0|0|0|0|0,3:0|3:0|3:0|3:0|3:0|3:0|3:0,3:0:0:0:
278,60,178499,6,0,B|28:145|28:145|163:374|163:374|19:139,1,789.750003012657,4|8,0:0|0:0,0:0:0:0:
258,216,179173,2,0,L|271:216,1,13.4062504091263,8|0,0:1|0:0,0:0:0:0:
477,160,179342,2,0,L|490:160,1,13.4062504091263
253,331,179510,1,8,0:0:0:0:
394,333,179678,1,0,0:0:0:0:
84,296,179847,6,0,L|98:172,1,107.25000327301,8|0,0:0|0:0,0:0:0:0:
267,124,180100,2,0,L|279:230,1,107.25000327301,8|0,0:0|0:0,0:0:0:0:
450,182,180353,1,8,0:0:0:0:
280,231,180521,2,0,B|350:107|350:107|426:228|426:228|146:225|146:225,1,565.500017257691,8|2,0:1|0:0,0:0:0:0:
287,229,181027,1,0,0:0:0:0:
28,225,181196,6,0,B|292:226|292:226|232:110|232:110|147:211|147:211,1,526.500002008438,4|2,0:0|0:0,0:0:0:0:
289,213,181701,2,0,L|293:233,1,13.4062504091263,8|0,0:0|0:0,0:0:0:0:
147,210,181869,1,8,0:1:0:0:
430,244,182038,2,0,L|434:264,1,13.4062504091263,2|0,0:0|0:0,0:0:0:0:
143,235,182206,1,0,0:0:0:0:
292,235,182375,1,8,0:0:0:0:
29,339,182544,6,0,B|323:340|323:340|184:86|184:86|514:89,1,877.50003347397,10|0,0:0|0:0,0:0:0:0:
331,96,183218,6,0,L|323:25,1,53.6250016365052,8|0,0:1|0:0,0:0:0:0:
410,137,183387,2,0,L|402:66,1,53.6250016365052,2|0,0:0|0:0,0:0:0:0:
256,221,183555,2,0,L|248:150,1,53.6250016365052,2|0,0:0|0:0,0:0:0:0:
482,230,183724,1,2,0:1:0:0:
421,228,183808,1,0,0:0:0:0:
208,329,183892,6,0,B|481:328|481:328|481:54|481:54|196:55,1,818.999975006104,12|8,0:0|0:0,0:0:0:0:
332,134,184566,2,0,L|353:134,1,13.4062504091263,8|0,0:1|0:0,0:0:0:0:
86,80,184734,2,0,L|65:80,1,13.4062504091263,2|0,0:0|0:0,0:0:0:0:
211,80,184903,2,0,L|298:82,1,53.6250016365052,2|0,0:1|0:0,0:0:0:0:
464,87,185072,1,0,0:0:0:0:
211,231,185241,6,0,L|194:231,1,13.4062504091263,12|0,0:3|0:0,0:0:0:0:
74,230,185409,2,0,L|57:230,1,13.4062504091263,4|0,0:3|0:0,0:0:0:0:
197,308,185578,1,0,0:0:0:0:
454,241,185746,2,0,L|467:241,1,13.4062504091263,0|0,0:0|0:0,0:0:0:0:
203,128,185915,6,0,L|206:142,1,13.4062504091263,8|0,0:1|0:0,0:0:0:0:
338,185,186083,2,0,L|341:199,1,13.4062504091263,0|0,0:0|0:0,0:0:0:0:
62,123,186252,1,2,0:1:0:0:
347,178,186420,1,0,0:0:0:0:
59,287,186589,5,4,0:0:0:0:
156,255,186757,1,0,0:0:0:0:
161,201,186842,1,0,0:0:0:0:
166,147,186926,1,8,0:1:0:0:
67,190,187095,1,0,0:0:0:0:
189,230,187263,5,0,0:0:0:0:
197,133,187432,1,8,0:0:0:0:
349,161,187600,1,8,0:1:0:0:
357,64,187769,1,0,0:0:0:0:
72,364,187937,5,8,0:0:0:0:
64,267,188106,1,0,0:0:0:0:
205,286,188274,1,8,0:1:0:0:
197,189,188443,1,8,0:0:0:0:
470,135,188611,5,8,0:1:0:0:
329,132,188780,1,8,0:0:0:0:
63,132,188948,1,8,0:1:0:0:
330,219,189117,1,8,0:1:0:0:
393,219,189201,1,8,0:1:0:0:
184,304,189286,6,0,L|32:304,1,116.999996429443,14|0,0:0|0:0,0:0:0:0:
328,168,189623,1,8,0:1:0:0:
200,176,189791,1,2,0:0:0:0:
160,136,189875,1,0,0:0:0:0:
152,88,189960,1,2,0:0:0:0:
176,32,190044,1,0,0:0:0:0:
224,16,190128,1,8,0:0:0:0:
360,304,190297,1,8,0:1:0:0:
128,304,190465,2,0,L|64:304,1,58.4999982147217,2|0,0:0|0:0,0:0:0:0:
288,216,190634,6,0,L|440:216,1,116.999996429443,8|0,0:0|0:0,0:0:0:0:
136,88,190971,2,0,L|264:88,1,116.999996429443,8|2,0:1|0:0,0:0:0:0:
320,88,191224,1,0,0:0:0:0:
248,224,191308,2,0,L|240:152,1,58.4999982147217,10|0,0:0|0:0,0:0:0:0:
320,168,191477,2,0,L|312:80,1,58.4999982147217,8|0,0:0|0:0,0:0:0:0:
128,256,191645,2,0,L|136:128,1,116.999996429443,8|2,0:1|0:0,0:0:0:0:
448,224,191982,6,0,L|304:224,1,116.999996429443,14|0,0:0|0:0,0:0:0:0:
72,216,192319,1,8,0:1:0:0:
200,336,192488,1,2,0:0:0:0:
264,304,192572,1,0,0:0:0:0:
200,272,192656,2,0,L|200:208,1,58.4999982147217,10|0,0:0|0:0,0:0:0:0:
264,192,192825,1,8,0:0:0:0:
128,144,192993,1,8,0:1:0:0:
416,336,193162,6,0,P|472:296|392:160,1,233.999992858887,6|8,0:0|0:0,0:0:0:0:
184,152,193668,2,0,L|64:152,1,116.999996429443,8|2,0:1|0:0,0:0:0:0:
128,120,193920,1,0,0:0:0:0:
192,104,194005,1,10,0:0:0:0:
64,48,194173,1,8,0:0:0:0:
312,224,194342,1,8,0:1:0:0:
184,224,194510,2,0,L|112:224,1,58.4999982147217,2|8,0:0|0:1,0:0:0:0:
312,320,194679,6,0,B|440:320|440:320|440:224,1,185.249995053291,14|0,0:0|0:0,0:0:0:0:
176,136,195016,1,8,0:1:0:0:
304,136,195184,2,0,L|312:64,1,58.4999982147217,2|0,0:0|0:0,0:0:0:0:
240,48,195353,2,0,L|312:48,1,58.4999982147217,10|0,0:0|0:0,0:0:0:0:
376,80,195521,2,0,L|304:80,1,58.4999982147217,8|0,0:0|0:0,0:0:0:0:
160,80,195690,1,8,0:1:0:0:
310,77,195859,1,2,0:0:0:0:
64,312,196027,6,0,B|40:256|40:256|64:192,1,116.999996429443,10|0,0:0|0:0,0:0:0:0:
312,160,196364,1,8,0:1:0:0:
176,128,196533,1,2,0:0:0:0:
232,112,196617,1,0,0:0:0:0:
168,232,196701,2,0,L|160:152,1,58.4999982147217,10|0,0:0|0:0,0:0:0:0:
232,176,196870,2,0,L|240:96,1,58.4999982147217,8|0,0:0|0:0,0:0:0:0:
56,208,197038,2,0,B|32:152|32:152|56:88,1,116.999996429443,8|2,0:1|0:0,0:0:0:0:
368,288,197375,6,0,L|112:296,1,233.999992858887,10|8,0:0|0:1,0:0:0:0:
400,176,197881,1,2,0:0:0:0:
456,144,197965,1,0,0:0:0:0:
400,112,198050,1,10,0:0:0:0:
256,72,198218,1,8,0:0:0:0:
400,32,198387,1,8,0:1:0:0:
152,320,198555,6,0,L|0:320,1,116.999996429443,14|0,0:0|0:0,0:0:0:0:
296,216,198892,1,8,0:1:0:0:
40,184,199061,1,8,0:1:0:0:
168,152,199229,1,2,0:0:0:0:
440,104,199398,1,8,0:0:0:0:
256,80,199482,2,0,L|160:80,1,58.4999982147217,8|8,0:1|0:0,0:0:0:0:
360,216,199735,1,8,0:1:0:0:
240,304,199904,2,8,L|344:304,1,58.4999982147217,8|8,0:1|0:1,0:1:0:0:
136,224,200072,6,0,L|16:224,1,116.999996429443,14|0,0:0|0:0,0:0:0:0:
288,144,200409,1,8,0:1:0:0:
160,296,200578,1,2,0:0:0:0:
104,280,200662,1,0,0:0:0:0:
64,232,200746,1,10,0:0:0:0:
48,168,200830,1,0,0:0:0:0:
56,104,200915,1,8,0:0:0:0:
336,64,201083,1,8,0:1:0:0:
200,136,201252,2,0,L|272:136,1,58.4999982147217,2|0,0:0|0:0,0:0:0:0:
472,208,201420,6,0,L|304:208,1,116.999996429443,10|0,0:0|0:0,0:0:0:0:
120,328,201757,2,0,L|112:176,1,116.999996429443,8|2,0:1|0:0,0:0:0:0:
184,184,202010,1,0,0:0:0:0:
112,144,202095,2,0,L|184:144,1,58.4999982147217,10|0,0:0|0:0,0:0:0:0:
240,136,202263,2,0,L|248:40,1,58.4999982147217,8|0,0:0|0:0,0:0:0:0:
176,56,202432,1,8,0:1:0:0:
408,208,202600,2,0,L|512:208,1,58.4999982147217,2|0,0:0|0:0,0:0:0:0:
224,328,202769,6,0,B|96:328|96:328|96:248,1,185.249995053291,14|0,0:0|0:0,0:0:0:0:
344,152,203106,2,0,L|192:152,1,116.999996429443,8|2,0:1|0:0,0:0:0:0:
288,184,203359,1,0,0:0:0:0:
320,240,203443,1,10,0:0:0:0:
288,304,203527,1,0,0:0:0:0:
232,312,203611,1,8,0:0:0:0:
480,312,203780,1,8,0:1:0:0:
232,312,203948,6,0,P|112:264|104:152,1,233.999992858887,6|8,0:0|0:0,0:0:0:0:
352,160,204454,2,0,L|480:160,1,116.999996429443,8|2,0:1|0:0,0:0:0:0:
328,256,204791,2,0,L|248:256,2,58.4999982147217,10|0|8,0:0|0:0|0:0,0:0:0:0:
72,336,205128,1,8,0:1:0:0:
328,336,205297,2,0,L|432:336,1,58.4999982147217,8|8,0:0|0:1,0:0:0:0:
192,152,205465,6,0,L|40:152,1,116.999996429443,14|0,0:0|0:0,0:0:0:0:
328,264,205802,1,8,0:1:0:0:
208,240,205971,2,0,L|200:176,1,58.4999982147217,2|0,0:0|0:0,0:0:0:0:
272,184,206139,2,0,L|280:112,1,58.4999982147217,10|0,0:0|0:0,0:0:0:0:
352,120,206308,1,8,0:0:0:0:
200,64,206477,1,8,0:1:0:0:
352,40,206645,2,0,L|288:40,1,58.4999982147217,2|0,0:0|0:0,0:0:0:0:
96,224,206814,6,0,L|240:224,1,116.999996429443,14|0,0:0|0:0,0:0:0:0:
472,272,207151,2,0,L|344:272,1,116.999996429443,8|0,0:1|0:0,0:0:0:0:
232,320,207488,2,0,L|360:320,1,116.999996429443,10|8,0:0|0:0,0:0:0:0:
104,208,207825,1,8,0:1:0:0:
352,160,207993,1,2,0:0:0:0:
109,95,208162,6,0,P|53:135|117:207,1,175.499994644165,14|0,0:0|0:0,0:0:0:0:
288,256,208499,2,0,L|136:256,1,116.999996429443,8|0,0:1|0:0,0:0:0:0:
408,336,208836,2,0,P|456:280|392:208,1,175.499994644165,14|0,0:0|0:0,0:0:0:0:
208,152,209173,2,0,L|328:152,1,116.999996429443,8|8,0:1|0:0,0:0:0:0:
96,240,209510,6,0,L|32:240,1,58.4999982147217,10|0,0:1|0:0,0:0:0:0:
240,216,209679,2,0,L|248:128,1,58.4999982147217,8|0,0:0|0:0,0:0:0:0:
80,96,209847,2,0,L|160:96,1,58.4999982147217,8|0,0:1|0:0,0:0:0:0:
296,40,210016,2,0,L|216:40,1,58.4999982147217,8|0,0:0|0:0,0:0:0:0:
416,344,210184,1,8,0:0:0:0:
480,296,210269,1,8,0:1:0:0:
416,256,210353,1,8,0:0:0:0:
144,224,210521,1,8,0:1:0:0:
416,184,210690,1,8,0:1:0:0:
352,160,210774,1,8,0:1:0:0:
144,113,210859,5,4,0:0:0:0:
313,163,211027,1,2,0:0:0:0:
315,192,211069,1,0,0:0:0:0:
317,221,211111,1,0,0:0:0:0:
151,299,211196,1,8,0:1:0:0:
316,163,211364,1,2,0:0:0:0:
318,192,211406,1,0,0:0:0:0:
320,221,211448,1,0,0:0:0:0:
233,250,211533,6,0,L|229:334,1,58.4999982147217,8|0,0:0|0:0,0:0:0:0:
409,299,211701,1,8,0:0:0:0:
177,121,211870,1,8,0:1:0:0:
329,117,212038,1,2,0:1:0:0:
34,121,212207,5,8,0:0:0:0:
177,121,212375,1,2,0:1:0:0:
207,122,212418,1,0,0:0:0:0:
235,120,212459,1,0,0:0:0:0:
83,194,212544,1,8,0:1:0:0:
231,243,212713,1,2,0:1:0:0:
260,242,212755,1,0,0:0:0:0:
289,242,212797,1,0,0:0:0:0:
466,240,212881,5,10,0:0:0:0:
453,177,212965,1,0,0:0:0:0:
413,126,213050,1,8,0:0:0:0:
352,108,213134,1,0,0:0:0:0:
177,50,213218,1,8,0:1:0:0:
327,50,213387,2,0,L|264:50,1,58.4999982147217,2|0,0:1|0:0,0:0:0:0:
66,233,213555,6,0,L|57:197,6,29.2499991073609,4|0|0|0|0|0|0,0:1|0:0|0:0|0:0|0:0|0:0|0:0,0:0:0:0:
253,220,213892,1,8,0:1:0:0:
402,156,214061,2,0,L|326:155,1,58.4999982147217
203,89,214229,2,0,L|119:89,2,58.4999982147217,8|0|8,0:0|0:0|0:0,0:0:0:0:
449,95,214566,1,8,0:1:0:0:
196,89,214735,6,0,P|211:161|367:252,1,233.999992858887,6|8,0:0|0:0,0:0:0:0:
32,301,215241,1,8,0:1:0:0:
162,251,215409,1,2,0:0:0:0:
25,303,215578,1,2,0:1:0:0:
314,296,215746,1,8,0:0:0:0:
170,349,215915,1,8,0:1:0:0:
439,260,216083,1,8,0:0:0:0:
378,243,216168,1,8,0:1:0:0:
176,228,216252,5,12,0:0:0:0:
323,149,216420,1,2,0:1:0:0:
294,144,216462,1,0,0:0:0:0:
265,140,216504,1,0,0:0:0:0:
100,141,216589,1,8,0:1:0:0:
247,62,216757,1,2,0:1:0:0:
218,57,216799,1,0,0:0:0:0:
189,53,216841,1,0,0:0:0:0:
270,66,216926,2,0,L|276:154,1,58.4999982147217,10|0,0:0|0:0,0:0:0:0:
61,221,217095,1,8,0:0:0:0:
202,266,217263,1,8,0:1:0:0:
465,143,217432,5,2,0:0:0:0:
467,172,217474,1,0,0:0:0:0:
469,201,217516,1,0,0:0:0:0:
303,279,217601,1,0,0:0:0:0:
153,227,217769,1,2,0:1:0:0:
151,256,217811,1,0,0:0:0:0:
149,285,217853,1,0,0:0:0:0:
315,363,217938,1,8,0:1:0:0:
168,336,218106,2,0,L|271:333,1,58.4999982147217,2|0,0:1|0:0,0:0:0:0:
320,269,218274,6,0,L|232:271,1,58.4999982147217,2|0,0:1|0:0,0:0:0:0:
89,226,218443,1,2,0:1:0:0:
313,170,218611,1,8,0:1:0:0:
462,169,218780,1,2,0:0:0:0:
488,169,218822,1,0,0:0:0:0:
462,169,218864,1,0,0:0:0:0:
256,241,218948,5,4,0:3:0:0:
221,233,218990,1,0,0:0:0:0:
198,208,219032,1,0,0:0:0:0:
191,176,219074,1,0,0:0:0:0:
199,145,219116,1,0,0:0:0:0:
224,121,219158,1,0,0:0:0:0:
257,114,219200,1,0,0:0:0:0:
462,35,219286,2,0,L|460:120,1,58.4999982147217,8|0,0:1|0:0,0:0:0:0:
394,92,219454,1,0,0:0:0:0:
460,93,219538,1,0,0:0:0:0:
307,37,219623,1,0,0:0:0:0:
241,36,219707,1,0,0:0:0:0:
425,222,219791,1,8,0:0:0:0:
283,222,219960,1,8,0:1:0:0:
31,226,220128,6,0,L|24:18,1,175.499994644165,12|0,0:0|0:0,0:0:0:0:
232,112,220465,1,8,0:1:0:0:
378,113,220634,1,8,0:1:0:0:
232,112,220802,1,8,0:0:0:0:
479,117,220971,2,0,L|481:192,1,58.4999982147217,8|8,0:0|0:1,0:0:0:0:
314,248,221139,1,8,0:0:0:0:
460,249,221307,1,8,0:1:0:0:
187,292,221477,1,8,0:1:0:0:
125,292,221561,1,8,0:1:0:0:
312,176,221645,5,12,0:0:0:0:
444,126,221814,1,2,0:0:0:0:
415,119,221856,1,0,0:0:0:0:
386,112,221898,1,0,0:0:0:0:
206,150,221982,1,8,0:1:0:0:
359,48,222151,1,2,0:0:0:0:
330,41,222193,1,0,0:0:0:0:
301,34,222235,1,0,0:0:0:0:
211,67,222319,2,0,L|293:80,1,58.4999982147217,8|0,0:0|0:0,0:0:0:0:
453,209,222488,1,8,0:0:0:0:
311,244,222656,1,8,0:1:0:0:
49,284,222825,5,2,0:1:0:0:
46,254,222867,1,0,0:0:0:0:
44,225,222909,1,0,0:0:0:0:
231,175,222993,1,8,0:0:0:0:
85,146,223162,1,2,0:1:0:0:
82,116,223204,1,0,0:0:0:0:
80,87,223246,1,0,0:0:0:0:
267,37,223330,1,8,0:1:0:0:
412,80,223499,1,2,0:1:0:0:
82,225,223668,1,10,0:0:0:0:
236,269,223837,1,8,0:0:0:0:
84,232,224005,2,0,L|77:329,1,58.4999982147217,8|0,0:1|0:0,0:0:0:0:
149,311,224173,1,2,0:1:0:0:
80,315,224257,1,0,0:0:0:0:
261,222,224342,6,0,L|383:239,1,116.999996429443,4|0,0:1|0:0,0:0:0:0:
217,287,224679,1,8,0:1:0:0:
388,239,224847,2,0,L|392:166,1,58.4999982147217
319,155,225016,1,8,0:0:0:0:
40,177,225184,1,8,0:0:0:0:
192,132,225353,1,8,0:1:0:0:
459,74,225521,6,0,L|468:224,1,116.999996429443,6|8,0:0|0:0,0:0:0:0:
329,222,225859,1,0,0:0:0:0:
32,211,226027,2,0,L|189:210,1,116.999996429443,8|2,0:1|0:0,0:0:0:0:
300,319,226364,2,0,L|143:318,1,116.999996429443,2|8,0:0|0:0,0:0:0:0:
436,170,226701,1,8,0:1:0:0:
188,113,226870,1,8,0:0:0:0:
126,112,226954,1,8,0:1:0:0:
291,191,227038,5,12,0:0:0:0:
439,194,227207,1,2,0:1:0:0:
441,223,227249,1,0,0:0:0:0:
443,252,227291,1,0,0:0:0:0:
265,272,227375,1,8,0:1:0:0:
407,340,227544,1,2,0:0:0:0:
409,311,227586,1,0,0:0:0:0:
412,282,227628,1,0,0:0:0:0:
187,178,227713,6,0,L|109:171,1,58.4999982147217,8|0,0:0|0:0,0:0:0:0:
128,172,227881,2,0,L|202:180,1,58.4999982147217,8|0,0:0|0:0,0:0:0:0:
273,188,228050,2,0,L|366:198,1,58.4999982147217,8|0,0:1|0:0,0:0:0:0:
237,269,228218,2,0,L|144:279,1,58.4999982147217
338,110,228387,6,0,L|447:101,1,58.4999982147217,4|0,0:0|0:0,0:0:0:0:
398,94,228555,2,0,L|317:102,1,58.4999982147217
231,75,228724,2,0,L|340:66,1,58.4999982147217,8|0,0:1|0:0,0:0:0:0:
291,59,228892,2,0,L|210:67,1,58.4999982147217,0|0,0:0|0:0,0:0:0:0:
131,21,229061,6,0,L|124:119,3,58.4999982147217,8|0|8|0,0:0|0:0|0:0|0:0,0:0:0:0:
37,68,229398,2,0,L|30:166,3,58.4999982147217,8|0|0|0,0:1|0:0|0:0|0:0,0:0:0:0:
223,324,229735,5,12,0:0:0:0:
273,295,229819,1,0,0:0:0:0:
301,245,229903,1,0,0:0:0:0:
301,187,229987,1,0,0:0:0:0:
271,137,230072,1,8,0:1:0:0:
220,110,230156,1,0,0:0:0:0:
154,94,230241,1,0,0:0:0:0:
221,75,230325,1,0,0:0:0:0:
416,134,230409,1,8,0:0:0:0:
407,76,230493,1,0,0:0:0:0:
366,33,230578,1,8,0:0:0:0:
303,18,230662,1,0,0:0:0:0:
119,17,230746,1,8,0:1:0:0:
384,337,230915,6,0,L|387:247,1,53.6250016365052,4|0,0:0|0:0,0:0:0:0:
315,263,231083,1,2,0:0:0:0:
383,256,231168,1,2,0:0:0:0:
449,246,231252,1,2,0:0:0:0:
383,256,231336,1,2,0:0:0:0:
239,135,231420,2,0,L|155:130,1,58.4999982147217,0|0,0:0|0:0,0:0:0:0:
252,126,231589,2,0,L|336:121,1,58.4999982147217,0|0,0:0|0:0,0:0:0:0:
118,54,231757,6,2,L|111:153,1,58.4999982147217,2|2,3:2|3:2,3:2:0:0:
324,179,231926,1,2,3:2:0:0:
176,204,232095,1,0,0:0:0:0:
316,309,232263,2,0,L|248:299,1,58.4999982147217,8|0,0:0|0:0,0:0:0:0:
46,347,232432,5,4,0:0:0:0:
303,214,232769,1,8,0:1:0:0:
309,110,233274,1,8,0:0:0:0:
161,73,233442,1,8,0:1:0:0:
437,339,233780,5,8,0:0:0:0:
180,206,234117,1,8,0:1:0:0:
174,102,234622,1,8,0:0:0:0:
322,65,234791,1,8,0:1:0:0:
46,347,235128,5,8,0:0:0:0:
303,214,235465,1,8,0:1:0:0:
309,110,235970,1,8,0:0:0:0:
161,73,236138,1,8,0:1:0:0:
324,82,236308,6,0,P|384:129|299:224,1,214.500006546021,8|8,0:0|0:0,0:0:0:0:
165,205,236814,1,8,0:1:0:0:
443,335,237151,2,0,L|449:207,1,107.25000327301,8|8,0:0|0:0,0:0:0:0:
300,180,237488,1,8,0:1:0:0:
450,228,237656,2,0,L|384:228,1,53.6250016365052,8|8,0:0|0:1,0:0:0:0:
189,314,237825,5,8,0:0:0:0:
446,181,238162,1,8,0:1:0:0:
171,121,238667,1,8,0:0:0:0:
304,40,238835,1,8,0:1:0:0:
165,115,239005,1,0,0:0:0:0:
312,312,239173,5,8,0:0:0:0:
55,179,239510,1,8,0:1:0:0:
330,119,240015,1,8,0:0:0:0:
197,38,240183,1,8,0:1:0:0:
453,202,240521,5,8,0:0:0:0:
196,69,240858,1,8,0:1:0:0:
459,206,241196,1,8,0:0:0:0:
470,302,241364,1,8,0:0:0:0:
342,340,241533,1,8,0:1:0:0:
94,321,241701,6,0,P|178:284|78:135,1,321.750009819031,10|8,0:0|0:1,0:0:0:0:
234,85,242375,2,0,L|248:337,1,214.500006546021,8|8,0:0|0:0,0:0:0:0:
400,238,242881,1,8,0:1:0:0:
246,282,243050,1,8,0:1:0:0:
186,279,243134,1,8,0:1:0:0:
46,347,243218,5,14,0:0:0:0:
303,214,243555,1,8,0:1:0:0:
309,110,244060,1,8,0:0:0:0:
161,73,244228,1,8,0:1:0:0:
446,347,244566,5,8,0:0:0:0:
189,214,244903,1,8,0:1:0:0:
183,110,245408,1,8,0:0:0:0:
331,73,245578,1,8,0:1:0:0:
55,347,245915,5,8,0:0:0:0:
312,214,246252,1,8,0:1:0:0:
178,160,246589,1,8,0:0:0:0:
174,69,246757,1,8,0:0:0:0:
315,41,246926,1,8,0:1:0:0:
64,48,247095,5,8,0:0:0:0:
323,196,247432,1,8,0:0:0:0:
184,200,247600,1,8,0:1:0:0:
455,286,247937,1,8,0:0:0:0:
324,292,248105,1,8,0:0:0:0:
309,187,248274,1,8,0:1:0:0:
158,194,248443,1,8,0:0:0:0:
213,189,248527,1,0,0:0:0:0:
403,179,248611,5,8,0:0:0:0:
415,295,248948,1,8,0:1:0:0:
266,357,249286,1,0,0:0:0:0:
408,336,249454,1,8,0:0:0:0:
164,268,249791,5,2,0:0:0:0:
387,179,250128,1,2,0:0:0:0:
116,109,250465,1,2,0:0:0:0:
373,311,250634,2,0,P|435:278|365:86,1,321.750009819031,10|2,0:0|0:0,0:0:0:0:
126,35,251308,6,0,L|116:268,1,214.500006546021,10|8,0:0|0:1,0:0:0:0:
277,254,251814,1,0,0:0:0:0:
324,223,251898,1,0,0:0:0:0:
341,168,251982,1,0,0:0:0:0:
318,116,252066,1,0,0:0:0:0:
267,90,252151,1,8,0:0:0:0:
30,186,252319,1,8,0:1:0:0:
161,157,252488,1,8,0:0:0:0:
385,272,252656,5,8,0:1:0:0:
254,308,252825,1,8,0:0:0:0:
488,156,252993,1,8,0:1:0:0:
352,188,253162,1,8,0:0:0:0:
493,154,253330,2,0,L|498:220,1,53.6250016365052,8|8,0:1|0:1,0:0:0:0:
224,39,253499,1,8,0:0:0:0:
363,71,253668,1,8,0:1:0:0:
115,110,253836,1,8,0:1:0:0:
57,103,253920,1,8,0:1:0:0:
304,336,254005,6,0,L|312:208,1,107.25000327301,4|0,0:0|0:0,0:0:0:0:
192,232,254342,2,0,L|184:112,1,107.25000327301,8|0,0:0|0:0,0:0:0:0:
48,160,254679,2,0,L|56:32,1,107.25000327301,2|0,0:0|0:0,0:0:0:0:
184,56,255016,2,8,L|40:56,1,107.25000327301,10|0,0:0|0:0,0:0:0:0:
216,240,255353,6,0,L|224:112,1,107.25000327301
104,128,255690,2,0,L|224:128,1,107.25000327301,10|0,0:0|0:0,0:0:0:0:
328,96,256027,2,0,L|208:96,1,107.25000327301,2|0,0:0|0:0,0:0:0:0:
336,152,256364,2,0,L|480:152,1,107.25000327301,10|0,0:0|0:0,0:0:0:0:
296,336,256701,6,0,P|240:272|320:184,1,214.500006546021,2|0,0:0|0:0,0:0:0:0:
192,184,257207,2,0,P|128:112|216:40,1,214.500006546021,2|0,0:0|0:0,0:0:0:0:
304,200,257713,6,0,L|72:192,2,214.500006546021,2|8|2,0:0|0:0|0:0,0:0:0:0:
448,168,258555,1,0,0:0:0:0:
456,112,258639,1,0,0:0:0:0:
464,56,258724,1,8,0:0:0:0:
328,48,258892,1,0,0:0:0:0:
464,56,259061,2,0,L|344:56,1,107.25000327301,10|0,0:0|0:0,0:0:0:0:
216,192,259398,6,0,L|448:192,1,214.500006546021,2|8,0:0|0:0,0:0:0:0:
304,288,259904,2,0,L|240:288,2,53.6250016365052,2|0|8,0:0|0:0|0:0,0:0:0:0:
440,280,260241,2,0,L|448:144,1,107.25000327301,2|8,0:0|0:0,0:0:0:0:
304,176,260578,2,0,L|296:104,1,53.6250016365052,2|0,0:0|0:0,0:0:0:0:
368,88,260746,6,0,L|504:88,1,107.25000327301,8|0,0:0|0:0,0:0:0:0:
336,272,261083,2,0,L|192:272,1,107.25000327301,10|0,0:0|0:0,0:0:0:0:
280,224,261336,1,2,0:0:0:0:
224,200,261420,1,2,0:0:0:0:
176,176,261505,1,2,0:0:0:0:
224,144,261589,1,2,0:0:0:0:
88,304,261757,2,0,L|80:160,1,107.25000327301,10|2,0:0|0:0,0:0:0:0:
144,192,262010,1,2,0:0:0:0:
336,184,262095,6,0,L|464:184,1,107.25000327301,10|0,0:0|0:0,0:0:0:0:
288,72,262432,2,0,L|160:72,1,107.25000327301,10|0,0:0|0:0,0:0:0:0:
136,96,262684,1,2,0:0:0:0:
112,144,262769,1,2,0:0:0:0:
136,200,262853,1,2,0:0:0:0:
184,208,262937,1,2,0:0:0:0:
312,240,263106,1,10,0:0:0:0:
176,304,263274,1,2,0:0:0:0:
368,320,263443,6,0,L|376:168,1,107.25000327301,8|0,0:0|0:0,0:0:0:0:
224,224,263780,2,0,L|216:96,1,107.25000327301,8|0,0:0|0:0,0:0:0:0:
360,112,264117,1,8,0:0:0:0:
224,64,264286,1,8,0:0:0:0:
360,32,264454,1,8,0:0:0:0:
128,16,264623,1,8,0:0:0:0:
360,336,264791,6,0,L|488:336,1,107.25000327301,4|0,0:0|0:0,0:0:0:0:
320,240,265128,2,0,L|200:240,1,107.25000327301,0|0,0:0|0:0,0:0:0:0:
64,176,265465,2,0,L|184:176,1,107.25000327301,0|0,0:0|0:0,0:0:0:0:
440,104,265802,6,0,L|216:104,1,214.500006546021,10|0,0:0|0:0,0:0:0:0:
368,160,266308,1,0,0:0:0:0:
224,320,266477,2,0,L|216:168,1,107.25000327301,10|0,0:0|0:0,0:0:0:0:
368,160,266814,2,0,L|376:16,1,107.25000327301,10|0,0:0|0:0,0:0:0:0:
224,48,267151,2,0,L|344:48,1,107.25000327301,10|0,0:0|0:0,0:0:0:0:
88,336,267488,6,0,L|80:200,1,107.25000327301,10|0,0:0|0:0,0:0:0:0:
224,216,267825,1,8,0:0:0:0:
80,160,267993,2,0,L|216:160,1,107.25000327301,2|8,0:0|0:0,0:0:0:0:
416,96,268330,2,0,L|176:96,1,214.500006546021,2|0,0:0|0:0,0:0:0:0:
328,288,268836,6,0,L|336:160,1,107.25000327301,10|0,0:0|0:0,0:0:0:0:
192,200,269173,2,0,L|184:80,1,107.25000327301,10|0,0:0|0:0,0:0:0:0:
48,120,269510,2,0,L|56:0,1,107.25000327301,10|0,0:0|0:0,0:0:0:0:
184,92,269847,1,8,0:0:0:0:
48,120,270016,1,8,0:0:0:0:
392,344,270184,5,4,0:0:0:0:
427,305,270268,1,0,0:0:0:0:
427,253,270352,1,0,0:0:0:0:
391,214,270436,1,0,0:0:0:0:
216,208,270521,2,0,L|144:208,1,53.6250016365052,8|0,0:1|0:0,0:0:0:0:
408,216,270690,1,2,0:0:0:0:
445,179,270774,1,0,0:0:0:0:
441,127,270858,1,0,0:0:0:0:
398,98,270942,1,0,0:0:0:0:
248,288,271027,2,0,L|168:288,1,53.6250016365052,8|0,0:0|0:0,0:0:0:0:
40,224,271196,1,8,0:1:0:0:
36,171,271280,1,0,0:0:0:0:
64,127,271364,1,8,0:0:0:0:
114,109,271448,1,0,0:0:0:0:
304,336,271533,5,14,0:0:0:0:
251,329,271617,1,0,0:0:0:0:
210,296,271701,1,0,0:0:0:0:
191,246,271785,1,0,0:0:0:0:
344,192,271870,2,0,L|416:192,1,53.6250016365052,8|0,0:1|0:0,0:0:0:0:
192,160,272038,1,10,0:0:0:0:
206,109,272122,1,0,0:0:0:0:
245,73,272206,1,0,0:0:0:0:
297,63,272290,1,0,0:0:0:0:
128,328,272375,2,0,L|32:328,1,53.6250016365052,8|0,0:0|0:0,0:0:0:0:
296,328,272544,1,8,0:1:0:0:
337,297,272628,1,0,0:0:0:0:
340,245,272712,1,8,0:0:0:0:
302,209,272796,1,0,0:0:0:0:
104,216,272881,5,14,0:0:0:0:
66,179,272965,1,0,0:0:0:0:
70,128,273049,1,0,0:0:0:0:
111,97,273133,1,0,0:0:0:0:
296,96,273218,2,0,L|384:96,1,53.6250016365052,8|0,0:1|0:0,0:0:0:0:
192,272,273387,2,0,L|128:280,1,53.6250016365052,8|0,0:0|0:0,0:0:0:0:
344,336,273555,2,0,L|352:248,1,53.6250016365052,8|0,0:1|0:0,0:0:0:0:
192,192,273724,2,0,L|272:184,1,53.6250016365052,8|0,0:0|0:0,0:0:0:0:
416,168,273892,2,8,L|480:160,1,53.6250016365052,8|0,0:1|0:0,0:0:0:0:
248,48,274061,5,14,0:0:0:0:
203,75,274145,1,0,0:0:0:0:
187,125,274229,1,0,0:0:0:0:
206,174,274313,1,0,0:0:0:0:
252,199,274398,1,0,0:0:0:0:
304,188,274482,1,0,0:0:0:0:
336,147,274566,1,0,0:0:0:0:
335,95,274650,1,0,0:0:0:0:
300,55,274735,1,0,0:0:0:0:
248,48,274819,1,0,0:0:0:0:
400,320,274904,2,8,L|472:312,3,53.6250016365052,8|8|8|8,3:0|3:0|3:0|3:0,3:0:0:0:
248,336,275241,2,0,L|72:320,1,160.875004909516,2|0,0:1|0:0,0:0:0:0:
288,192,275578,6,0,L|440:192,1,107.25000327301,14|0,0:0|0:0,0:0:0:0:
128,96,275915,2,0,L|96:96,2,26.8125008182526,2|0|0,0:0|0:0|0:0,0:0:0:0:
352,48,276083,2,0,L|400:48,2,26.8125008182526,2|0|0,0:0|0:0|0:0,0:0:0:0:
144,264,276252,1,8,0:1:0:0:
280,248,276420,5,0,3:0:0:0:
328,232,276463,1,0,3:0:0:0:
344,176,276505,1,0,3:0:0:0:
328,120,276547,1,0,3:0:0:0:
288,96,276589,1,0,3:0:0:0:
328,120,276631,1,0,3:0:0:0:
344,176,276673,1,0,3:0:0:0:
136,352,276757,6,0,P|48:264|136:184,1,268.125008182526,12|0,0:0|0:0,0:0:0:0:
312,112,277263,2,0,L|184:112,1,107.25000327301,8|0,0:0|0:0,0:0:0:0:
440,328,277600,2,2,L|504:328,2,35.7500010910034,10|0|0,0:1|0:0|0:0,0:0:0:0:
296,264,277769,2,2,L|240:264,2,35.7500010910034,0|0|0,0:0|0:0|0:0,0:0:0:0:
432,216,277937,5,2,0:0:0:0:
472,184,277993,1,2,0:0:0:0:
472,152,278050,1,2,0:0:0:0:
440,128,278106,1,2,0:0:0:0:
440,80,278148,1,2,0:0:0:0:
472,56,278190,1,2,0:0:0:0:
248,48,278274,6,0,L|72:48,1,160.875004909516,12|0,0:0|0:0,0:0:0:0:
240,328,278611,1,2,3:1:0:0:
248,302,278653,1,0,3:0:0:0:
248,276,278695,1,0,3:0:0:0:
239,251,278737,1,0,3:0:0:0:
176,240,278780,2,0,L|160:200,2,26.8125008182526,2|0|0,3:0|3:0|3:0,3:0:0:0:
400,328,278948,5,12,0:1:0:0:
373,326,278990,1,0,0:0:0:0:
346,325,279032,1,0,0:0:0:0:
319,323,279074,1,0,0:0:0:0:
292,322,279116,1,0,0:0:0:0:
264,320,279158,1,0,0:0:0:0:
239,319,279200,1,0,0:0:0:0:
212,317,279242,1,0,0:0:0:0:
185,316,279285,1,0,0:0:0:0:
159,314,279327,1,0,0:0:0:0:
132,313,279369,1,0,0:0:0:0:
424,40,279454,6,0,P|480:96|416:200,1,214.500006546021,12|8,0:0|0:0,0:0:0:0:
160,200,279960,1,8,0:1:0:0:
421,198,280128,2,0,L|197:198,1,214.500006546021,4|8,0:0|0:0,0:0:0:0:
328,144,280634,1,8,0:1:0:0:
80,144,280802,1,8,0:0:0:0:
336,336,280971,6,0,P|376:264|312:208,1,160.875004909516,12|0,0:0|0:0,0:0:0:0:
80,200,281308,2,0,L|88:152,1,26.8125008182526,2|0,0:0|0:0,0:0:0:0:
112,160,281392,1,0,0:0:0:0:
336,192,281477,2,0,L|328:144,1,26.8125008182526,2|0,0:0|0:0,0:0:0:0:
304,152,281561,1,0,0:0:0:0:
88,96,281645,1,8,0:1:0:0:
208,328,281814,5,0,3:0:0:0:
181,334,281856,1,0,3:0:0:0:
155,332,281898,1,0,3:0:0:0:
130,323,281940,1,0,3:0:0:0:
108,308,281982,1,0,3:0:0:0:
91,287,282024,1,0,3:0:0:0:
81,262,282066,1,0,3:0:0:0:
336,240,282151,6,0,L|448:240,1,107.25000327301,12|0,0:0|0:0,0:0:0:0:
208,88,282488,2,0,L|80:88,1,107.25000327301,8|0,0:0|0:0,0:0:0:0:
336,240,282825,1,8,0:0:0:0:
96,240,282993,2,0,L|96:168,1,53.6250016365052,8|0,0:1|0:0,0:0:0:0:
336,152,283162,2,0,L|368:152,2,26.8125008182526,2|0|0,0:0|0:0|0:0,0:0:0:0:
96,120,283330,2,0,L|272:120,1,160.875004909516,8|0,0:0|0:0,0:0:0:0:
472,320,283668,6,0,L|248:320,1,214.500006546021,14|2,0:0|0:0,0:0:0:0:
376,264,284173,1,8,0:0:0:0:
96,224,284342,1,8,0:1:0:0:
376,168,284510,2,0,P|424:144|360:88,1,160.875004909516,2|0,0:0|0:0,0:0:0:0:
96,80,284847,6,0,P|40:120|112:232,1,214.500006546021,12|8,0:0|0:0,0:0:0:0:
368,232,285353,1,8,0:1:0:0:
96,232,285521,2,0,L|336:232,1,214.500006546021,4|8,0:0|0:1,0:0:0:0:
56,336,286027,1,8,0:1:0:0:
312,328,286196,2,8,L|376:328,1,53.6250016365052,8|8,0:1|0:1,0:1:0:0:
176,224,286364,5,12,0:0:0:0:
296,160,286533,2,0,L|344:160,2,26.8125008182526,2|0|0,0:0|0:0|0:0,0:0:0:0:
112,112,286701,1,2,0:0:0:0:
144,112,286743,1,0,0:0:0:0:
184,112,286786,1,0,0:0:0:0:
408,112,286870,1,10,0:0:0:0:
184,256,287038,1,8,0:1:0:0:
320,256,287207,5,0,3:0:0:0:
343,242,287249,1,0,3:0:0:0:
352,216,287291,1,0,3:0:0:0:
344,192,287333,1,0,3:0:0:0:
296,192,287375,1,0,3:0:0:0:
280,168,287417,1,0,3:0:0:0:
296,136,287459,1,0,3:0:0:0:
488,64,287544,6,0,L|232:64,1,253.499988395691,12|0,0:0|0:0,0:0:0:0:
64,88,288050,2,0,L|200:88,1,126.749994197846,8|0,0:0|0:0,0:0:0:0:
480,256,288387,2,0,L|288:256,1,190.124991296769,8|0,0:1|0:0,0:0:0:0:
96,208,288724,2,0,L|288:208,1,190.124991296769,2|0,0:0|0:0,0:0:0:0:
80,352,289061,6,0,P|32:288|96:232,1,160.875004909516,14|0,0:0|0:0,0:0:0:0:
304,216,289398,1,2,0:1:0:0:
304,184,289440,1,0,0:0:0:0:
272,176,289482,1,0,0:0:0:0:
72,144,289566,1,4,0:3:0:0:
48,136,289609,1,0,0:0:0:0:
72,120,289651,1,0,0:0:0:0:
216,312,289735,2,0,B|472:312|472:312|320:144|320:144|456:48,1,609.375,8|0,0:1|0:0,0:0:0:0:
120,320,290241,6,0,P|56:240|128:176,1,214.500006546021,14|8,0:0|0:0,0:0:0:0:
424,136,290746,1,8,0:1:0:0:
120,56,290915,2,0,L|360:56,1,214.500006546021,14|8,0:0|0:0,0:0:0:0:
80,128,291420,1,8,0:1:0:0:
192,200,291589,2,0,L|128:200,1,53.6250016365052,8|8,0:0|0:1,0:0:0:0:
344,352,291757,6,0,P|408:296|336:200,1,214.500006546021,14|0,0:0|0:0,0:0:0:0:
200,208,292263,2,0,L|72:208,1,107.25000327301,8|8,0:0|0:1,0:0:0:0:
352,72,292600,2,0,L|464:72,1,107.25000327301,2|8,0:0|0:0,0:0:0:0:
200,304,292937,2,0,L|200:240,1,53.6250016365052,8|8,0:1|0:1,0:0:0:0:
448,208,293106,6,0,L|224:208,2,214.500006546021,14|8|8,0:0|0:0|0:1,0:0:0:0:
320,264,293948,1,2,0:0:0:0:
448,312,294117,1,8,0:1:0:0:
152,312,294286,1,10,0:1:0:0:
448,168,294454,6,0,L|216:168,1,214.500006546021,14|0,0:0|0:0,0:0:0:0:
352,120,294960,1,8,0:0:0:0:
80,288,295128,1,8,0:1:0:0:
224,232,295297,1,8,0:0:0:0:
80,192,295465,1,8,0:1:0:0:
352,40,295634,2,8,L|416:40,1,53.6250016365052,8|8,0:1|0:1,0:1:0:0:
224,112,295802,5,8,0:0:0:0:
360,200,296055,1,8,0:0:0:0:
176,288,296139,2,0,L|168:176,1,107.25000327301,8|8,0:1|0:0,0:0:0:0:
464,128,296477,2,8,L|400:128,2,53.6250016365052,8|8|8,0:1|0:1|0:1,0:1:0:0:
168,216,296814,1,8,0:1:0:0:
408,312,296982,1,8,0:1:0:0:
468,312,297066,1,8,0:1:0:0:
298,212,297151,6,0,L|142:212,1,116.999996429443,4|0,0:0|0:0,0:0:0:0:
430,113,297488,1,8,0:1:0:0:
272,166,297656,2,0,L|271:266,1,58.4999982147217,2|0,0:0|0:0,0:0:0:0:
354,220,297825,2,0,L|355:320,1,58.4999982147217,10|0,0:0|0:0,0:0:0:0:
147,320,297993,1,8,0:0:0:0:
298,321,298162,1,8,0:1:0:0:
147,320,298330,2,0,L|68:317,1,58.4999982147217,2|0,0:0|0:0,0:0:0:0:
256,248,298499,6,0,L|259:122,1,116.999996429443,8|0,0:0|0:0,0:0:0:0:
107,91,298836,2,0,L|235:94,1,116.999996429443,8|2,0:1|0:0,0:0:0:0:
475,195,299173,1,10,0:0:0:0:
319,193,299342,1,8,0:0:0:0:
475,195,299510,1,8,0:1:0:0:
202,268,299679,2,0,L|197:187,1,58.4999982147217,2|0,0:0|0:0,0:0:0:0:
368,119,299847,6,0,L|231:104,1,116.999996429443,8|0,0:0|0:0,0:0:0:0:
406,78,300184,1,8,0:1:0:0:
248,237,300353,1,2,0:0:0:0:
252,178,300437,1,0,0:0:0:0:
280,127,300521,1,10,0:0:0:0:
333,101,300606,1,0,0:0:0:0:
391,95,300690,1,8,0:0:0:0:
149,88,300859,1,8,0:1:0:0:
396,177,301027,6,0,L|142:210,1,233.999992858887,4|8,0:0|0:0,0:0:0:0:
457,289,301533,1,8,0:1:0:0:
320,257,301701,1,2,0:0:0:0:
457,289,301870,1,10,0:0:0:0:
166,323,302038,1,8,0:0:0:0:
303,296,302207,1,8,0:1:0:0:
53,269,302375,1,8,0:0:0:0:
116,259,302460,1,8,0:1:0:0:
301,191,302544,6,0,L|312:320,1,116.999996429443,14|0,0:0|0:0,0:0:0:0:
174,331,302881,1,8,0:1:0:0:
408,239,303050,1,2,0:0:0:0:
268,202,303218,2,0,L|263:126,1,58.4999982147217,10|0,0:0|0:0,0:0:0:0:
482,33,303387,1,8,0:0:0:0:
339,61,303555,1,8,0:1:0:0:
71,174,303724,6,0,P|92:101|249:21,1,233.999992858887,2|2,0:0|0:0,0:0:0:0:
462,147,304229,1,8,0:1:0:0:
323,111,304398,1,2,0:0:0:0:
66,283,304566,2,0,L|60:199,1,58.4999982147217,10|0,0:0|0:0,0:0:0:0:
218,187,304735,1,8,0:0:0:0:
447,151,304904,2,0,L|314:138,1,116.999996429443,8|2,0:1|0:0,0:0:0:0:
63,223,305241,6,0,L|190:194,1,116.999996429443,10|0,0:0|0:0,0:0:0:0:
23,133,305578,1,8,0:1:0:0:
294,82,305746,2,0,L|298:212,1,116.999996429443,2|8,0:0|0:0,0:0:0:0:
153,177,306083,1,2,0:0:0:0:
403,231,306252,1,8,0:1:0:0:
150,225,306420,6,0,L|20:240,1,116.999996429443,6|0,0:0|0:0,0:0:0:0:
310,303,306757,1,8,0:1:0:0:
37,311,306926,1,8,0:1:0:0:
174,291,307095,1,2,0:0:0:0:
37,311,307263,2,0,L|32:223,1,58.4999982147217,8|8,0:0|0:1,0:0:0:0:
236,173,307432,2,0,L|119:181,1,116.999996429443,8|8,0:0|0:1,0:0:0:0:
358,228,307769,2,4,L|449:223,1,58.4999982147217,8|8,0:0|0:1,0:0:0:0:
188,288,307937,6,4,P|137:251|217:138,1,233.999992858887,4|8,0:0|0:1,0:0:0:0:
471,212,308443,1,2,0:0:0:0:
460,154,308527,1,0,0:0:0:0:
428,106,308611,1,10,0:0:0:0:
380,73,308695,1,0,0:0:0:0:
323,61,308780,1,8,0:0:0:0:
170,148,308948,2,0,L|307:159,1,116.999996429443,8|2,0:1|0:0,0:0:0:0:
29,348,309286,6,0,L|21:204,1,116.999996429443,8|0,0:0|0:0,0:0:0:0:
175,217,309623,2,0,L|58:207,1,116.999996429443,8|2,0:1|0:0,0:0:0:0:
294,175,309960,1,10,0:0:0:0:
152,215,310128,1,8,0:0:0:0:
385,281,310297,2,0,L|502:271,1,116.999996429443,8|2,0:1|0:0,0:0:0:0:
232,295,310634,6,0,L|222:146,1,116.999996429443,8|0,0:0|0:0,0:0:0:0:
371,145,310971,1,8,0:1:0:0:
134,95,311139,2,0,L|63:86,2,58.4999982147217,2|0|10,0:0|0:0|0:0,0:0:0:0:
391,226,311477,1,8,0:0:0:0:
242,262,311645,1,8,0:1:0:0:
482,168,311814,6,0,L|486:331,1,116.999996429443,4|0,0:0|0:0,0:0:0:0:
329,246,312151,1,8,0:0:0:0:
486,285,312319,2,0,L|321:300,1,116.999996429443,8|2,0:1|0:0,0:0:0:0:
203,201,312656,2,0,L|368:216,1,116.999996429443,10|8,0:0|0:0,0:0:0:0:
160,196,312993,1,8,0:1:0:0:
412,135,313162,1,8,0:0:0:0:
472,141,313246,1,8,0:1:0:0:
248,327,313330,6,0,L|121:316,2,116.999996429443,14|0|8,0:0|0:0|0:1,0:0:0:0:
384,361,313836,2,0,L|390:292,1,58.4999982147217,2|0,0:0|0:0,0:0:0:0:
239,193,314005,2,0,L|154:183,2,58.4999982147217,10|0|8,0:0|0:0|0:0,0:0:0:0:
480,140,314342,1,8,0:1:0:0:
334,120,314510,1,2,0:0:0:0:
87,263,314679,6,0,L|79:134,1,116.999996429443,14|0,0:0|0:0,0:0:0:0:
316,214,315016,2,0,L|188:205,1,116.999996429443,8|2,0:1|0:0,0:0:0:0:
357,217,315353,1,10,0:0:0:0:
360,275,315437,1,0,0:0:0:0:
364,333,315521,1,8,0:0:0:0:
37,140,315690,1,8,0:1:0:0:
186,121,315858,1,0,0:0:0:0:
470,111,316027,6,0,L|479:253,1,116.999996429443,14|0,0:0|0:0,0:0:0:0:
219,244,316364,1,8,0:1:0:0:
159,241,316448,1,0,0:0:0:0:
331,318,316533,1,2,0:0:0:0:
474,319,316701,1,14,0:0:0:0:
219,141,316870,1,2,0:0:0:0:
362,142,317038,1,8,0:1:0:0:
46,144,317207,1,4,0:0:0:0:
256,192,317375,12,4,318387,0:3:0:0:
450,215,318724,5,4,0:0:0:0:
322,170,318892,1,0,0:0:0:0:
85,235,319061,1,8,0:1:0:0:
322,170,319229,1,0,0:0:0:0:
192,131,319398,2,0,L|183:260,1,107.25000327301,8|0,0:0|0:0,0:0:0:0:
435,284,319735,2,0,L|319:295,1,107.25000327301,8|0,0:1|0:0,0:0:0:0:
79,196,320072,6,0,L|70:325,1,107.25000327301,8|0,0:0|0:0,0:0:0:0:
213,263,320409,1,8,0:1:0:0:
71,303,320578,1,2,0:0:0:0:
77,251,320662,1,0,0:0:0:0:
104,205,320746,1,10,0:0:0:0:
148,175,320830,1,0,0:0:0:0:
208,163,320915,1,8,0:0:0:0:
433,196,321083,2,0,L|442:325,1,107.25000327301,8|2,0:1|0:0,0:0:0:0:
199,104,321420,6,0,L|317:96,1,107.25000327301,8|0,0:0|0:0,0:0:0:0:
438,48,321757,2,0,L|320:40,1,107.25000327301,8|2,0:1|0:0,0:0:0:0:
181,116,322095,2,0,L|173:191,1,53.6250016365052,10|0,0:0|0:0,0:0:0:0:
330,137,322263,2,0,L|455:145,2,107.25000327301,8|8|2,0:0|0:1|0:0,0:0:0:0:
105,215,322769,6,0,L|227:223,1,107.25000327301,8|0,0:0|0:0,0:0:0:0:
367,216,323106,2,0,L|376:98,1,107.25000327301,8|2,0:1|0:0,0:0:0:0:
227,96,323443,1,10,0:0:0:0:
281,85,323527,1,0,0:0:0:0:
335,75,323611,1,8,0:0:0:0:
101,200,323780,1,8,0:1:0:0:
252,241,323948,1,8,0:0:0:0:
312,226,324033,1,8,0:1:0:0:
103,357,324117,6,0,L|96:240,1,107.25000327301,8|0,0:0|0:0,0:0:0:0:
243,236,324454,2,0,L|108:220,1,107.25000327301,8|2,0:1|0:0,0:0:0:0:
406,149,324791,1,10,0:0:0:0:
265,129,324960,1,8,0:0:0:0:
406,149,325128,2,0,L|416:255,1,107.25000327301,8|2,0:1|0:0,0:0:0:0:
161,313,325465,6,0,L|40:280,1,116.999996429443,8|0,0:0|0:0,0:0:0:0:
203,255,325802,1,8,0:1:0:0:
48,282,325971,1,2,0:0:0:0:
54,230,326055,1,0,0:0:0:0:
81,184,326139,1,10,0:0:0:0:
125,154,326223,1,0,0:0:0:0:
185,142,326308,1,8,0:0:0:0:
434,262,326477,2,0,L|320:208,1,116.999996429443,8|2,0:1|0:0,0:0:0:0:
90,334,326814,6,0,L|80:200,1,116.999996429443,8|0,0:0|0:0,0:0:0:0:
213,205,327151,1,8,0:1:0:0:
75,184,327319,1,2,0:0:0:0:
227,198,327488,1,10,0:0:0:0:
233,144,327572,1,0,0:0:0:0:
239,90,327656,1,8,0:0:0:0:
89,66,327825,2,0,L|208:24,1,116.999996429443,8|2,0:1|0:0,0:0:0:0:
353,96,328162,6,0,L|360:232,1,116.999996429443,8|0,0:0|0:0,0:0:0:0:
109,232,328499,1,8,0:1:0:0:
226,301,328668,2,0,L|152:304,1,58.4999982147217,10|0,0:0|0:0,0:0:0:0:
428,176,328920,1,8,0:1:0:0:
485,175,329005,1,8,0:0:0:0:
253,123,329173,2,0,L|136:112,1,116.999996429443,8|8,0:1|0:0,0:0:0:0:
200,120,329426,1,8,0:1:0:0:
416,305,329510,6,0,L|423:171,1,107.25000327301,10|0,0:0|0:0,0:0:0:0:
155,201,329847,1,8,0:1:0:0:
283,193,330016,1,2,0:0:0:0:
278,139,330100,1,0,0:0:0:0:
252,93,330184,1,10,0:0:0:0:
209,61,330268,1,0,0:0:0:0:
157,50,330353,1,8,0:0:0:0:
386,114,330521,2,0,L|519:100,1,107.25000327301,8|2,0:1|0:0,0:0:0:0:
362,159,330859,6,0,L|246:149,1,107.25000327301,8|0,0:0|0:0,0:0:0:0:
24,243,331196,1,8,0:1:0:0:
152,235,331365,1,2,0:0:0:0:
147,181,331449,1,0,0:0:0:0:
121,135,331533,1,10,0:0:0:0:
78,103,331617,1,0,0:0:0:0:
26,92,331702,1,8,0:0:0:0:
272,51,331870,2,0,L|282:198,1,107.25000327301,8|2,0:1|0:0,0:0:0:0:
140,192,332207,6,0,L|263:183,1,107.25000327301,8|0,0:0|0:0,0:0:0:0:
482,245,332544,1,8,0:1:0:0:
354,237,332713,1,2,0:0:0:0:
359,183,332797,1,0,0:0:0:0:
385,137,332881,1,10,0:0:0:0:
428,105,332965,1,0,0:0:0:0:
480,94,333050,1,8,0:0:0:0:
241,69,333218,2,0,L|134:76,1,107.25000327301,8|2,0:1|0:0,0:0:0:0:
393,333,333555,6,0,L|405:200,1,107.25000327301,8|0,0:0|0:0,0:0:0:0:
266,196,333892,2,0,L|414:185,1,107.25000327301,8|0,0:1|0:0,0:0:0:0:
106,105,334229,2,0,L|254:94,1,107.25000327301,8|2,0:0|0:0,0:0:0:0:
68,72,334566,1,10,0:1:0:0:
311,140,334735,1,8,0:0:0:0:
378,130,334819,1,8,0:1:0:0:
206,243,334904,6,0,L|64:227,1,107.25000327301,10|0,0:0|0:0,0:0:0:0:
350,252,335241,1,8,0:1:0:0:
221,249,335409,1,2,0:0:0:0:
172,218,335493,1,0,0:0:0:0:
155,164,335578,1,10,0:0:0:0:
175,110,335661,1,0,0:0:0:0:
225,81,335746,1,8,0:0:0:0:
463,31,335915,2,0,L|471:157,1,107.25000327301,8|2,0:1|0:0,0:0:0:0:
330,151,336252,6,0,L|443:164,1,107.25000327301,8|0,0:0|0:0,0:0:0:0:
190,300,336589,1,8,0:1:0:0:
319,297,336757,1,2,0:0:0:0:
368,266,336841,1,0,0:0:0:0:
385,212,336925,1,10,0:0:0:0:
365,158,337009,1,0,0:0:0:0:
315,129,337094,1,8,0:0:0:0:
81,183,337263,2,0,L|68:48,1,107.25000327301,8|2,0:1|0:0,0:0:0:0:
300,59,337600,6,0,L|189:47,1,107.25000327301,8|0,0:0|0:0,0:0:0:0:
317,140,337937,2,0,L|442:152,1,107.25000327301,8|0,0:1|0:0,0:0:0:0:
297,235,338274,2,0,L|169:225,1,107.25000327301,8|8,0:0|0:0,0:0:0:0:
480,164,338611,1,8,0:1:0:0:
349,151,338780,1,8,0:0:0:0:
122,307,338948,1,8,0:1:0:0:
253,294,339117,1,8,0:0:0:0:
25,147,339286,1,8,0:1:0:0:
17,250,339454,1,8,0:0:0:0:
253,294,339623,2,8,L|260:214,1,53.6250016365052,8|8,0:1|0:1,0:1:0:0:
107,185,339791,1,8,0:0:0:0:
251,125,339960,1,8,0:1:0:0:
104,72,340128,1,8,0:0:0:0:
56,64,340213,1,8,0:1:0:0:
248,40,340297,6,0,L|392:40,1,107.25000327301,4|0,0:0|0:0,0:0:0:0:
96,192,340634,2,0,L|232:192,1,107.25000327301,8|2,0:1|0:0,0:0:0:0:
272,216,340887,1,0,0:0:0:0:
203,192,340971,1,10,0:0:0:0:
184,120,341055,1,0,0:0:0:0:
208,48,341139,1,8,0:0:0:0:
272,32,341224,1,0,0:0:0:0:
336,32,341308,1,8,0:1:0:0:
336,144,341477,2,0,L|264:144,1,53.6250016365052,2|0,0:0|0:0,0:0:0:0:
104,328,341645,6,0,L|232:328,1,107.25000327301,8|0,0:0|0:0,0:0:0:0:
368,272,341982,2,0,L|224:272,1,107.25000327301,8|2,0:1|0:0,0:0:0:0:
192,240,342235,1,0,0:0:0:0:
256,208,342319,2,0,L|256:104,1,53.6250016365052,10|0,0:0|0:0,0:0:0:0:
192,128,342488,2,0,L|112:128,2,53.6250016365052,8|0|8,0:0|0:0|0:1,0:0:0:0:
336,128,342825,1,2,0:0:0:0:
80,328,342993,6,0,L|72:184,1,107.25000327301,8|0,0:0|0:0,0:0:0:0:
224,248,343330,2,0,L|216:112,1,107.25000327301,8|2,0:1|0:0,0:0:0:0:
280,136,343583,1,0,0:0:0:0:
336,96,343668,1,10,0:0:0:0:
336,32,343752,1,0,0:0:0:0:
272,8,343836,1,8,0:0:0:0:
408,352,344005,2,0,L|408:216,1,107.25000327301,8|2,0:1|0:0,0:0:0:0:
336,272,344257,1,0,0:0:0:0:
176,272,344342,6,0,L|32:272,1,107.25000327301,8|0,0:0|0:0,0:0:0:0:
224,168,344679,1,8,0:1:0:0:
64,168,344847,1,2,0:0:0:0:
48,104,344932,1,0,0:0:0:0:
64,48,345016,1,10,0:0:0:0:
120,24,345100,1,0,0:0:0:0:
176,24,345184,1,8,0:0:0:0:
432,216,345353,1,8,0:1:0:0:
176,312,345521,2,0,L|104:320,1,53.6250016365052,8|8,0:0|0:1,0:0:0:0:
324,216,345690,6,0,L|468:216,1,107.25000327301,10|0,0:0|0:0,0:0:0:0:
280,216,346027,2,0,L|272:88,1,107.25000327301,8|2,0:1|0:0,0:0:0:0:
336,64,346280,1,0,0:0:0:0:
272,56,346364,1,10,0:0:0:0:
208,48,346448,1,0,0:0:0:0:
272,32,346533,1,8,0:0:0:0:
144,280,346701,2,0,L|136:144,1,107.25000327301,8|2,0:1|0:0,0:0:0:0:
432,296,347038,6,0,L|304:296,1,107.25000327301,8|0,0:0|0:0,0:0:0:0:
448,168,347375,2,0,L|312:168,1,107.25000327301,8|2,0:1|0:0,0:0:0:0:
280,136,347628,1,0,0:0:0:0:
344,112,347713,1,10,0:0:0:0:
400,96,347797,1,0,0:0:0:0:
344,64,347881,1,8,0:0:0:0:
200,56,348050,2,0,L|192:184,1,107.25000327301,8|2,0:1|0:0,0:0:0:0:
432,344,348387,6,0,L|440:200,1,107.25000327301,8|0,0:0|0:0,0:0:0:0:
288,232,348724,2,0,L|168:232,1,107.25000327301,8|2,0:1|0:0,0:0:0:0:
112,232,348977,1,0,0:0:0:0:
176,192,349061,1,10,0:0:0:0:
200,128,349145,1,0,0:0:0:0:
176,72,349229,1,8,0:0:0:0:
112,48,349314,1,0,0:0:0:0:
176,24,349398,2,0,L|328:24,1,107.25000327301,8|2,0:1|0:0,0:0:0:0:
344,24,349651,1,0,0:0:0:0:
176,264,349735,6,0,L|32:264,1,107.25000327301,8|0,0:0|0:0,0:0:0:0:
336,184,350072,1,8,0:1:0:0:
208,176,350241,2,0,L|200:24,1,107.25000327301,2|8,0:0|0:0,0:0:0:0:
408,48,350493,2,0,L|488:48,1,53.6250016365052,8|8,0:1|0:0,0:0:0:0:
208,248,350746,1,8,0:1:0:0:
320,344,350915,2,8,L|240:344,1,53.6250016365052,8|8,0:1|0:1,0:1:0:0:
456,272,351083,6,0,L|464:136,1,107.25000327301,10|0,0:0|0:0,0:0:0:0:
320,160,351420,2,0,L|176:160,1,107.25000327301,8|2,0:1|0:0,0:0:0:0:
288,136,351673,1,0,0:0:0:0:
216,128,351757,2,0,L|208:24,1,53.6250016365052,10|0,0:0|0:0,0:0:0:0:
280,88,351926,2,0,L|288:16,1,53.6250016365052,8|0,0:0|0:0,0:0:0:0:
208,32,352095,2,0,L|80:32,1,107.25000327301,8|2,0:1|0:0,0:0:0:0:
368,320,352432,6,0,L|240:320,1,107.25000327301,8|0,0:0|0:0,0:0:0:0:
104,256,352769,2,0,L|248:256,1,107.25000327301,8|2,0:1|0:0,0:0:0:0:
272,248,353021,1,0,0:0:0:0:
224,208,353106,1,10,0:0:0:0:
208,152,353190,1,0,0:0:0:0:
224,88,353274,1,8,0:0:0:0:
280,56,353359,1,0,0:0:0:0:
352,56,353443,2,0,L|360:208,1,107.25000327301,0|2,0:1|0:0,0:0:0:0:
288,168,353696,1,0,0:0:0:0:
96,320,353780,6,0,L|88:176,1,107.25000327301,8|0,0:0|0:0,0:0:0:0:
224,176,354117,2,0,L|368:176,1,107.25000327301,8|2,0:1|0:0,0:0:0:0:
400,152,354370,1,0,0:0:0:0:
328,128,354454,2,0,L|256:128,2,53.6250016365052,10|0|8,0:0|0:0|0:0,0:0:0:0:
168,312,354791,2,0,L|160:176,1,107.25000327301,8|2,0:1|0:0,0:0:0:0:
232,192,355044,1,0,0:0:0:0:
376,272,355128,6,0,L|368:128,1,107.25000327301,8|0,0:0|0:0,0:0:0:0:
232,216,355465,2,0,L|240:80,1,107.25000327301,8|2,0:1|0:0,0:0:0:0:
168,104,355718,1,0,0:0:0:0:
240,96,355802,1,10,0:0:0:0:
312,88,355887,1,0,0:0:0:0:
240,96,355971,1,8,0:0:0:0:
96,104,356139,1,8,0:1:0:0:
232,256,356308,2,0,L|328:256,1,53.6250016365052,8|8,0:0|0:1,0:0:0:0:
96,336,356477,6,0,L|88:248,1,53.6250016365052,14|0,0:0|0:0,0:0:0:0:
176,272,356645,2,0,L|168:208,1,53.6250016365052,0|0,0:0|0:0,0:0:0:0:
256,216,356814,2,0,L|248:152,1,53.6250016365052,0|0,0:0|0:0,0:0:0:0:
344,168,356982,2,0,L|336:96,1,53.6250016365052,0|0,0:0|0:0,0:0:0:0:
176,112,357151,2,0,L|184:48,1,53.6250016365052,0|0,0:0|0:0,0:0:0:0:
256,88,357319,2,0,L|264:24,1,53.6250016365052,8|0,0:0|0:0,0:0:0:0:
336,80,357488,2,0,L|344:16,1,53.6250016365052,0|0,0:0|0:0,0:0:0:0:
416,72,357656,2,0,L|424:16,1,53.6250016365052,0|0,0:0|0:0,0:0:0:0:
232,312,357825,6,0,L|144:304,1,53.6250016365052,8|0,0:0|0:0,0:0:0:0:
256,256,357993,2,0,L|344:248,1,53.6250016365052,0|0,0:0|0:0,0:0:0:0:
376,192,358162,2,0,L|304:192,1,53.6250016365052,0|0,0:0|0:0,0:0:0:0:
256,144,358330,2,0,L|328:144,1,53.6250016365052,0|0,0:0|0:0,0:0:0:0:
240,112,358499,2,0,L|232:32,1,53.6250016365052,0|0,0:0|0:0,0:0:0:0:
408,328,358668,2,0,L|416:256,1,53.6250016365052,8|0,0:0|0:0,0:0:0:0:
336,272,358836,2,0,L|344:184,1,53.6250016365052,0|0,0:0|0:0,0:0:0:0:
264,216,359005,2,0,L|272:136,1,53.6250016365052,0|0,0:0|0:0,0:0:0:0:
472,104,359173,6,0,L|392:104,1,53.6250016365052,12|0,0:0|0:0,0:0:0:0:
352,152,359342,2,0,L|344:72,1,53.6250016365052,0|0,0:0|0:0,0:0:0:0:
416,104,359510,2,0,L|424:24,1,53.6250016365052,0|0,0:0|0:0,0:0:0:0:
352,32,359679,2,0,L|272:32,1,53.6250016365052,0|0,0:0|0:0,0:0:0:0:
240,80,359847,2,0,L|232:144,1,53.6250016365052,0|0,0:0|0:0,0:0:0:0:
376,192,360016,1,8,0:0:0:0:
424,224,360100,1,0,0:0:0:0:
440,288,360184,1,0,0:0:0:0:
416,344,360269,1,0,0:0:0:0:
232,344,360353,2,0,L|168:344,1,53.6250016365052
376,192,360521,5,12,0:0:0:0:
248,192,360690,2,0,L|184:192,2,53.6250016365052,0|0|0,0:0|0:0|0:0,0:0:0:0:
376,192,361027,1,0,3:2:0:0:
248,112,361196,1,0,3:0:0:0:
192,112,361280,1,0,3:0:0:0:
136,112,361364,1,0,3:0:0:0:
272,32,361533,1,2,3:2:0:0:
136,24,361701,1,2,3:2:0:0:
