osu file format v14

[General]
AudioFilename: audio.mp3
AudioLeadIn: 0
PreviewTime: 29414
Countdown: 0
SampleSet: Soft
StackLeniency: 0.3
Mode: 0
LetterboxInBreaks: 0
WidescreenStoryboard: 1

[Editor]
Bookmarks: 73125,75000,105000,120000,150000,178125,180000,195000
DistanceSpacing: 3.1
BeatDivisor: 4
GridSize: 16
TimelineZoom: 1

[Metadata]
Title:Cheat Codes VIP
TitleUnicode:Cheat Codes VIP
Artist:Nitro Fun
ArtistUnicode:Nitro Fun
Creator:xChorse
Version:Hard
Source:
Tags:monstercat glitch hop dubstep drumstep electronic electrostep bass house nintendo konami code 8 16 bit instrumental cool c00l minorsonek m2usonek
BeatmapID:1510064
BeatmapSetID:711420

[Difficulty]
HPDrainRate:4
CircleSize:3.5
OverallDifficulty:6
ApproachRate:7.3
SliderMultiplier:1.2
SliderTickRate:1

[Events]
//Background and Video events
0,0,"bg.jpg",0,0
//Break Periods
2,15200,28208
2,105200,111646
//Storyboard Layer 0 (Background)
//Storyboard Layer 1 (Fail)
//Storyboard Layer 2 (Pass)
//Storyboard Layer 3 (Foreground)
//Storyboard Layer 4 (Overlay)
//Storyboard Sound Samples

[TimingPoints]
0,468.75,4,2,1,70,1,0
7031,-100,4,2,1,70,0,0
7148,-100,4,2,1,5,0,0
7265,-100,4,2,1,70,0,0
7382,-100,4,2,1,5,0,0
7500,-100,4,2,1,75,0,0
8437,-100,4,2,1,80,0,0
9375,-100,4,2,1,85,0,0
10312,-100,4,2,1,90,0,0
11250,-100,4,2,1,70,0,0
12187,-100,4,2,1,75,0,0
13125,-100,4,2,1,80,0,0
13593,-100,4,2,1,85,0,0
15000,-100,4,2,1,70,0,0
30000,-100,4,2,1,90,0,1
30468,-100,4,2,1,90,0,1
31171,-100,4,2,1,90,0,1
32109,-100,4,2,1,90,0,1
33046,-100,4,2,1,90,0,1
34687,-100,4,2,1,90,0,1
35156,-100,4,2,1,90,0,1
35390,-100,4,2,1,90,0,1
36562,-100,4,2,1,90,0,1
37031,-100,4,2,1,90,0,1
37500,-100,4,2,1,90,0,1
37968,-100,4,2,1,90,0,1
38671,-100,4,2,1,90,0,1
39609,-100,4,2,1,90,0,1
40546,-100,4,2,1,90,0,1
40781,-100,4,2,1,90,0,1
42187,-100,4,2,1,90,0,1
42656,-100,4,2,1,90,0,1
42890,-100,4,2,1,90,0,1
44062,-100,4,2,1,90,0,1
44531,-100,4,2,1,90,0,0
45000,-100,4,2,1,90,0,1
45468,-100,4,2,1,90,0,1
46171,-100,4,2,1,90,0,1
47109,-100,4,2,1,90,0,1
48046,-100,4,2,1,90,0,1
49687,-100,4,2,1,90,0,1
50156,-100,4,2,1,90,0,1
50390,-100,4,2,1,90,0,1
51562,-100,4,2,2,90,0,1
52031,-100,4,2,2,90,0,1
52500,-100,4,2,1,90,0,1
52968,-100,4,2,1,90,0,1
53671,-100,4,2,1,90,0,1
54609,-100,4,2,1,90,0,1
55546,-100,4,2,1,90,0,1
55781,-100,4,2,1,90,0,1
57187,-100,4,2,1,90,0,1
57656,-100,4,2,1,90,0,1
57890,-100,4,2,1,90,0,1
59062,-100,4,2,2,90,0,1
59531,-100,4,2,2,90,0,1
60000,-100,4,2,1,70,0,0
60468,-100,4,2,1,70,0,0
60937,-100,4,2,1,70,0,0
61406,-100,4,2,1,70,0,0
61875,-100,4,2,1,70,0,0
62343,-100,4,2,1,70,0,0
62812,-100,4,2,1,70,0,0
63281,-100,4,2,1,70,0,0
63750,-100,4,2,1,70,0,0
64218,-100,4,2,1,70,0,0
64687,-100,4,2,1,70,0,0
65156,-100,4,2,1,70,0,0
65625,-100,4,2,1,70,0,0
66093,-100,4,2,1,70,0,0
66562,-100,4,2,1,70,0,0
67031,-100,4,2,1,70,0,0
67500,-100,4,2,1,90,0,1
67734,-100,4,2,1,90,0,1
67968,-100,4,2,1,90,0,1
68203,-100,4,2,1,90,0,1
68437,-100,4,2,1,90,0,1
68671,-100,4,2,1,90,0,1
68906,-100,4,2,1,90,0,1
69140,-100,4,2,1,90,0,1
69375,-100,4,2,1,90,0,1
69609,-100,4,2,1,90,0,1
69843,-100,4,2,1,90,0,1
70078,-100,4,2,1,90,0,1
70312,-100,4,2,1,90,0,1
70546,-100,4,2,1,90,0,1
70781,-100,4,2,1,90,0,1
71015,-100,4,2,1,90,0,1
71250,-100,4,2,2,90,0,1
73125,-133.333333333333,4,2,2,90,0,0
75000,-100,4,2,2,90,0,0
76406,-100,4,2,2,90,0,0
78750,-100,4,2,2,90,0,0
79218,-100,4,2,2,90,0,0
82031,-100,4,2,2,90,0,0
82500,-100,4,2,2,90,0,0
83906,-100,4,2,2,90,0,0
86250,-100,4,2,1,80,0,0
90000,-100,4,2,2,90,0,0
91406,-100,4,2,2,90,0,0
93750,-100,4,2,2,90,0,0
94218,-100,4,2,2,90,0,0
97500,-100,4,2,2,90,0,0
98906,-100,4,2,2,90,0,0
101250,-100,4,2,1,80,0,0
104531,-100,4,2,1,90,0,0
105000,-100,4,2,1,70,0,0
118828,-100,4,2,1,70,0,0
120000,-100,4,2,1,70,0,0
121171,-100,4,2,1,70,0,0
121875,-100,4,2,1,70,0,0
123046,-100,4,2,1,70,0,0
123750,-100,4,2,1,70,0,0
124921,-100,4,2,1,70,0,0
125625,-100,4,2,1,70,0,0
127500,-100,4,2,1,70,0,0
128671,-100,4,2,1,70,0,0
129375,-100,4,2,1,70,0,0
130546,-100,4,2,1,70,0,0
131250,-100,4,2,1,70,0,0
132421,-100,4,2,1,70,0,0
133125,-100,4,2,1,70,0,0
135000,-100,4,2,1,80,0,0
136171,-100,4,2,1,80,0,0
138046,-100,4,2,1,80,0,0
138750,-100,4,2,1,80,0,0
139921,-100,4,2,1,80,0,0
140625,-100,4,2,1,80,0,0
142500,-100,4,2,1,80,0,0
143671,-100,4,2,1,80,0,0
144375,-100,4,2,1,80,0,0
145546,-100,4,2,1,80,0,0
146250,-100,4,2,1,80,0,0
147421,-100,4,2,1,80,0,0
148125,-100,4,2,1,80,0,0
149062,-100,4,2,1,80,0,0
150000,-100,4,2,1,80,0,0
150468,-100,4,2,1,80,0,0
150937,-100,4,2,1,80,0,0
151406,-100,4,2,1,80,0,0
151875,-100,4,2,1,80,0,0
152343,-100,4,2,1,80,0,0
152812,-100,4,2,1,80,0,0
153046,-100,4,2,1,80,0,0
153281,-100,4,2,1,80,0,0
153750,-100,4,2,1,80,0,0
154218,-100,4,2,1,80,0,0
154687,-100,4,2,1,80,0,0
155156,-100,4,2,1,80,0,0
155625,-100,4,2,1,80,0,0
156093,-100,4,2,1,80,0,0
156562,-100,4,2,1,80,0,0
157031,-100,4,2,1,80,0,0
157500,-100,4,2,1,90,0,1
157734,-100,4,2,1,90,0,1
157968,-100,4,2,1,90,0,1
158203,-100,4,2,1,90,0,1
158437,-100,4,2,1,90,0,1
158671,-100,4,2,1,90,0,1
158906,-100,4,2,1,90,0,1
159140,-100,4,2,1,90,0,1
159375,-100,4,2,1,90,0,1
159609,-100,4,2,1,90,0,1
159843,-100,4,2,1,90,0,1
160078,-100,4,2,1,90,0,1
160312,-100,4,2,1,90,0,1
160546,-100,4,2,1,90,0,1
160781,-100,4,2,1,90,0,1
161015,-100,4,2,1,90,0,1
163125,-133.333333333333,4,2,2,90,0,0
165000,-100,4,2,2,90,0,0
166406,-100,4,2,2,90,0,0
168750,-100,4,2,2,90,0,0
169218,-100,4,2,2,90,0,0
172500,-100,4,2,2,90,0,0
173906,-100,4,2,2,90,0,0
176250,-100,4,2,1,80,0,0
179531,-100,4,2,1,90,0,0
180000,-100,4,2,1,80,0,0
180468,-100,4,2,1,80,0,0
183750,-100,4,2,1,80,0,0
184687,-100,4,2,1,80,0,0
185156,-100,4,2,1,80,0,0
185625,-100,4,2,1,80,0,0
186093,-100,4,2,1,80,0,0
186562,-100,4,2,1,80,0,0
187031,-100,4,2,1,80,0,0
187500,-100,4,2,1,80,0,0
187968,-100,4,2,1,80,0,0
189375,-100,4,2,1,80,0,0
190312,-100,4,2,1,80,0,0
191250,-100,4,2,1,80,0,0
195468,-100,4,2,1,80,0,0
195937,-100,4,2,1,80,0,0
196406,-100,4,2,1,70,0,0
196875,-100,4,2,1,60,0,0
197343,-100,4,2,1,50,0,0
197812,-100,4,2,1,40,0,0
198281,-100,4,2,1,30,0,0
198750,-100,4,2,1,20,0,0
199218,-100,4,2,1,10,0,0
199687,-100,4,2,1,5,0,0

[Colours]
Combo1 : 29,213,252
Combo2 : 213,0,0
Combo3 : 6,198,16

[HitObjects]
182,144,7031,5,8,0:0:0:0:
182,144,7265,1,0,0:0:0:0:
128,212,7500,6,0,L|118:266,3,30,0|0|0|0,1:0|0:0|0:0|0:0,0:0:0:0:
144,249,7968,2,0,L|144:304,3,30,8|0|0|0,0:0|0:0|0:0|0:0,0:0:0:0:
169,281,8437,6,0,L|178:335,3,30,0|0|0|0,1:0|0:0|0:0|0:0,0:0:0:0:
200,305,8906,2,0,L|219:357,3,30,8|0|0|0,0:0|0:0|0:0|0:0,0:0:0:0:
237,320,9375,6,0,L|264:368,3,30,0|0|0|0,1:0|0:0|0:0|0:0,0:0:0:0:
274,335,9843,2,0,L|308:377,3,30,8|0|0|0,0:0|0:0|0:0|0:0,0:0:0:0:
313,343,10312,6,0,L|353:378,3,30,0|8|0|8,1:0|0:0|0:0|0:0,0:0:0:0:
353,346,10781,2,0,L|424:339,1,60,8|8,0:0|0:0,0:0:0:0:
443,248,11250,6,0,L|453:194,3,30,0|0|0|0,1:0|0:0|0:0|0:0,0:0:0:0:
427,210,11718,2,0,L|427:155,3,30,8|0|0|0,0:0|0:0|0:0|0:0,0:0:0:0:
402,178,12187,6,0,L|392:123,3,30,0|0|0|0,1:0|0:0|0:0|0:0,0:0:0:0:
370,154,12656,2,0,L|351:102,3,30,8|0|0|0,0:0|0:0|0:0|0:0,0:0:0:0:
334,139,13125,6,0,L|306:91,3,30,0|0|0|0,1:0|0:0|0:0|0:0,0:0:0:0:
297,125,13593,2,0,L|262:82,3,30,8|0|0|0,0:0|0:0|0:0|0:0,0:0:0:0:
258,117,14062,6,0,L|216:81,3,30,0|8|0|8,0:0|0:0|0:0|0:0,0:0:0:0:
218,118,14531,2,0,L|167:98,3,30,8|0|8|8,0:0|0:0|0:0|0:0,0:0:0:0:
170,121,15000,5,2,1:3:0:0:
454,42,29062,6,0,L|394:37,1,60,2|2,0:3|0:3,0:0:0:0:
297,84,29531,2,0,L|237:79,1,60,8|0,0:0|0:0,0:0:0:0:
124,67,30000,6,0,P|124:128|86:196,1,120,2|0,1:2|1:0,0:0:0:0:
40,256,30703,1,2,0:3:0:0:
112,318,30937,2,0,L|209:310,2,60,0|2|0,1:0|0:0|1:0,0:0:0:0:
40,256,31640,2,0,P|15:201|15:142,1,120,2|2,0:0|0:3,0:0:0:0:
64,62,32343,6,0,L|124:67,1,60,0|2,1:0|0:3,0:0:0:0:
200,125,32812,1,0,1:0:0:0:
285,81,33046,1,8,0:0:0:0:
361,138,33281,2,0,P|370:183|364:228,1,60,0|8,1:0|0:0,0:0:0:0:
308,270,33750,6,0,P|376:254|445:276,1,120,2|2,1:2|1:2,0:0:0:0:
511,304,34453,1,0,0:0:0:0:
503,208,34687,2,0,L|507:148,2,60,0|2|0,1:0|0:0|1:0,0:0:0:0:
424,265,35390,6,0,P|357:271|273:243,1,120,2|2,0:0|0:3,0:0:0:0:
236,190,36093,2,0,L|176:194,1,60,0|2,1:0|0:3,0:0:0:0:
79,197,36562,2,0,B|71:157|51:133|51:133|60:87|54:48,1,120,2|2,1:2|1:2,0:0:0:0:
131,24,37265,1,0,0:0:0:0:
218,63,37500,6,0,B|226:103|246:127|246:127|237:173|240:176,1,120,2|0,1:2|1:0,0:0:0:0:
320,228,38203,1,2,0:3:0:0:
408,190,38437,2,0,L|468:194,2,60,0|2|0,1:0|0:0|1:0,0:0:0:0:
320,228,39140,2,0,P|265:253|206:253,1,120,2|2,0:0|0:3,0:0:0:0:
117,215,39843,6,0,L|112:274,1,60,0|2,1:0|0:3,0:0:0:0:
177,345,40312,1,0,1:0:0:0:
206,253,40546,1,8,0:0:0:0:
271,323,40781,2,0,P|312:331|354:325,1,60,0|8,1:0|0:0,0:0:0:0:
409,277,41250,6,0,P|396:218|403:159,1,120,2|2,1:2|1:2,0:0:0:0:
436,69,41953,1,0,0:0:0:0:
507,132,42187,2,0,L|503:192,2,60,0|2|0,1:0|0:0|1:0,0:0:0:0:
436,69,42890,2,0,P|387:66|317:120,1,120,2|2,0:0|0:3,0:0:0:0:
282,186,43593,6,0,L|222:182,1,60,0|2,1:0|0:3,0:0:0:0:
130,210,44062,2,0,B|135:193|124:161|124:161|149:139|152:97,1,120,2|8,1:2|0:0,0:0:0:0:
116,324,45000,6,0,P|177:324|245:286,1,120,2|8,1:2|0:0,0:0:0:0:
295,229,45703,1,2,0:3:0:0:
372,285,45937,2,0,L|469:277,2,60,0|2|8,1:0|0:0|0:0,0:0:0:0:
295,229,46640,2,0,P|270:174|270:115,1,120,2|2,0:0|0:3,0:0:0:0:
328,38,47343,6,0,L|388:43,1,60,8|2,0:0|0:3,0:0:0:0:
481,66,47812,1,0,1:0:0:0:
429,149,48046,1,2,0:3:0:0:
429,149,48164,1,0,0:0:0:0:
429,149,48281,2,0,P|420:194|426:239,1,60,8|2,0:0|0:3,0:0:0:0:
488,276,48750,6,0,P|428:300|369:288,1,120,2|10,1:2|0:0,0:0:0:0:
299,230,49453,1,0,0:0:0:0:
354,152,49687,2,0,L|358:92,2,60,0|2|8,1:0|0:0|0:0,0:0:0:0:
299,230,50390,2,0,P|239:254|180:242,1,120,2|2,0:0|0:3,0:0:0:0:
114,180,51093,6,0,L|110:120,1,60,8|2,0:0|0:3,0:0:0:0:
178,52,51562,1,0,1:3:0:0:
178,52,51679,1,8,0:3:0:0:
178,52,51796,2,0,L|188:-2,2,30,0|8|8,0:3|0:3|0:3,0:0:0:0:
269,83,52265,1,8,0:3:0:0:
362,106,52500,6,0,B|355:144|329:164|329:164|340:191|340:219,1,120,2|8,1:2|0:0,0:0:0:0:
352,310,53203,1,2,0:3:0:0:
441,346,53437,2,0,L|538:338,2,60,0|2|8,1:0|0:0|0:0,0:0:0:0:
352,310,54140,2,0,P|297:285|238:285,1,120,2|2,0:0|0:3,0:0:0:0:
147,312,54843,6,0,L|152:253,1,60,8|2,0:0|0:3,0:0:0:0:
137,157,55312,1,0,1:0:0:0:
219,108,55546,1,2,0:3:0:0:
219,108,55664,1,0,0:0:0:0:
219,108,55781,2,0,P|264:117|309:111,1,60,8|2,0:0|0:3,0:0:0:0:
360,67,56250,6,0,P|354:126|367:185,1,120,2|10,1:2|0:0,0:0:0:0:
439,247,56953,1,0,0:0:0:0:
508,181,57187,2,0,L|512:121,2,60,0|2|8,1:0|0:0|0:0,0:0:0:0:
439,247,57890,2,0,P|379:240|321:252,1,120,2|2,0:0|0:3,0:0:0:0:
231,288,58593,6,0,L|227:228,1,60,8|2,0:0|0:3,0:0:0:0:
182,142,59062,1,0,1:2:0:0:
182,142,59179,1,8,0:3:0:0:
182,142,59296,2,0,L|172:88,2,30,0|8|8,0:3|0:3|0:3,0:0:0:0:
130,225,59765,1,8,0:3:0:0:
130,225,60000,6,0,B|113:255|87:268|87:268|104:298|108:338,1,120,8|8,0:0|0:0,0:0:0:0:
268,364,60937,2,0,B|285:334|311:321|311:321|294:291|290:251,1,120,8|8,0:0|0:0,0:0:0:0:
154,127,61875,6,0,B|137:157|111:170|111:170|128:200|132:240,1,120,8|8,0:0|0:0,0:0:0:0:
292,266,62812,2,0,B|309:236|335:223|335:223|318:193|314:153,1,120,8|8,0:0|0:0,0:0:0:0:
178,29,63750,6,0,B|161:59|135:72|135:72|152:102|156:142,1,120,8|8,0:0|0:0,0:0:0:0:
316,168,64687,2,0,B|333:138|359:125|359:125|342:95|338:55,1,120,8|8,0:0|0:0,0:0:0:0:
154,127,65625,6,0,B|137:157|111:170|111:170|128:200|132:240,1,120,8|8,0:0|0:0,0:0:0:0:
292,266,66562,2,0,B|309:236|335:223|335:223|325:196|317:170,1,90,8|0,0:0|0:0,0:0:0:0:
355,158,67031,2,0,L|405:138,3,30,8|0|0|0,0:0|1:0|1:0|1:0,0:0:0:0:
328,121,67500,6,0,P|294:115|244:122,1,60,8|8,0:0|0:3,0:0:0:0:
191,148,67968,2,0,P|161:148|131:143,1,60,8|8,0:0|0:3,0:0:0:0:
131,58,68437,2,0,P|165:52|215:59,1,60,8|8,0:0|0:3,0:0:0:0:
268,85,68905,2,0,P|298:85|328:80,1,60,8|8,0:0|0:3,0:0:0:0:
410,64,69375,6,0,L|406:124,1,60,8|8,0:0|0:3,0:0:0:0:
475,170,69843,2,0,L|479:230,1,60,8|8,0:0|0:3,0:0:0:0:
439,304,70312,2,0,P|405:310|355:303,1,60,8|8,0:0|0:3,0:0:0:0:
302,277,70780,2,0,P|272:277|242:282,1,60,8|8,0:0|0:3,0:0:0:0:
161,306,71250,6,0,L|109:287,3,30,0|8|8|8,1:0|0:0|0:0|0:0,0:0:0:0:
146,269,71719,2,0,L|98:241,3,30,0|0|8|8,1:0|0:0|0:0|0:0,0:0:0:0:
131,232,72187,2,0,L|89:198,3,30,0|8|8|8,1:0|0:0|0:0|0:0,0:0:0:0:
121,170,72656,2,0,L|129:116,3,30,0|8|8|8,1:0|0:0|0:0|0:0,0:0:0:0:
163,115,73125,6,0,B|211:138|260:113|260:113|287:132|287:132|352:94|416:138,1,270.000010299683,2|8,1:2|0:0,0:0:0:0:
411,305,75000,6,0,L|269:309,2,120,2|10|2,1:2|0:0|1:2,0:0:0:0:
490,157,76406,6,0,P|488:127|481:98,1,60,8|0,0:1|0:0,0:0:0:0:
416,27,76875,1,0,1:0:0:0:
357,103,77109,1,0,0:0:0:0:
292,32,77343,1,8,0:1:0:0:
233,108,77578,2,0,L|224:155,2,30,2|0|0,0:3|0:0|1:0,0:0:0:0:
174,32,78046,1,0,0:0:0:0:
115,108,78281,2,0,L|100:194,1,60,10|0,0:3|0:0,0:0:0:0:
138,257,78750,6,0,P|180:270|242:257,1,90,2|0,1:2|0:0,0:0:0:0:
254,226,79218,2,0,L|264:172,3,30,8|0|0|0,0:0|0:0|0:0|0:0,0:0:0:0:
238,189,79687,2,0,L|238:134,3,30,0|0|0|0,1:0|0:0|0:0|0:0,0:0:0:0:
213,157,80156,2,0,L|204:103,3,30,8|0|0|0,0:0|0:0|0:0|0:0,0:0:0:0:
182,133,80625,6,0,L|163:81,3,30,0|0|0|0,1:0|0:0|0:0|0:0,0:0:0:0:
145,118,81093,2,0,L|118:70,3,30,8|0|0|0,0:0|0:0|0:0|0:0,0:0:0:0:
108,103,81562,2,0,L|74:61,3,30,0|8|0|8,1:3|2:3|2:3|2:3,0:0:0:0:
69,95,82031,2,0,P|62:129|61:168,1,60,8|8,2:3|0:3,0:0:0:0:
114,233,82500,6,0,L|233:229,2,120,2|10|2,1:2|0:0|1:2,0:0:0:0:
60,36,83906,6,0,P|61:65|68:94,1,60,8|0,0:1|0:0,0:0:0:0:
134,166,84375,1,0,1:0:0:0:
193,90,84609,1,0,0:0:0:0:
258,161,84843,1,8,0:1:0:0:
317,85,85078,2,0,L|325:37,2,30,2|0|0,0:3|0:0|1:0,0:0:0:0:
376,161,85546,1,0,0:0:0:0:
431,238,85781,2,0,L|420:297,1,60,10|0,0:3|0:0,0:0:0:0:
354,349,86250,5,0,1:0:0:0:
286,298,86484,1,0,0:0:0:0:
202,300,86718,2,0,P|159:302|116:292,1,60,8|0,0:0|0:0,0:0:0:0:
100,226,87187,2,0,P|119:187|149:155,1,60,0|0,1:0|0:0,0:0:0:0:
215,174,87656,2,0,P|238:210|251:252,1,60,8|0,0:0|0:0,0:0:0:0:
286,298,88125,6,0,L|345:287,1,60,0|0,1:0|0:0,0:0:0:0:
382,213,88593,2,0,L|322:202,1,60,0|0,0:0|0:0,0:0:0:0:
286,128,89062,2,0,L|345:117,1,60,0|0,0:0|0:0,0:0:0:0:
382,43,89531,2,0,L|322:32,1,60,8|0,0:0|0:0,0:0:0:0:
235,34,90000,6,0,P|176:44|115:30,2,120,2|10|2,1:2|0:0|1:2,0:0:0:0:
408,115,91406,6,0,P|406:144|399:173,1,60,8|0,0:1|0:0,0:0:0:0:
334,245,91875,1,0,1:0:0:0:
275,169,92109,1,0,0:0:0:0:
210,240,92343,1,8,0:1:0:0:
151,164,92578,2,0,L|142:116,2,30,2|0|0,0:3|0:0|1:0,0:0:0:0:
92,240,93046,1,0,0:0:0:0:
33,164,93281,2,0,L|18:77,1,60,10|0,0:3|0:0,0:0:0:0:
81,28,93750,6,0,P|123:15|185:28,1,90,2|0,1:2|0:0,0:0:0:0:
205,50,94218,2,0,L|195:104,3,30,8|0|0|0,0:0|0:0|0:0|0:0,0:0:0:0:
221,87,94687,2,0,L|221:142,3,30,0|0|0|0,1:0|0:0|0:0|0:0,0:0:0:0:
246,119,95156,6,0,L|255:173,3,30,8|0|0|0,0:0|0:0|0:0|0:0,0:0:0:0:
277,143,95625,2,0,L|296:195,3,30,0|0|0|0,1:0|0:0|0:0|0:0,0:0:0:0:
314,158,96093,6,0,L|341:206,3,30,8|0|0|0,0:0|0:0|0:0|0:0,0:0:0:0:
351,173,96562,2,0,L|385:215,3,30,0|8|0|8,1:3|3:3|3:3|3:3,0:0:0:0:
397,164,97031,2,0,P|431:123|461:114,1,60,8|8,3:3|0:3,0:0:0:0:
485,202,97500,6,0,P|475:261|488:321,2,120,2|10|2,1:2|0:0|1:2,0:0:0:0:
408,43,98906,6,0,P|406:72|399:101,1,60,8|0,0:1|0:0,0:0:0:0:
334,173,99375,1,0,1:0:0:0:
275,97,99609,1,0,0:0:0:0:
210,168,99843,1,8,0:1:0:0:
151,92,100078,1,2,0:3:0:0:
151,92,100195,1,0,0:0:0:0:
151,92,100312,2,2,L|92:102,1,60,2|0,1:2|0:0,0:0:0:0:
29,175,100781,1,8,0:0:0:0:
40,270,101015,1,2,0:3:0:0:
121,321,101250,6,0,P|150:317|180:320,1,60,0|0,1:0|0:0,0:0:0:0:
272,296,101718,2,0,P|315:298|358:288,1,60,8|0,0:0|0:0,0:0:0:0:
374,222,102187,2,0,P|354:183|324:151,1,60,0|0,1:0|0:0,0:0:0:0:
259,170,102656,2,0,P|235:206|222:248,1,60,8|0,0:0|0:0,0:0:0:0:
188,294,103125,6,0,L|128:283,1,60,0|0,1:0|0:0,0:0:0:0:
58,218,103593,2,0,L|118:207,1,60,0|0,0:0|0:0,0:0:0:0:
188,142,104062,2,0,L|128:131,1,60,0|0,0:0|0:0,0:0:0:0:
58,66,104531,2,0,L|118:55,1,60,8|0,0:0|0:0,0:0:0:0:
210,30,105000,5,0,1:0:0:0:
256,192,112500,12,0,118125,0:0:0:0:
175,134,118828,6,0,L|174:104,2,30,8|0|8,0:3|0:3|0:3,0:0:0:0:
202,169,119179,2,0,L|199:249,2,60,8|8|8,0:3|0:3|0:3,0:0:0:0:
325,208,120000,6,0,P|425:217|373:303,1,240,0|8,1:0|0:0,0:0:0:0:
292,281,121171,2,0,P|249:273|202:281,1,90,0|0,0:0|0:0,0:0:0:0:
88,332,121875,2,0,B|51:375|51:375|74:275|47:174,1,240,0|8,1:0|0:0,0:0:0:0:
49,109,123046,2,0,P|91:117|139:109,1,90,0|0,0:0|0:0,0:0:0:0:
263,108,123750,6,0,P|315:194|214:203,1,240,0|8,1:0|0:0,0:0:0:0:
184,125,124921,2,0,P|175:80|183:36,1,90,0|0,0:0|0:0,0:0:0:0:
58,17,125625,2,0,P|50:93|83:243,1,210,0|0,1:0|1:0,0:0:0:0:
102,255,126562,1,8,0:0:0:0:
179,222,126796,1,0,0:0:0:0:
235,284,127031,1,0,3:0:0:0:
312,251,127265,1,0,3:0:0:0:
368,313,127500,6,0,P|468:303|416:217,1,240,0|8,1:0|0:0,0:0:0:0:
334,199,128671,2,0,P|289:206|245:198,1,90,0|0,0:0|0:0,0:0:0:0:
135,136,129375,2,0,B|106:191|126:251|126:251|151:325|119:376,1,240,0|8,1:0|0:0,0:0:0:0:
206,363,130546,2,0,P|250:354|294:362,1,90,0|0,0:0|0:0,0:0:0:0:
404,300,131250,6,0,P|394:199|308:251,1,240,0|8,1:0|0:0,0:0:0:0:
323,334,132421,2,0,P|278:342|234:334,1,90,0|0,0:0|0:0,0:0:0:0:
120,279,133125,2,0,P|112:203|145:53,1,210,0|0,1:0|1:0,0:0:0:0:
164,41,134062,1,8,0:0:0:0:
241,74,134296,1,0,0:0:0:0:
297,12,134531,1,2,3:0:0:0:
374,45,134765,1,0,1:0:0:0:
442,0,135000,6,0,B|462:49|462:49|443:87|443:87|481:161|444:233,1,240,0|8,1:0|0:0,0:0:0:0:
371,262,136171,2,0,P|326:254|282:262,1,90,0|0,0:0|0:0,0:0:0:0:
173,325,136875,2,0,P|72:315|124:229,1,240,0|8,1:0|0:0,0:0:0:0:
206,252,138046,2,0,P|248:260|299:246,1,90
382,161,138750,6,0,B|419:118|419:118|396:218|423:319,1,240,0|8,1:0|0:0,0:0:0:0:
358,358,139921,2,0,P|315:350|268:358,1,90,0|0,0:0|0:0,0:0:0:0:
143,351,140625,2,0,P|135:275|168:125,1,210,0|0,1:0|0:0,0:0:0:0:
187,113,141562,1,8,0:0:0:0:
233,183,141796,1,0,0:0:0:0:
298,129,142031,1,2,3:2:0:0:
344,199,142265,1,2,3:2:0:0:
409,145,142500,6,0,B|446:102|446:102|483:196|447:280,1,240,0|8,1:0|0:0,0:0:0:0:
386,338,143671,2,0,P|343:346|296:338,1,90,0|0,0:0|0:0,0:0:0:0:
264,225,144375,2,0,P|163:234|215:320,1,240,0|8,1:0|0:0,0:0:0:0:
297,338,145546,2,0,P|341:330|386:338,1,90,0|0,0:0|0:0,0:0:0:0:
494,273,146250,6,0,B|523:218|503:158|503:158|478:84|510:33,1,240,0|8,1:0|0:0,0:0:0:0:
422,35,147421,2,0,P|377:42|333:34,1,90,0|0,1:0|0:0,0:0:0:0:
186,116,148125,6,0,P|175:101|164:92,3,30,0|0|0|0,1:0|1:2|1:2|1:2,0:0:0:0:
194,137,148593,2,0,L|185:212,1,60,2|0,1:2|1:2,0:0:0:0:
149,272,149062,2,0,P|186:279|217:276,1,60,8|0,0:0|0:0,0:0:0:0:
281,235,149531,2,0,P|310:234|340:240,1,60,2|0,0:0|0:0,0:0:0:0:
424,245,150000,6,0,B|441:275|467:288|467:288|450:318|446:358,1,120,8|8,0:0|0:0,0:0:0:0:
286,384,150937,2,0,B|269:354|243:341|243:341|260:311|264:271,1,120,8|8,0:0|0:0,0:0:0:0:
400,147,151875,6,0,B|417:177|443:190|443:190|426:220|422:260,1,120,8|8,0:0|0:0,0:0:0:0:
262,286,152812,2,0,B|245:256|219:243|219:243|236:213|240:173,1,120,8|8,0:0|0:0,0:0:0:0:
376,49,153750,6,0,B|393:79|419:92|419:92|402:122|398:162,1,120,8|8,0:0|0:0,0:0:0:0:
238,188,154687,2,0,B|221:158|195:145|195:145|212:115|216:75,1,120,8|8,0:0|0:0,0:0:0:0:
400,147,155625,6,0,B|417:177|443:190|443:190|426:220|422:260,1,120,8|8,0:0|0:0,0:0:0:0:
262,286,156562,2,0,B|245:256|219:243|219:243|229:216|237:190,1,90,8|2,0:0|0:3,0:0:0:0:
213,173,157031,2,0,P|186:173|156:177,3,30,8|0|0|0,0:0|1:0|1:0|1:0,0:0:0:0:
226,141,157500,6,0,P|260:135|310:142,1,60,8|8,0:0|0:3,0:0:0:0:
363,168,157968,2,0,P|393:168|423:163,1,60,8|8,0:0|0:3,0:0:0:0:
423,78,158437,2,0,P|389:72|339:79,1,60,8|8,0:0|0:3,0:0:0:0:
286,105,158905,2,0,P|256:105|226:100,1,60,8|8,0:0|0:3,0:0:0:0:
144,84,159375,6,0,L|148:144,1,60,8|8,0:0|0:3,0:0:0:0:
79,190,159843,2,0,L|75:250,1,60,8|8,0:0|0:3,0:0:0:0:
115,324,160312,2,0,P|149:330|199:323,1,60,8|8,0:0|0:3,0:0:0:0:
252,297,160780,2,0,P|282:297|312:302,1,60,8|8,0:0|0:3,0:0:0:0:
393,326,161250,6,0,L|445:307,3,30,0|8|8|8,1:0|0:0|0:0|0:0,0:0:0:0:
408,289,161718,2,0,L|456:261,3,30,0|8|8|8,1:0|0:0|0:0|0:0,0:0:0:0:
423,252,162187,2,0,L|465:218,3,30,0|8|8|8,1:0|0:0|0:0|0:0,0:0:0:0:
420,192,162656,2,0,L|411:138,3,30,0|8|8|8,1:0|0:0|0:0|0:0,0:0:0:0:
391,135,163125,6,0,B|343:158|294:133|294:133|267:152|267:152|202:114|138:158,1,270.000010299683,2|8,1:2|0:0,0:0:0:0:
411,305,165000,6,0,L|269:309,2,120,2|10|2,1:2|0:1|1:2,0:0:0:0:
512,156,166406,6,0,P|512:124|504:92,1,60,8|0,0:1|0:0,0:0:0:0:
425,32,166875,1,0,1:0:0:0:
333,81,167109,1,0,0:0:0:0:
428,136,167343,1,8,0:1:0:0:
336,185,167578,2,0,L|326:236,2,30,2|0|0,0:3|0:0|1:0,0:0:0:0:
241,130,168046,1,0,0:0:0:0:
149,175,168281,2,0,L|135:258,1,60,10|0,0:3|0:0,0:0:0:0:
189,322,168750,6,0,P|235:336|303:322,1,90,2|0,1:2|0:0,0:0:0:0:
311,301,169218,2,0,L|319:256,3,30,8|0|0|0,0:0|0:0|0:0|0:0,0:0:0:0:
293,260,169687,2,0,L|293:208,3,30,0|0|0|0,1:0|0:0|0:0|0:0,0:0:0:0:
266,225,170155,2,0,L|256:170,3,30,8|0|0|0,0:0|0:0|0:0|0:0,0:0:0:0:
232,199,170624,6,0,L|215:153,3,30,0|0|0|0,1:0|0:0|0:0|0:0,0:0:0:0:
191,182,171093,2,0,L|164:134,3,30,8|0|0|0,0:0|0:0|0:0|0:0,0:0:0:0:
151,166,171562,2,0,L|121:129,3,30,0|8|0|8,1:3|3:3|3:3|3:3,0:0:0:0:
123,186,172031,2,0,P|80:188|43:211,1,60,8|8,3:3|0:3,0:0:0:0:
110,281,172500,6,0,L|240:276,2,120,2|10|2,1:2|0:1|1:2,0:0:0:0:
41,32,173906,6,0,P|42:63|49:95,1,60,8|0,0:1|0:0,0:0:0:0:
105,175,174375,1,0,1:0:0:0:
65,268,174609,1,0,0:0:0:0:
122,352,174843,1,8,0:1:0:0:
204,292,175078,2,0,L|212:240,2,30,2|0|0,0:3|0:0|1:0,0:0:0:0:
277,362,175546,1,0,0:0:0:0:
366,311,175781,2,0,L|377:252,1,60,10|0,0:3|0:0,0:0:0:0:
362,162,176250,5,0,1:0:0:0:
291,217,176484,1,0,0:0:0:0:
247,300,176718,2,0,P|204:302|162:292,1,60,8|0,0:0|0:0,0:0:0:0:
140,219,177187,2,0,P|158:180|188:149,1,60,0|0,1:0|0:0,0:0:0:0:
262,164,177656,2,0,P|284:199|297:240,1,60,8|0,0:0|0:0,0:0:0:0:
344,303,178125,6,0,L|408:291,1,60,0|0,1:0|0:0,0:0:0:0:
449,210,178593,2,0,L|383:198,1,60,0|0,0:0|0:0,0:0:0:0:
344,117,179062,2,0,L|408:105,1,60,0|0,0:0|0:0,0:0:0:0:
449,24,179531,2,0,L|383:12,1,60,8|0,0:0|0:0,0:0:0:0:
289,29,180000,6,0,P|225:40|158:24,2,120,2|8|8,1:2|1:2|1:2,0:0:0:0:
470,92,181406,5,2,0:3:0:0:
443,184,181640,1,2,0:3:0:0:
445,207,181757,1,0,0:0:0:0:
443,229,181875,2,0,P|432:270|415:296,1,60,0|2,1:0|0:3,0:0:0:0:
356,336,182343,2,0,P|314:346|283:345,1,60,8|2,0:0|0:3,0:0:0:0:
219,314,182812,2,0,P|188:283|169:200,1,120,8|2,0:0|0:0,0:0:0:0:
261,46,183750,6,0,B|311:34|356:66|356:66|406:23|482:52,1,210,2|0,1:2|0:0,0:0:0:0:
499,55,184687,1,10,0:0:0:0:
407,223,185156,5,2,0:3:0:0:
492,267,185390,1,2,0:3:0:0:
482,288,185507,1,0,0:0:0:0:
469,306,185625,2,0,P|438:336|411:350,1,60,0|2,1:0|0:3,0:0:0:0:
340,355,186093,2,0,P|299:344|273:326,1,60,8|2,0:0|0:3,0:0:0:0:
234,267,186562,2,0,P|220:225|222:194,1,60,8|2,0:0|0:0,0:0:0:0:
228,125,187031,1,2,0:0:0:0:
295,74,187265,1,2,0:0:0:0:
217,41,187500,6,0,P|153:30|86:46,2,120,2|8|8,1:2|1:2|1:2,0:0:0:0:
307,233,188906,6,2,P|315:211|332:185,3,30,2|2|2|0,0:3|0:3|0:3|0:0,0:0:0:0:
294,251,189375,2,0,P|263:281|236:295,1,60,2|0,1:2|0:3,0:0:0:0:
165,300,189843,2,0,P|124:289|98:271,1,60,2|0,0:3|0:0,0:0:0:0:
59,212,190312,2,0,P|45:170|57:96,1,120,8|2,0:0|0:3,0:0:0:0:
210,25,191250,5,0,1:0:0:0:
278,76,191484,1,0,0:0:0:0:
362,74,191718,2,0,P|405:72|448:82,1,60,0|0,0:0|0:0,0:0:0:0:
464,148,192187,2,0,P|444:187|414:219,1,60,8|0,0:0|0:0,0:0:0:0:
349,200,192656,2,0,P|325:164|312:122,1,60,0|0,0:0|0:0,0:0:0:0:
248,82,193125,6,0,L|188:92,1,60,2|0,1:3|0:0,0:0:0:0:
118,158,193593,2,0,L|177:168,1,60,0|0,0:0|0:0,0:0:0:0:
248,234,194062,2,0,L|188:244,1,60,2|0,0:3|0:0,0:0:0:0:
118,310,194531,2,0,L|177:320,1,60,0|0,0:0|0:0,0:0:0:0:
256,192,195000,12,0,200625,0:0:0:0:
