osu file format v14

[General]
AudioFilename: audio.mp3
AudioLeadIn: 0
PreviewTime: 28525
Countdown: 0
SampleSet: Normal
StackLeniency: 0.7
Mode: 1
LetterboxInBreaks: 0
WidescreenStoryboard: 1

[Editor]
Bookmarks: 30321,44336,51343,59007,65358,72365
DistanceSpacing: 1
BeatDivisor: 16
GridSize: 32
TimelineZoom: 1.6

[Metadata]
Title:Buio Omega
TitleUnicode:Buio Omega
Artist:Nitro
ArtistUnicode:Nitro
Creator:Arach
Version:Futsuu
Source:
Tags:no comment robert de nitro wilson phil de payne salmo lebon rap hardcore hip hop hip-hop trap grime italian italiano machete empire nicola albera maurizio pisciottu nitroakawilson robertdenitro vized
BeatmapID:2526817
BeatmapSetID:1212593

[Difficulty]
HPDrainRate:8
CircleSize:5
OverallDifficulty:4
ApproachRate:5
SliderMultiplier:1.4
SliderTickRate:1

[Events]
//Background and Video events
0,0,"nitro.jpg",0,0
//Break Periods
//Storyboard Layer 0 (Background)
//Storyboard Layer 1 (Fail)
//Storyboard Layer 2 (Pass)
//Storyboard Layer 3 (Foreground)
//Storyboard Layer 4 (Overlay)
//Storyboard Sound Samples

[TimingPoints]
14949,437.956204379562,4,1,0,80,1,0
35970,-100,4,1,0,80,0,0
36846,-98.727793651013,4,1,0,80,0,0
37284,-98.1037525666394,4,1,0,80,0,0
37722,-97.4875508397578,4,1,0,80,0,0
38598,-96.278081909541,4,1,0,80,0,0
39036,-95.6845319256225,4,1,0,80,0,0
39474,-95.0982555176008,4,1,0,80,0,0
39912,-94.5191198001488,4,1,0,80,0,0
40350,-93.9469951053616,4,1,0,80,0,0
40788,-93.3818420875698,4,1,0,80,0,0
41007,-93.1017210784158,4,1,0,80,0,0
41226,-92.8233617836937,4,1,0,80,0,0
41445,-92.5465763782267,4,1,0,80,0,0
41664,-92.2715218711188,4,1,0,80,0,0
42102,-91.7262046173137,4,1,0,80,0,0
42321,-91.4559141338713,4,1,0,80,0,0
42540,-91.1872950565544,4,1,0,80,0,0
42759,-90.9201666384814,4,1,0,80,0,0
42978,-86.9565217391304,4,1,0,80,0,0
43416,-100,4,1,0,80,0,0
49985,-100,4,1,0,80,0,1
56992,-100,4,1,0,65,0,0
57868,-100,4,1,0,80,0,0
64000,-100,4,1,0,80,0,1
68817,-100,4,1,0,80,0,0
70104,-100,4,1,0,60,0,0
70423,-100,4,1,0,40,0,0

[HitObjects]
256,192,14949,5,8,0:0:0:0:
256,192,15386,1,8,0:0:0:0:
256,192,15605,1,8,0:0:0:0:
256,192,15824,1,8,0:0:0:0:
256,192,16043,1,0,0:0:0:0:
256,192,16481,1,8,0:0:0:0:
256,192,16700,1,8,0:0:0:0:
256,192,17138,1,8,0:0:0:0:
256,192,17357,1,0,0:0:0:0:
256,192,17576,1,8,0:0:0:0:
256,192,18452,1,8,0:0:0:0:
256,192,18890,1,8,0:0:0:0:
256,192,19328,1,8,0:0:0:0:
256,192,19547,1,0,0:0:0:0:
256,192,19766,1,8,0:0:0:0:
256,192,20204,1,8,0:0:0:0:
256,192,20423,1,0,0:0:0:0:
256,192,20642,1,8,0:0:0:0:
256,192,20861,1,0,0:0:0:0:
256,192,21080,1,8,0:0:0:0:
256,192,21518,1,8,0:0:0:0:
256,192,21956,1,8,0:0:0:0:
256,192,22175,1,0,0:0:0:0:
256,192,22394,1,8,0:0:0:0:
256,192,22832,1,8,0:0:0:0:
256,192,23270,1,8,0:0:0:0:
256,192,23489,1,0,0:0:0:0:
256,192,23708,1,0,0:0:0:0:
256,192,24146,1,8,0:0:0:0:
256,192,24584,1,0,0:0:0:0:
256,192,24912,1,0,0:0:0:0:
256,192,25240,1,4,0:0:0:0:
256,192,28525,1,8,0:0:0:0:
256,192,28963,5,12,0:0:0:0:
256,192,29401,1,0,0:0:0:0:
256,192,29620,1,0,0:0:0:0:
256,192,29839,1,8,0:0:0:0:
256,192,30277,1,0,0:0:0:0:
256,192,30715,1,8,0:0:0:0:
256,192,30934,1,8,0:0:0:0:
256,192,31153,1,0,0:0:0:0:
256,192,31372,1,0,0:0:0:0:
256,192,31591,1,8,0:0:0:0:
256,192,32467,1,0,0:0:0:0:
256,192,32905,1,8,0:0:0:0:
256,192,33124,1,0,0:0:0:0:
256,192,33343,1,8,0:0:0:0:
256,192,33562,1,8,0:0:0:0:
256,192,33781,1,0,0:0:0:0:
256,192,34219,1,0,0:0:0:0:
256,192,34438,1,8,0:0:0:0:
256,192,34657,1,8,0:0:0:0:
256,192,34876,1,0,0:0:0:0:
256,192,35094,1,8,0:0:0:0:
256,192,35532,1,8,0:0:0:0:
256,192,35970,1,8,0:0:0:0:
256,192,36846,1,8,0:0:0:0:
256,192,37284,1,8,0:0:0:0:
256,192,37722,1,8,0:0:0:0:
256,192,38598,1,0,0:0:0:0:
256,192,39036,1,8,0:0:0:0:
256,192,39474,1,8,0:0:0:0:
256,192,39912,1,8,0:0:0:0:
256,192,40350,1,0,0:0:0:0:
256,192,40788,1,8,0:0:0:0:
256,192,41007,1,8,0:0:0:0:
256,192,41226,1,8,0:0:0:0:
256,192,41445,1,0,0:0:0:0:
256,192,41664,1,0,0:0:0:0:
256,192,42102,1,0,0:0:0:0:
256,192,42321,1,0,0:0:0:0:
256,192,42540,1,8,0:0:0:0:
256,192,42759,1,12,0:0:0:0:
256,192,42978,1,4,0:0:0:0:
256,192,43854,1,8,0:0:0:0:
256,192,44292,1,0,0:0:0:0:
256,192,44730,1,8,0:0:0:0:
256,192,44949,1,8,0:0:0:0:
256,192,45167,1,0,0:0:0:0:
256,192,45605,1,8,0:0:0:0:
256,192,45824,1,0,0:0:0:0:
256,192,46043,1,8,0:0:0:0:
256,192,46481,1,4,0:0:0:0:
256,192,47138,1,0,0:0:0:0:
256,192,47357,1,8,0:0:0:0:
256,192,47795,1,0,0:0:0:0:
256,192,48233,1,0,0:0:0:0:
256,192,48452,1,8,0:0:0:0:
256,192,48671,1,8,0:0:0:0:
256,192,48890,1,0,0:0:0:0:
256,192,49109,1,8,0:0:0:0:
256,192,49985,1,0,0:0:0:0:
256,192,50423,1,0,0:0:0:0:
256,192,50861,1,0,0:0:0:0:
256,192,51299,1,0,0:0:0:0:
256,192,51518,1,8,0:0:0:0:
256,192,51737,1,0,0:0:0:0:
256,192,52175,1,0,0:0:0:0:
256,192,52394,1,8,0:0:0:0:
256,192,52613,1,8,0:0:0:0:
256,192,53051,1,8,0:0:0:0:
256,192,53489,1,0,0:0:0:0:
256,192,53927,1,0,0:0:0:0:
256,192,54365,1,0,0:0:0:0:
256,192,54584,1,8,0:0:0:0:
256,192,54803,1,0,0:0:0:0:
256,192,55240,1,0,0:0:0:0:
256,192,55678,1,0,0:0:0:0:
256,192,55897,1,0,0:0:0:0:
256,192,56116,1,0,0:0:0:0:
256,192,56335,1,8,0:0:0:0:
256,192,56554,1,8,0:0:0:0:
256,192,56992,1,12,0:0:0:0:
256,192,57868,5,8,0:0:0:0:
256,192,58306,1,0,0:0:0:0:
256,192,58744,1,8,0:0:0:0:
256,192,58963,1,0,0:0:0:0:
256,192,59182,1,8,0:0:0:0:
256,192,59620,1,8,0:0:0:0:
256,192,60496,1,8,0:0:0:0:
256,192,61153,1,0,0:0:0:0:
256,192,61372,1,8,0:0:0:0:
256,192,61810,1,0,0:0:0:0:
256,192,62248,1,8,0:0:0:0:
256,192,62467,1,8,0:0:0:0:
256,192,62686,1,8,0:0:0:0:
256,192,63124,1,8,0:0:0:0:
256,192,63343,1,0,0:0:0:0:
256,192,63562,1,8,0:0:0:0:
256,192,63781,1,0,0:0:0:0:
256,192,64000,1,0,0:0:0:0:
256,192,64438,1,4,0:0:0:0:
256,192,65313,1,4,0:0:0:0:
256,192,65751,1,8,0:0:0:0:
256,192,66189,1,0,0:0:0:0:
256,192,66408,1,8,0:0:0:0:
256,192,66627,1,4,0:0:0:0:
256,192,67065,1,8,0:0:0:0:
256,192,67503,1,0,0:0:0:0:
256,192,67722,1,0,0:0:0:0:
256,192,67941,1,0,0:0:0:0:
256,192,68160,1,8,0:0:0:0:
256,192,68379,1,8,0:0:0:0:
256,192,68817,1,4,0:0:0:0:
256,192,69255,1,0,0:0:0:0:
256,192,69474,1,8,0:0:0:0:
256,192,69693,1,0,0:0:0:0:
256,192,70104,1,0,0:0:0:0:
256,192,70432,1,8,0:0:0:0:
256,192,70624,1,8,0:0:0:0:
256,192,71007,12,8,72540,0:0:0:0:
