osu file format v14

[General]
AudioFilename: Drowned.mp3
AudioLeadIn: 0
PreviewTime: 9826
Countdown: 0
SampleSet: None
StackLeniency: 0.7
Mode: 0
LetterboxInBreaks: 1
WidescreenStoryboard: 1

[Editor]
DistanceSpacing: 0.5
BeatDivisor: 8
GridSize: 8
TimelineZoom: 1

[Metadata]
Title:Drowned
TitleUnicode:溺れ死ぬ
Artist:Nisu
ArtistUnicode:にす
Creator:HICCA
Version:Death
Source:Nico Nico Douga
Tags:溺れ死ぬボーちゃんのものまね bonfire knife party hicari
BeatmapID:1342003
BeatmapSetID:632150

[Difficulty]
HPDrainRate:10
CircleSize:4
OverallDifficulty:8.5
ApproachRate:9.2
SliderMultiplier:3.59999990463257
SliderTickRate:1

[Events]
//Background and Video events
0,0,"BG.jpg",0,0
Video,0,"Drowned.avi"
//Break Periods
//Storyboard Layer 0 (Background)
//Storyboard Layer 1 (Fail)
//Storyboard Layer 2 (Pass)
//Storyboard Layer 3 (Foreground)
//Storyboard Sound Samples

[TimingPoints]
4300,689.655172413793,4,3,1,70,1,0
9817,-100,4,3,1,80,0,1
31886,-100,4,3,1,80,0,0

[HitObjects]
248,310,7403,5,2,0:0:0:0:
390,271,7575,1,0,0:0:0:0:
187,247,7748,2,0,P|158:293|179:349,1,89.9999976158143,2|2,0:0|0:0,0:0:0:0:
475,292,8093,2,0,P|477:247|450:212,1,89.9999976158143,0|2,0:0|0:0,0:0:0:0:
298,349,8437,2,0,P|280:295|295:196,1,134.999996423721,4|0,0:0|0:0,0:0:0:0:
323,186,8782,2,0,P|324:131|288:77,1,89.9999976158143,4|0,0:0|0:0,0:0:0:0:
219,58,9041,5,0,0:0:0:0:
236,44,9127,2,0,L|300:34,1,44.9999988079071
387,101,9300,2,0,L|451:91,1,44.9999988079071
247,163,9472,2,0,L|183:153,1,44.9999988079071
345,277,9644,2,0,L|389:270,1,44.9999988079071,2|2,0:0|0:0,0:0:0:0:
475,292,9817,6,0,B|447:309|424:306|424:306|400:335|400:335|388:337|388:337|381:296|381:296|408:292|408:292|415:333|415:333|401:335|401:335|367:313|367:313|326:316|315:334,1,314.99999165535,4|0,0:0|0:0,0:0:0:0:
298,349,10506,1,8,0:0:0:0:
56,269,10679,1,2,0:0:0:0:
364,212,10851,1,2,0:0:0:0:
175,372,11024,1,2,0:0:0:0:
100,91,11196,6,0,L|208:81,1,89.9999976158143
162,253,11541,2,0,L|54:243,1,89.9999976158143,2|0,0:0|0:0,0:0:0:0:
238,195,11886,2,0,P|257:246|255:314,1,89.9999976158143,8|0,0:0|0:0,0:0:0:0:
34,155,12231,2,0,P|15:104|17:36,1,89.9999976158143,2|0,0:0|0:0,0:0:0:0:
127,173,12575,5,2,0:0:0:0:
105,284,12748,1,0,0:0:0:0:
216,306,12920,1,0,0:0:0:0:
238,195,13093,1,0,0:0:0:0:
127,173,13265,5,8,0:0:0:0:
358,296,13437,1,2,0:0:0:0:
350,35,13610,1,2,0:0:0:0:
127,173,13782,1,2,0:0:0:0:
439,200,13955,5,0,0:0:0:0:
439,200,14127,2,0,B|441:150|441:150|423:97,1,89.9999976158143,0|2,0:0|0:0,0:0:0:0:
253,59,14472,1,0,0:0:0:0:
318,282,14644,2,0,B|336:297|336:297|357:295,1,44.9999988079071,8|0,0:0|0:0,0:0:0:0:
268,179,14817,2,0,B|246:187|246:187|236:206,1,44.9999988079071
382,187,14989,2,0,B|370:138|370:138|338:92,1,89.9999976158143,2|8,0:0|0:0,0:0:0:0:
192,303,15334,5,2,0:0:0:0:
75,301,15506,1,2,0:0:0:0:
314,181,15679,1,0,0:0:0:0:
197,179,15851,1,2,0:0:0:0:
344,313,16024,5,8,0:0:0:0:
371,129,16196,1,2,0:0:0:0:
341,331,16368,1,0,0:0:0:0:
373,110,16540,1,2,0:0:0:0:
430,339,16713,6,0,L|320:328,1,89.9999976158143,2|2,0:0|0:0,0:0:0:0:
283,118,17058,2,0,L|393:107,1,89.9999976158143,0|2,0:0|0:0,0:0:0:0:
227,308,17403,2,0,P|181:260|92:287,1,134.999996423721,8|0,0:0|0:0,0:0:0:0:
75,301,17748,2,0,P|55:260|51:216,1,89.9999976158143,2|0,0:0|0:0,0:0:0:0:
147,66,18093,5,2,0:0:0:0:
135,214,18265,1,0,0:0:0:0:
147,66,18437,1,0,0:0:0:0:
135,214,18609,1,0,0:0:0:0:
258,120,18782,5,8,0:0:0:0:
60,97,18955,1,2,0:0:0:0:
218,251,19127,1,2,0:0:0:0:
427,137,19300,1,2,0:0:0:0:
193,24,19472,2,0,B|172:46|172:46|191:128,1,89.9999976158143,4|0,0:0|0:0,0:0:0:0:
433,326,19817,2,0,B|424:296|424:296|343:272,1,89.9999976158143,4|0,0:0|0:0,0:0:0:0:
55,380,20162,5,8,0:0:0:0:
90,378,20248,1,0,0:0:0:0:
121,360,20334,1,0,0:0:0:0:
136,327,20420,1,0,0:0:0:0:
136,291,20506,1,0,0:0:0:0:
176,253,20593,1,0,0:0:0:0:
228,241,20679,1,2,0:0:0:0:
271,272,20765,1,2,0:0:0:0:
295,318,20851,6,0,B|367:363|367:363|368:313|368:313|326:338|326:338|367:363|367:363|368:313|368:313|368:279,1,314.99999165535,4|0,0:0|0:0,0:0:0:0:
411,212,21541,1,8,0:0:0:0:
123,184,21713,1,2,0:0:0:0:
368,363,21886,1,2,0:0:0:0:
123,184,22058,1,2,0:0:0:0:
394,65,22231,6,0,L|280:50,1,89.9999976158143
207,53,22575,2,0,L|118:65,1,89.9999976158143,2|0,0:0|0:0,0:0:0:0:
37,210,22920,2,0,P|88:190|165:182,1,89.9999976158143,8|0,0:0|0:0,0:0:0:0:
295,318,23265,2,0,P|244:298|167:290,1,89.9999976158143,2|0,0:0|0:0,0:0:0:0:
28,362,23610,6,0,B|12:345|26:304|26:304|33:326|33:326|37:271|37:271|44:295|44:295|43:236|52:202|125:182,1,314.99999165535,2|0,0:0|0:0,0:0:0:0:
130,267,24300,1,8,0:0:0:0:
86,72,24472,1,2,0:0:0:0:
407,164,24644,1,2,0:0:0:0:
358,349,24817,1,2,0:0:0:0:
314,57,24989,5,0,0:0:0:0:
267,191,25162,1,0,0:0:0:0:
407,164,25334,2,0,L|525:144,1,89.9999976158143,2|0,0:0|0:0,0:0:0:0:
314,57,25679,2,0,L|196:77,1,89.9999976158143,8|2,0:0|0:0,0:0:0:0:
357,351,26024,2,0,L|445:335,1,89.9999976158143,0|10,0:0|0:0,0:0:0:0:
297,122,26368,5,2,0:0:0:0:
254,347,26541,1,2,0:0:0:0:
168,58,26713,1,0,0:0:0:0:
388,300,26886,1,2,0:0:0:0:
84,163,27058,5,8,0:0:0:0:
415,94,27231,1,0,0:0:0:0:
89,328,27403,2,0,L|-8:317,1,89.9999976158143,2|0,0:0|0:0,0:0:0:0:
229,306,27748,5,0,0:0:0:0:
223,284,27834,1,0,0:0:0:0:
217,262,27920,1,0,0:0:0:0:
211,240,28006,1,0,0:0:0:0:
205,217,28093,1,0,0:0:0:0:
200,195,28179,1,0,0:0:0:0:
195,173,28265,1,2,0:0:0:0:
190,151,28351,1,2,0:0:0:0:
186,129,28437,2,0,B|171:114|162:91|162:91|151:115|135:126,1,89.9999976158143,8|0,0:0|0:0,0:0:0:0:
392,24,28782,2,0,B|407:39|416:62|416:62|427:38|442:26,1,89.9999976158143
373,229,29127,6,0,P|368:284|383:227,2,179.999995231629,2|0|8,0:0|0:0|0:0,0:0:0:0:
102,217,29989,1,2,0:0:0:0:
377,373,30162,1,2,0:0:0:0:
320,18,30334,1,2,0:0:0:0:
22,141,30506,2,0,P|83:112|156:126,1,134.999996423721,4|0,0:0|0:0,0:0:0:0:
259,176,30851,2,0,P|201:184|164:148,1,89.9999976158143,4|0,0:0|0:0,0:0:0:0:
434,17,31196,6,0,L|478:10,1,44.9999988079071,8|0,0:0|0:0,0:0:0:0:
350,369,31368,2,0,L|303:376,1,44.9999988079071
15,188,31541,2,0,P|22:162|41:141,1,44.9999988079071
479,269,31713,2,0,P|474:305|462:324,1,44.9999988079071,2|2,0:0|0:0,0:0:0:0:
5,2,31886,1,4,0:0:0:0:
