osu file format v14

[General]
AudioFilename: audio.mp3
AudioLeadIn: 0
PreviewTime: 90328
Countdown: 1
SampleSet: Soft
StackLeniency: 0.7
Mode: 0
LetterboxInBreaks: 0
WidescreenStoryboard: 1

[Editor]
Bookmarks: 15446,23005,34343,49461,60800,72139,79698,113713,121272,128831,140170,147729,170406,177965,185524,193083,200642,215761,230879,238438,245997,253556,261115,264894,268674,272453,276233,286627
DistanceSpacing: 0.6
BeatDivisor: 8
GridSize: 4
TimelineZoom: 2.2

[Metadata]
Title:Rogumaropu
TitleUnicode:ログマロープ
Artist:Nisshoku Natsuko
ArtistUnicode:日食なつこ
Creator:Seikatu
Version:Collab
Source:
Tags:EvilElvis ShiraKai iyasine Jounzan japanese pop natteke desu
BeatmapID:1410681
BeatmapSetID:666499

[Difficulty]
HPDrainRate:6
CircleSize:4
OverallDifficulty:7
ApproachRate:9
SliderMultiplier:1.7
SliderTickRate:1

[Events]
//Background and Video events
0,0,"123.png",0,0
//Break Periods
2,178146,184924
//Storyboard Layer 0 (Background)
//Storyboard Layer 1 (Fail)
//Storyboard Layer 2 (Pass)
//Storyboard Layer 3 (Foreground)
//Storyboard Layer 4 (Overlay)
//Storyboard Sound Samples

[TimingPoints]
328,495.867768595042,4,2,1,60,1,0
328,-73.5294117647059,4,2,1,60,0,0
823,468.750000000001,4,2,1,60,1,0
823,-77.5193798449612,4,2,1,60,0,0
2229,461.538461538463,4,2,1,60,1,0
2229,-78.7401574803149,4,2,1,60,0,0
4075,480.000000000002,4,2,1,60,1,0
4075,-75.7575757575758,4,2,1,60,0,0
5995,476.190476190478,4,2,1,60,1,0
5995,-76.3358778625954,4,2,1,60,0,0
6471,468.750000000002,4,2,1,60,1,0
6471,-77.5193798449612,4,2,1,60,0,0
7877,472.440944881892,4,2,1,60,1,0
7877,-76.9230769230769,4,2,1,60,0,0
13900,-76.9230769230769,4,2,1,15,0,0
14018,-76.9230769230769,4,2,1,17,0,0
14136,-76.9230769230769,4,2,1,20,0,0
14254,-76.9230769230769,4,2,1,23,0,0
14373,-76.9230769230769,4,2,1,25,0,0
14491,-76.9230769230769,4,2,1,27,0,0
14609,-76.9230769230769,4,2,1,30,0,0
14727,-76.9230769230769,4,2,1,35,0,0
14845,-76.9230769230769,4,2,1,45,0,0
14963,-76.9230769230769,4,2,1,50,0,0
15435,504.201680672272,4,2,1,60,1,0
15435,-93.4579439252336,4,2,1,60,0,0
16191,476.190476190479,4,2,1,60,1,0
16191,-99.009900990099,4,2,1,60,0,0
17381,465.11627906977,4,2,1,60,1,0
17381,-102.040816326531,4,2,1,60,0,0
19241,472.440944881892,4,2,1,60,1,0
21130,468.750000000002,4,2,1,60,1,0
21130,-101.010101010101,4,2,1,60,0,0
23004,483.870967741938,4,2,1,50,1,0
23004,-98.0392156862745,4,2,1,50,0,0
24066,472.440944881892,4,2,1,50,1,0
24892,472.440944881892,4,2,1,50,1,0
29616,458.015267175575,4,2,1,50,1,0
29616,-103.092783505155,4,2,1,50,0,0
30532,487.804878048783,4,2,1,50,1,0
30532,-97.0873786407767,4,2,1,50,0,0
31507,476.190476190478,4,2,1,50,1,0
31507,-99.009900990099,4,2,1,50,0,0
32459,472.440944881892,4,2,1,50,1,0
38128,-100,4,2,1,60,0,0
40490,458.015267175575,4,2,1,60,1,0
40490,-103.092783505155,4,2,1,60,0,0
41864,480.000000000002,4,2,1,50,1,0
41864,-89.2857142857143,4,2,1,50,0,0
43784,468.750000000002,4,2,1,50,1,0
43784,-91.743119266055,4,2,1,50,0,0
45659,480.000000000002,4,2,1,50,1,0
45659,-89.2857142857143,4,2,1,50,0,0
47579,468.750000000002,4,2,1,50,1,0
47579,-91.743119266055,4,2,1,50,0,0
49454,491.803278688527,4,2,1,50,1,0
49454,-97.0873786407767,4,2,1,50,0,0
50675,476.190476190478,4,2,1,50,1,0
51389,465.116279069769,4,2,1,50,1,0
51389,-102.040816326531,4,2,1,50,0,0
53249,476.190476190478,4,2,1,50,1,0
55153,461.538461538463,4,2,1,50,1,0
55153,-103.092783505155,4,2,1,50,0,0
56076,483.870967741937,4,2,1,50,1,0
56076,-98.0392156862745,4,2,1,50,0,0
57043,472.440944881891,4,2,1,55,1,0
57043,-133.333333333333,4,2,1,55,0,0
58932,461.538461538463,4,2,1,55,1,0
58932,-136.986301369863,4,2,1,55,0,0
60800,472.440944881891,4,2,1,55,1,0
60800,-133.333333333333,4,2,1,55,0,0
63634,468.750000000001,4,2,1,55,1,0
63634,-135.135135135135,4,2,1,55,0,0
64571,468.750000000001,4,2,1,55,1,0
64571,-135.135135135135,4,2,1,55,0,0
67852,500.000000000001,4,2,1,55,1,0
68352,472.440944881891,4,2,1,55,1,0
69296,-131.578947368421,4,2,1,55,0,0
72131,472.440944881891,4,2,1,50,1,0
86304,461.538461538463,4,2,1,50,1,0
86304,-102.040816326531,4,2,1,50,0,0
86765,-78.7401574803149,4,2,1,40,0,0
87227,487.804878048782,4,2,1,50,1,0
88202,476.190476190478,4,2,1,50,1,0
89154,480.000000000002,4,2,1,50,1,0
89154,-333.333333333333,4,2,1,50,0,0
89514,-333.333333333333,4,2,1,5,0,0
89634,-250,4,2,1,50,0,0
89994,-250,4,2,1,5,0,0
90114,-66.6666666666667,4,2,1,55,0,0
90354,-83.3333333333333,4,2,1,55,0,0
90594,472.440944881892,4,2,1,55,1,0
90712,-333.333333333333,4,2,1,55,0,0
91066,468.750000000002,4,2,1,70,1,1
91066,-71.9424460431655,4,2,1,70,0,1
94816,472.440944881892,4,2,1,70,1,1
94816,-71.4285714285714,4,2,1,70,0,1
98595,474.308300395259,4,2,1,70,1,1
98595,-70.9219858156028,4,2,1,70,0,1
102389,472.440944881892,4,2,1,70,1,1
102389,-71.4285714285714,4,2,1,70,0,1
113727,468.750000000002,4,2,1,60,1,0
113727,-77.5193798449612,4,2,1,60,0,0
119352,476.190476190478,4,2,1,60,1,0
119352,-76.3358778625954,4,2,1,60,0,0
125066,468.750000000002,4,2,1,60,1,0
125066,-77.5193798449612,4,2,1,60,0,0
128851,472.440944881892,4,2,1,50,1,0
134520,468.750000000002,4,2,1,50,1,0
134520,-101.010101010101,4,2,1,50,0,0
139207,-62.5,4,2,1,50,0,0
139441,-84.0336134453781,4,2,1,50,0,0
139793,-144.927536231884,4,2,1,50,0,0
140145,483.870967741938,4,2,1,50,1,0
140145,-98.0392156862745,4,2,1,50,0,0
142080,458.015267175574,4,2,1,50,1,0
142080,-103.092783505155,4,2,1,50,0,0
142996,476.190476190478,4,2,1,50,1,0
142996,-99.009900990099,4,2,1,50,0,0
143948,476.190476190478,4,2,1,50,1,0
143948,-99.009900990099,4,2,1,50,0,0
145852,-99.009900990099,4,2,1,60,0,0
145912,-99.009900990099,4,2,1,30,0,0
146328,-99.009900990099,4,2,1,60,0,0
146388,-99.009900990099,4,2,1,30,0,0
146805,-99.009900990099,4,2,1,60,0,0
146864,-99.009900990099,4,2,1,30,0,0
147043,-99.009900990099,4,2,1,60,0,0
147757,468.750000000002,4,2,1,70,1,1
147757,-71.9424460431655,4,2,1,70,0,1
151507,472.440944881892,4,2,1,70,1,1
151507,-71.4285714285714,4,2,1,70,0,1
153396,476.190476190478,4,2,1,70,1,1
153396,-70.9219858156028,4,2,1,70,0,1
157205,472.440944881892,4,2,1,70,1,1
157205,-71.4285714285714,4,2,1,70,0,1
159094,468.750000000002,4,2,1,70,1,1
159094,-71.9424460431655,4,2,1,70,0,1
162844,472.440944881892,4,2,1,70,1,1
162844,-71.4285714285714,4,2,1,70,0,1
169930,-200,4,2,1,40,0,1
170403,476.190476190478,4,2,1,55,1,0
170403,-99.009900990099,4,2,1,55,0,0
172307,495.867768595043,4,2,1,55,1,0
172307,-95.2380952380952,4,2,1,55,0,0
173050,476.190476190478,4,2,1,55,1,0
173050,-99.009900990099,4,2,1,55,0,0
174240,461.538461538463,4,2,1,55,1,0
174240,-102.040816326531,4,2,1,55,0,0
176086,465.116279069769,4,2,1,55,1,0
176086,-102.040816326531,4,2,1,55,0,0
177946,461.538461538463,4,2,1,55,1,0
179792,483.870967741937,4,2,1,55,1,0
181727,465.116279069769,4,2,1,55,1,0
183587,476.190476190478,4,2,1,55,1,0
185524,472.440944881892,4,2,1,60,1,0
187413,461.538461538463,4,2,1,60,1,0
187413,-102.040816326531,4,2,1,60,0,0
189259,487.804878048782,4,2,1,60,1,0
190234,468.750000000002,4,2,1,60,1,0
190234,-101.010101010101,4,2,1,60,0,0
191171,468.750000000002,4,2,1,60,1,0
191171,-101.010101010101,4,2,1,60,0,0
193046,487.804878048783,4,2,1,60,1,0
194021,468.750000000002,4,2,1,60,1,0
194021,-101.010101010101,4,2,1,60,0,0
194958,468.750000000002,4,2,1,60,1,0
196364,-50.5050505050505,4,2,1,50,0,0
196833,476.190476190478,4,2,1,50,1,0
196833,-49.5049504950495,4,2,1,50,0,0
197785,491.803278688527,4,2,1,50,1,0
197785,-48.0769230769231,4,2,1,50,0,0
198768,483.870967741938,4,2,1,50,1,0
198768,-48.780487804878,4,2,1,50,0,0
200219,-129.87012987013,4,2,1,50,0,0
200582,-129.87012987013,4,2,1,10,0,0
200683,465.11627906977,4,2,1,70,1,1
200683,-72.463768115942,4,2,1,70,0,1
204403,476.190476190479,4,2,1,70,1,1
204403,-70.9219858156028,4,2,1,70,0,1
206317,472.440944881892,4,2,1,70,1,1
206317,-71.4285714285714,4,2,1,70,0,1
215647,-71.4285714285714,4,2,1,70,0,0
215765,476.190476190478,4,2,1,70,1,1
215765,-70.9219858156028,4,2,1,70,0,1
217669,472.440944881892,4,2,1,70,1,1
217669,-71.4285714285714,4,2,1,70,0,1
221448,468.750000000003,4,2,1,70,1,1
221448,-71.9424460431655,4,2,1,70,0,1
223323,472.440944881893,4,2,1,70,1,1
223323,-71.4285714285714,4,2,1,70,0,1
228046,454.545454545458,4,2,1,70,1,1
228046,-76.9230769230769,4,2,1,70,0,1
228955,476.19047619048,4,2,1,70,1,1
229907,-109.89010989011,4,2,1,50,0,1
230383,-140.845070422535,4,2,1,40,0,1
230859,472.440944881894,4,2,1,30,1,0
232748,480.000000000004,4,2,1,30,1,0
234668,472.440944881894,4,2,1,30,1,0
238447,-133.333333333333,4,2,1,40,0,0
243880,-133.333333333333,4,2,1,50,0,0
245534,-200,4,2,1,30,0,0
246006,-76.9230769230769,4,2,1,60,0,0
247896,468.750000000004,4,2,1,60,1,0
247896,-77.5193798449612,4,2,1,60,0,0
253521,480.000000000004,4,2,1,60,1,0
253521,-75.7575757575758,4,2,1,60,0,0
255441,468.750000000004,4,2,1,60,1,0
255441,-77.5193798449612,4,2,1,60,0,0
257316,476.19047619048,4,2,1,60,1,0
257316,-76.3358778625954,4,2,1,60,0,0
261363,-65.7894736842105,4,2,1,65,0,0
261720,-131.578947368421,4,2,1,65,0,0
262077,-65.7894736842105,4,2,1,65,0,0
263030,468.750000000004,4,2,1,65,1,0
263030,-77.5193798449612,4,2,1,65,0,0
263498,-101.010101010101,4,2,1,65,0,0
264905,-50.5050505050505,4,2,1,70,0,0
266545,-200,4,2,1,70,0,0
266780,-50.5050505050505,4,2,1,70,0,0
268420,-200,4,2,1,70,0,0
268655,476.19047619048,4,2,1,70,1,0
268655,-76.3358778625954,4,2,1,50,0,0
270559,495.867768595045,4,2,1,60,1,0
270559,-73.5294117647059,4,2,1,60,0,0
272016,472.440944881894,4,2,1,60,1,0
272016,-76.9230769230769,4,2,1,60,0,0
272468,472.440944881894,4,2,1,60,1,0
275302,458.015267175576,4,2,1,60,1,0
276103,655.737704918033,4,2,1,50,1,0
276430,366.97247706422,4,2,1,50,1,0
276705,472.44094488189,4,2,1,50,1,0
276941,461.538461538462,4,2,1,50,1,0
277248,555.555555555556,4,2,1,50,1,0
277710,428.571428571429,4,2,1,50,1,0
277924,731.707317073171,4,2,1,50,1,0
278655,759.493670886076,4,2,1,50,1,0
278781,500,4,2,1,50,1,0
279031,465.116279069767,4,2,1,50,1,0
279186,454.545454545455,4,2,1,50,1,0
279489,616.649537512847,4,2,1,50,1,0
280105,400,4,2,1,50,1,0
282505,357.142857142857,4,2,1,50,1,0
282862,419.58041958042,4,2,1,50,1,0
283281,444.444444444444,4,2,1,50,1,0
283725,521.739130434783,4,2,1,50,1,0
284116,600,4,2,1,50,1,0
284266,465.116279069767,4,2,1,50,1,0
284963,428.571428571429,4,2,1,50,1,0
285105,398.671096345515,4,2,1,50,1,0
286699,387.096774193548,4,2,1,50,1,0
287860,444.444444444444,4,2,1,50,1,0
288304,357.142857142857,4,2,1,50,1,0
288661,-100,4,2,1,30,0,0
289018,-100,4,2,1,20,0,0
289375,-100,4,2,1,10,0,0

[Colours]
Combo1 : 84,167,167
Combo2 : 157,157,79

[HitObjects]
80,96,328,6,0,P|152:112|196:135,1,115.600000705566,4|0,1:0|0:0,0:0:0:0:
299,49,699,2,0,P|264:50|241:52,1,57.8000003527832,2|8,0:0|0:0,0:0:0:0:
151,135,940,1,0,0:0:0:0:
151,135,1057,2,0,P|182:150|198:161,1,54.8250008365631,0|0,1:0|0:0,0:0:0:0:
303,258,1291,6,0,P|302:217|309:147,1,109.650001673126,0|2,1:0|0:0,0:0:0:0:
416,81,1643,1,0,1:0:0:0:
416,81,1760,2,0,P|417:122|409:191,1,109.650001673126,8|0,0:0|1:0,0:0:0:0:
206,322,2229,6,0,L|94:313,1,107.949999176407,0|0,1:0|0:0,0:0:0:0:
224,304,2575,1,2,0:0:0:0:
192,239,2690,2,0,L|134:243,1,53.9749995882034,8|0,0:0|0:0,0:0:0:0:
77,330,2921,1,0,1:0:0:0:
77,330,3036,6,0,P|69:276|53:219,1,107.949999176407,4|0,1:2|0:0,0:0:0:0:
7,119,3382,1,0,1:0:0:0:
256,42,3613,1,8,0:0:0:0:
505,119,3844,1,4,1:2:0:0:
435,330,4075,6,0,P|443:276|460:220,1,112.199999657593,4|0,1:2|0:0,0:0:0:0:
399,85,4435,2,0,P|403:117|405:143,1,56.0999998287964,2|8,0:0|0:0,0:0:0:0:
300,220,4675,1,0,0:0:0:0:
300,220,4795,2,0,P|329:220|358:223,1,56.0999998287964,0|0,1:0|0:0,0:0:0:0:
459,350,5035,6,0,P|379:341|291:341,1,168.299999486389,0|0,1:0|1:0,0:0:0:0:
117,282,5515,2,0,P|173:277|228:275,1,112.199999657593,8|0,0:0|1:0,0:0:0:0:
458,222,5995,6,0,P|445:168|436:106,1,111.350002038879,0|0,1:0|0:0,0:0:0:0:
317,40,6352,1,2,0:0:0:0:
317,40,6471,2,0,P|312:68|308:96,1,54.8250008365631,8|0,0:0|0:0,0:0:0:0:
345,242,6705,2,0,P|350:214|353:186,1,54.8250008365631,0|0,3:0|1:0,0:0:0:0:
223,192,6939,5,4,1:2:0:0:
227,219,7056,1,2,0:0:0:0:
248,270,7174,1,0,1:0:0:0:
244,297,7291,1,0,1:0:0:0:
272,344,7408,2,0,L|190:339,1,55.2499974708558,0|0,1:0|0:0,0:0:0:0:
415,304,7642,1,4,1:2:0:0:
97,304,7877,6,0,P|91:245|73:188,1,110.499994941712,4|0,1:0|0:0,0:0:0:0:
158,77,8231,2,0,P|147:101|138:134,1,55.2499974708558,2|8,0:0|0:0,0:0:0:0:
264,188,8467,1,0,0:0:0:0:
264,188,8585,2,0,P|248:166|222:142,1,55.2499974708558,0|0,1:0|0:0,0:0:0:0:
123,286,8821,6,0,P|176:275|233:274,1,110.499994941712,0|2,1:0|0:0,0:0:0:0:
303,314,9176,1,0,1:0:0:0:
317,337,9294,2,0,P|266:316|208:305,1,110.499994941712,8|0,0:0|1:0,0:0:0:0:
454,202,9766,6,0,P|403:222|344:233,1,110.499994941712,0|0,1:0|0:0,0:0:0:0:
483,211,10121,1,2,0:0:0:0:
491,135,10239,2,0,P|487:112|486:80,1,55.2499974708558,8|0,0:0|0:0,0:0:0:0:
353,16,10475,1,0,1:0:0:0:
375,31,10593,6,0,P|398:86|372:143,1,110.499994941712,4|2,1:2|0:0,0:0:0:0:
244,144,10947,2,0,P|265:148|301:159,1,55.2499974708558,0|0,1:0|0:0,0:0:0:0:
457,293,11184,1,8,0:0:0:0:
256,361,11420,1,4,1:2:0:0:
55,293,11656,6,0,P|78:240|92:185,1,110.499994941712,0|0,1:0|0:0,0:0:0:0:
58,66,12010,2,0,P|43:101|37:130,1,55.2499974708558,2|8,0:0|0:0,0:0:0:0:
75,271,12247,1,0,0:0:0:0:
75,271,12365,2,0,P|100:263|132:259,1,55.2499974708558,0|0,1:0|0:0,0:0:0:0:
235,143,12601,6,0,P|193:106|127:122,1,110.499994941712,0|2,1:0|0:0,0:0:0:0:
218,235,12955,1,0,1:0:0:0:
218,235,13073,2,0,P|260:272|326:256,1,110.499994941712,8|0,0:0|1:0,0:0:0:0:
484,316,13546,6,0,L|367:325,1,110.499994941712,4|0,1:2|0:0,0:0:0:0:
376,320,13900,1,0,1:0:0:0:
378,316,14018,1,0,1:0:0:0:
364,313,14136,1,0,1:0:0:0:
350,310,14254,1,0,1:0:0:0:
336,307,14373,1,0,1:0:0:0:
317,328,14491,5,0,1:0:0:0:
292,342,14609,1,0,1:0:0:0:
264,345,14727,1,0,1:0:0:0:
237,339,14845,1,0,1:0:0:0:
198,354,14963,1,0,1:0:0:0:
194,298,15081,1,0,1:0:0:0:
180,244,15199,1,0,1:0:0:0:
33,88,15435,6,0,P|30:134|25:188,1,90.9499972244264,4|0,1:2|0:0,0:0:0:0:
163,57,15813,2,0,P|167:100|177:170,1,90.9499972244264,0|0,1:0|0:0,0:0:0:0:
319,82,16191,2,0,P|315:121|311:179,1,85.8499982970429,4|0,1:2|0:0,0:0:0:0:
449,51,16548,2,0,P|457:99|464:154,1,85.8499982970429,0|0,1:0|0:0,0:0:0:0:
501,203,16905,5,0,1:0:0:0:
501,203,17143,1,4,1:2:0:0:
253,351,17381,6,0,P|297:351|350:373,1,83.2999992373657,4|0,1:2|0:0,0:0:0:0:
206,332,17729,2,0,P|248:320|304:328,1,83.2999992373657,0|0,1:0|0:0,0:0:0:0:
161,319,18078,2,0,P|199:297|254:291,1,83.2999992373657,4|0,1:2|0:0,0:0:0:0:
114,317,18427,2,0,P|145:285|199:264,1,83.2999992373657,0|0,1:0|0:0,0:0:0:0:
28,274,18776,5,0,1:0:0:0:
28,274,19008,1,4,1:2:0:0:
236,27,19241,5,4,1:2:0:0:
266,126,19595,1,0,1:0:0:0:
242,221,19949,1,4,1:2:0:0:
236,309,20303,1,0,1:0:0:0:
291,381,20658,5,0,1:0:0:0:
291,381,20894,1,4,1:2:0:0:
486,229,21130,6,0,P|436:227|386:218,1,84.1499997431946,4|0,1:2|0:0,0:0:0:0:
342,172,21481,2,0,P|299:177|258:179,1,84.1499997431946,0|0,1:0|0:0,0:0:0:0:
459,243,21833,2,0,P|409:241|358:233,1,84.1499997431946,4|0,1:2|0:0,0:0:0:0:
315,186,22184,2,0,P|272:191|229:193,1,84.1499997431946,0|0,1:0|0:0,0:0:0:0:
93,203,22536,5,0,1:0:0:0:
93,203,22770,1,4,1:2:0:0:
5,56,23004,6,0,P|54:71|92:74,1,86.7000005291748,4|0,1:2|0:0,0:0:0:0:
163,108,23366,2,0,P|166:130|173:153,1,43.3500002645874,0|0,1:0|0:0,0:0:0:0:
159,309,23729,2,0,P|177:255|182:216,1,86.7000005291748,0|0,1:0|0:0,0:0:0:0:
348,177,24066,2,0,P|306:183|267:200,1,85,0|0,1:0|0:0,0:0:0:0:
313,322,24420,2,0,P|305:287|296:272,1,42.5,0|0,1:0|0:0,0:0:0:0:
485,254,24656,2,0,P|461:245|431:245,1,42.5,4|0,1:2|0:0,0:0:0:0:
418,239,24892,6,0,P|427:185|429:148,1,85,4|0,1:2|0:0,0:0:0:0:
392,83,25246,1,0,1:0:0:0:
124,166,25482,1,0,0:0:0:0:
156,178,25600,2,0,P|164:207|168:237,1,42.5,0|0,1:0|0:0,0:0:0:0:
0,325,25836,2,0,P|4:301|4:282,1,42.5,0|0,0:0|1:0,0:0:0:0:
79,250,26073,1,0,0:0:0:0:
79,250,26309,1,0,1:0:0:0:
235,318,26545,2,0,P|290:323|324:313,1,85,4|4,1:2|1:2,0:0:0:0:
160,268,26899,6,0,P|118:250|69:254,1,85,0|0,0:0|1:0,0:0:0:0:
10,195,27254,1,0,0:0:0:0:
93,42,27490,2,0,P|108:70|113:98,1,42.5,0|0,1:0|0:0,0:0:0:0:
261,210,27844,2,0,P|239:193|224:171,1,42.5,0|0,1:0|0:0,0:0:0:0:
55,302,28199,2,0,P|61:281|74:253,1,42.5,0|0,1:0|0:0,0:0:0:0:
176,126,28435,2,0,P|156:133|125:139,1,42.5,4|0,1:2|0:0,0:0:0:0:
82,239,28671,2,0,P|143:225|207:258,1,127.5,4|0,1:2|1:0,0:0:0:0:
280,296,29143,2,0,L|373:309,1,85,0|0,0:0|1:0,0:0:0:0:
377,161,29498,5,2,0:0:0:0:
390,141,29730,2,0,L|442:130,1,41.2250009750176,0|0,1:0|0:0,0:0:0:0:
219,111,30074,1,0,1:0:0:0:
445,211,30303,2,0,L|530:226,1,82.4500019500351,4|4,1:2|1:2,0:0:0:0:
299,66,30775,6,0,L|308:113,2,43.7749996326256,0|0|0,0:0|1:0|0:0,0:0:0:0:
139,129,31263,2,0,P|184:129|229:97,1,87.5499992652512,0|0,1:0|0:0,0:0:0:0:
465,104,31626,2,0,P|419:83|378:81,1,85.8499982970429,0|0,1:0|0:0,0:0:0:0:
299,66,31983,1,0,1:0:0:0:
299,66,32221,2,0,L|313:159,1,85.8499982970429,4|4,1:2|1:2,0:0:0:0:
227,209,32577,6,0,L|239:149,2,42.5,0|0|0,0:0|0:0|1:0,0:0:0:0:
316,171,32931,1,0,0:0:0:0:
58,120,33167,2,0,P|106:114|154:146,1,85,0|0,1:0|0:0,0:0:0:0:
25,260,33521,2,0,P|1:220|11:173,1,85,0|0,1:0|0:0,0:0:0:0:
156,150,33876,1,0,1:0:0:0:
156,150,34112,1,4,1:2:0:0:
163,272,34348,6,0,B|147:319|164:307|146:354,1,85,4|0,1:2|0:0,0:0:0:0:
113,364,34703,2,0,P|92:371|74:380,2,42.5,0|0|0,1:0|0:0|0:0,0:0:0:0:
278,304,35057,2,0,P|256:305|235:310,1,42.5,0|0,1:0|0:0,0:0:0:0:
391,374,35293,1,0,0:0:0:0:
486,379,35411,2,0,P|445:367|403:361,1,85,0|0,1:0|0:0,0:0:0:0:
358,296,35766,1,0,1:0:0:0:
358,296,36002,1,4,1:2:0:0:
334,171,36238,6,0,P|338:128|346:87,1,85,4|0,1:2|0:0,0:0:0:0:
209,113,36592,1,0,1:0:0:0:
195,97,36710,2,0,P|199:55|208:13,1,85,0|0,0:0|1:0,0:0:0:0:
288,24,37183,5,0,1:0:0:0:
261,204,37419,1,2,0:0:0:0:
91,236,37655,1,2,3:0:0:0:
91,236,38128,6,0,P|82:216|77:195,1,42.5,4|0,1:0|0:0,0:0:0:0:
120,126,38364,1,0,0:0:0:0:
242,281,38600,5,8,0:0:0:0:
259,293,38718,2,0,L|244:376,1,85
332,348,39073,2,0,P|373:337|415:330,1,85,0|2,1:0|0:0,0:0:0:0:
439,354,39427,2,0,P|470:361|494:369,1,42.5,0|8,1:0|0:0,0:0:0:0:
337,246,39781,2,0,P|357:241|378:235,1,42.5,0|8,1:0|0:0,0:0:0:0:
428,166,40018,5,4,1:2:0:0:
288,24,40254,5,8,0:0:0:0:
281,37,40372,2,0,P|277:57|274:78,1,42.5,0|8,3:0|0:0,0:0:0:0:
234,101,40604,1,4,0:2:0:0:
270,174,40719,1,8,0:0:0:0:
217,228,40833,6,0,P|220:248|223:269,1,42.5,0|0,1:0|0:0,0:0:0:0:
243,376,41062,1,8,0:0:0:0:
243,380,41177,1,4,0:2:0:0:
241,384,41291,1,0,0:0:0:0:
200,307,41406,5,0,1:0:0:0:
283,168,41635,1,0,3:0:0:0:
452,65,41864,6,0,P|429:58|408:48,1,47.6000005810547,4|0,1:2|0:0,0:0:0:0:
378,23,42224,2,0,P|383:45|385:69,1,47.6000005810547,0|0,1:0|0:0,0:0:0:0:
391,105,42584,2,0,P|408:89|426:74,1,47.6000005810547,0|0,1:0|0:0,0:0:0:0:
452,65,42944,2,0,P|429:58|407:48,1,47.6000005810547,0|0,1:0|0:0,0:0:0:0:
378,23,43304,2,0,P|383:45|385:69,1,47.6000005810547,0|0,1:0|0:0,0:0:0:0:
466,166,43544,2,0,P|460:188|458:213,1,47.6000005810547,4|0,1:2|0:0,0:0:0:0:
348,261,43784,6,0,P|353:283|356:308,1,46.3250004948044,4|0,1:2|0:0,0:0:0:0:
361,343,44135,2,0,P|378:327|398:312,1,46.3250004948044,0|0,1:0|0:0,0:0:0:0:
422,303,44487,2,0,P|399:296|378:287,1,46.3250004948044,0|0,1:0|0:0,0:0:0:0:
348,261,44838,2,0,P|353:283|356:306,1,46.3250004948044,0|0,1:0|0:0,0:0:0:0:
361,343,45190,2,0,P|378:327|396:313,1,46.3250004948044,0|0,1:0|0:0,0:0:0:0:
223,265,45424,2,0,P|240:280|258:295,1,46.7500014266968,4|0,1:2|0:0,0:0:0:0:
88,357,45659,6,0,P|105:341|123:326,1,47.6000005810547,4|0,1:2|0:0,0:0:0:0:
149,317,46019,2,0,P|126:310|105:301,1,47.6000005810547,0|0,1:0|0:0,0:0:0:0:
75,275,46379,2,0,P|80:297|83:321,1,47.6000005810547,0|0,1:0|0:0,0:0:0:0:
88,357,46739,2,0,P|105:341|123:326,1,47.6000005810547,0|0,1:0|0:0,0:0:0:0:
149,317,47099,2,0,P|126:310|104:301,1,47.6000005810547,0|0,1:0|0:0,0:0:0:0:
0,216,47339,2,0,P|22:209|44:200,1,47.6000005810547,4|0,1:2|0:0,0:0:0:0:
154,101,47579,6,0,P|148:123|145:146,1,46.3250004948044,4|0,1:2|0:0,0:0:0:0:
145,55,47930,2,0,P|150:77|154:101,1,46.3250004948044,0|0,1:0|0:0,0:0:0:0:
262,188,48282,5,0,1:0:0:0:
277,96,48399,2,0,P|271:143|262:189,1,92.6500009896088,2|0,0:0|1:0,0:0:0:0:
296,271,48750,2,0,P|290:313|282:354,1,46.3250004948044,2|0,0:0|1:0,0:0:0:0:
493,186,48985,2,0,P|490:209|486:231,1,46.3250004948044,2|0,1:2|1:0,0:0:0:0:
403,272,49219,1,4,1:2:0:0:
388,264,49454,6,0,P|389:224|395:176,1,87.5499992652512,4|0,1:2|0:0,0:0:0:0:
377,97,49822,1,0,1:0:0:0:
377,97,49945,2,0,P|382:54|383:9,1,87.5499992652512,0|0,0:0|1:0,0:0:0:0:
296,50,50314,2,0,P|290:92|288:139,1,87.5499992652512,0|0,0:0|1:0,0:0:0:0:
301,218,50675,2,0,L|257:214,1,42.5
159,113,50913,2,0,L|203:109,1,42.5,0|0,1:0|0:0,0:0:0:0:
377,97,51151,1,4,1:2:0:0:
457,293,51389,6,0,L|409:288,1,41.6499996186829,4|0,1:2|0:0,0:0:0:0:
475,317,51621,2,0,L|426:312,1,41.6499996186829,0|0,0:0|1:0,0:0:0:0:
256,316,51854,2,0,P|298:306|334:325,1,83.2999992373657,0|0,0:0|1:0,0:0:0:0:
180,361,52202,2,0,P|138:371|102:353,1,83.2999992373657,0|0,0:0|1:0,0:0:0:0:
168,233,52551,2,0,P|178:261|184:285,1,41.6499996186829
25,364,52784,1,0,1:0:0:0:
40,129,53016,1,4,1:2:0:0:
2,341,53249,6,0,P|10:298|11:268,1,42.5,4|0,1:2|0:0,0:0:0:0:
1,207,53487,2,0,L|51:213,1,42.5,0|0,0:0|1:0,0:0:0:0:
168,233,53725,1,0,0:0:0:0:
265,149,53963,1,0,1:0:0:0:
360,246,54201,1,0,0:0:0:0:
381,243,54320,1,0,1:0:0:0:
448,174,54558,1,0,0:0:0:0:
436,155,54677,2,0,P|426:117|423:52,1,85,0|4,1:0|1:2,0:0:0:0:
208,150,55153,6,0,P|275:146|336:159,1,123.675002925053,4|0,1:2|1:0,0:0:0:0:
381,243,55614,2,0,P|391:281|395:342,1,82.4500019500351,0|0,0:0|1:0,0:0:0:0:
285,302,56076,2,0,P|276:272|275:236,1,57.8000003527832,2|0,0:0|0:0,0:0:0:0:
274,245,56398,1,2,0:0:0:0:
201,355,56559,2,0,P|152:337|79:330,1,115.600000705566
19,178,57043,5,4,1:2:0:0:
89,160,57200,1,0,0:0:0:0:
160,166,57357,1,2,0:0:0:0:
227,192,57515,1,8,0:0:0:0:
274,247,57672,1,0,0:0:0:0:
329,200,57830,1,2,0:0:0:0:
282,145,57987,6,0,P|295:106|300:85,1,42.5000016212464,0|2,1:0|0:3,0:0:0:0:
308,20,58302,1,0,0:0:0:0:
187,4,58460,2,0,P|174:43|166:90,1,85.0000032424928,2|2,0:3|0:0,0:0:0:0:
307,127,58932,2,0,L|398:120,1,82.7333356056723,0|0,1:0|1:0,0:0:0:0:
464,118,59701,1,8,0:0:0:0:
431,52,59855,1,0,1:0:0:0:
256,168,60316,1,2,0:0:0:0:
81,52,60800,6,0,P|83:102|85:157,1,85.0000032424928,4|0,1:2|0:0,0:0:0:0:
156,145,61272,1,0,0:0:0:0:
180,213,61429,1,0,0:0:0:0:
251,219,61587,1,2,0:0:0:0:
314,183,61744,1,8,0:0:0:0:
385,194,61902,1,2,0:3:0:0:
414,260,62059,1,2,0:0:0:0:
377,320,62217,2,0,P|328:318|263:323,1,85.0000032424928,2|2,0:3|0:0,0:0:0:0:
251,188,62689,5,0,1:0:0:0:
494,195,63004,1,0,1:0:0:0:
494,195,63162,2,0,P|493:249|495:286,1,85.0000032424928,2|2,0:0|0:0,0:0:0:0:
486,314,63634,2,0,L|485:280,1,20.9666671785482,8|0,0:0|0:0,0:0:0:0:
466,343,63790,1,0,0:0:0:0:
391,316,63946,1,0,0:0:0:0:
322,358,64102,1,2,0:0:0:0:
258,325,64259,1,0,0:0:0:0:
179,343,64415,1,2,0:0:0:0:
151,268,64571,6,0,P|150:230|149:208,1,41.9333343570964,4|0,1:2|0:0,0:0:0:0:
7,17,64883,2,0,P|6:38|5:119,1,83.8666687141928,0|0,1:0|0:0,0:0:0:0:
37,166,65352,1,2,0:0:0:0:
109,148,65508,1,8,0:0:0:0:
178,157,65664,1,2,0:3:0:0:
240,189,65821,1,2,0:0:0:0:
294,239,65977,1,2,0:3:0:0:
366,254,66133,1,0,0:0:0:0:
437,245,66289,1,0,0:0:0:0:
496,201,66446,6,0,P|470:202|442:204,1,41.9333343570964,0|0,1:0|0:0,0:0:0:0:
389,156,66758,2,0,P|367:154|345:153,1,41.9333343570964,0|0,1:0|0:0,0:0:0:0:
274,184,67071,2,0,L|245:191,2,20.9666671785482
334,226,67383,1,4,0:0:0:0:
334,226,67852,1,2,0:0:0:0:
24,232,68352,5,0,1:0:0:0:
24,232,69296,2,0,L|23:204,1,21.5333330704753,0|0,1:0|1:0,1:0:0:0:
31,235,69454,2,0,L|30:207,1,21.5333330704753,0|0,1:0|1:0,1:0:0:0:
39,240,69611,2,0,L|37:212,1,21.5333330704753,0|0,1:0|1:0,1:0:0:0:
48,245,69769,2,0,L|91:241,1,32.2999996057129,0|0,1:0|1:0,1:0:0:0:
113,325,70005,5,8,0:0:0:0:
113,325,70477,1,8,0:3:0:0:
101,142,70714,1,4,0:3:0:0:
184,148,70950,1,0,1:0:0:0:
184,148,71029,1,0,1:0:0:0:
184,148,71107,1,0,1:0:0:0:
184,148,71186,1,8,1:2:0:0:
190,327,71422,1,4,0:3:0:0:
269,327,71659,1,0,1:0:0:0:
264,273,71777,1,0,1:0:0:0:
261,218,71895,1,8,1:2:0:0:
261,218,72131,6,0,P|306:218|356:207,1,85,4|0,1:2|0:0,0:0:0:0:
494,189,72485,2,0,P|449:221|428:249,1,85,0|0,1:0|0:0,0:0:0:0:
372,338,72839,2,0,L|360:287,2,42.5,0|0|0,1:0|0:0|0:0,0:0:0:0:
261,218,73193,2,0,P|309:222|346:212,1,85,0|0,1:0|0:0,0:0:0:0:
453,355,73548,2,0,P|410:339|365:338,1,85,0|4,1:0|1:2,0:0:0:0:
290,350,73902,5,0,0:0:0:0:
290,350,74020,1,4,1:2:0:0:
105,251,74256,1,0,0:0:0:0:
75,245,74375,1,0,1:0:0:0:
156,85,74611,1,0,0:0:0:0:
164,114,74729,2,0,L|191:198,1,85,0|0,1:0|0:0,0:0:0:0:
46,238,75083,2,0,L|25:328,1,85,0|0,1:0|0:0,0:0:0:0:
0,168,75438,2,0,L|10:109,1,42.5,0|0,1:0|0:0,0:0:0:0:
108,325,75674,2,0,P|58:332|9:306,1,85,4|4,1:2|1:2,0:0:0:0:
26,320,76146,6,0,L|17:365,1,42.5,0|0,0:0|1:0,0:0:0:0:
197,373,76382,2,0,L|190:328,1,42.5
331,248,76619,2,0,L|383:328,1,85,0|0,1:0|0:0,0:0:0:0:
327,147,76973,2,0,L|377:65,1,85,0|0,1:0|0:0,0:0:0:0:
231,59,77327,2,0,L|276:90,1,42.5,0|0,1:0|0:0,0:0:0:0:
382,59,77564,2,0,L|408:11,1,42.5,4|0,1:2|0:0,0:0:0:0:
298,179,77800,2,0,P|233:190|172:150,1,127.5,4|0,1:2|1:0,0:0:0:0:
91,157,78272,2,0,P|53:197|40:227,1,85,0|0,0:0|1:0,0:0:0:0:
187,346,78627,5,2,0:0:0:0:
160,329,78863,2,0,L|118:304,1,42.5,0|0,1:0|0:0,0:0:0:0:
321,286,79217,1,0,1:0:0:0:
146,224,79453,2,0,L|43:248,1,85,4|4,1:2|1:2,0:0:0:0:
234,210,79926,6,0,L|220:268,1,42.5,0|0,0:0|1:0,0:0:0:0:
90,156,80162,2,0,P|98:116|131:89,1,85,0|0,0:0|1:0,0:0:0:0:
261,52,80516,2,0,P|229:26|188:24,2,85,0|0|0,0:0|1:0|0:0,0:0:0:0:
307,157,81107,1,0,1:0:0:0:
214,122,81225,1,0,0:0:0:0:
322,163,81343,2,0,P|327:142|331:121,1,42.5,4|0,1:2|0:0,0:0:0:0:
381,14,81579,5,4,1:2:0:0:
381,14,81816,2,0,P|384:34|390:55,1,42.5,0|0,0:0|1:0,0:0:0:0:
455,122,82052,2,0,P|475:116|496:112,2,42.5,0|0|0,0:0|0:0|1:0,0:0:0:0:
395,215,82406,2,0,P|437:214|476:229,1,85,0|0,0:0|1:0,0:0:0:0:
486,240,82760,1,0,0:0:0:0:
308,198,82997,2,0,L|314:240,1,42.5,0|0,1:0|0:0,0:0:0:0:
424,293,83233,2,0,L|418:336,1,42.5,4|0,1:2|0:0,0:0:0:0:
334,326,83469,6,0,P|292:316|249:313,1,85,4|0,1:2|0:0,0:0:0:0:
67,373,83823,2,0,P|109:371|150:359,1,85,0|0,1:0|0:0,0:0:0:0:
230,317,84178,1,0,1:0:0:0:
81,268,84414,1,0,0:0:0:0:
95,288,84532,2,0,P|112:249|122:208,1,85,0|0,1:0|0:0,0:0:0:0:
27,146,84886,2,0,P|33:166|42:185,1,42.5,0|0,1:0|0:0,0:0:0:0:
159,131,85123,2,0,P|178:122|199:119,1,42.5,4|0,1:2|0:0,0:0:0:0:
82,78,85359,5,4,1:2:0:0:
184,31,85595,5,0,0:0:0:0:
94,73,85713,1,0,1:0:0:0:
334,79,85949,5,8,0:0:0:0:
241,37,86068,2,0,P|219:34|199:25,1,42.5,0|8,1:0|0:0,0:0:0:0:
466,30,86304,5,0,0:0:0:0:
371,72,86419,2,0,P|360:72|349:75,5,20.8249998093414,0|8|0|0|8|0,1:0|0:0|1:0|1:0|0:0|1:0,0:0:0:0:
334,79,86765,6,0,P|341:105|346:133,1,53.9749995882034,4|0,1:2|0:0,0:0:0:0:
466,30,86996,2,0,P|458:56|451:83,1,53.9749995882034,0|0,1:0|0:0,0:0:0:0:
432,175,87227,5,4,1:2:0:0:
372,300,88202,1,0,1:0:0:0:
279,356,89154,2,0,P|260:352|243:344,1,38.2499988327027,4|0,1:2|0:0,0:0:0:0:
216,350,89634,2,0,P|207:319|202:290,1,51,4|0,1:2|0:0,0:0:0:0:
194,290,90114,6,0,L|205:200,1,63.7500024318696,4|0,1:2|0:0,0:0:0:0:
2,196,90354,2,0,L|13:106,1,50.9999984436036,0|0,1:0|0:0,0:0:0:0:
99,45,90594,5,0,1:0:0:0:
114,105,90712,2,0,P|115:88|115:70,1,25.4999992218018,12|8,0:0|0:0,0:0:0:0:
99,45,91066,6,0,P|103:130|119:224,1,177.225005408478,4|0,1:0|1:0,0:0:0:0:
118,220,91534,2,0,P|145:216|176:218,1,59.075001802826,8|0,0:0|0:0,0:0:0:0:
30,322,91769,2,0,P|88:314|151:317,1,118.150003605652,0|2,1:0|0:0,0:0:0:0:
235,297,92120,1,0,1:0:0:0:
234,41,92355,1,2,0:0:0:0:
234,41,92472,2,0,P|310:41|417:61,1,177.225005408478,8|0,0:0|0:0,0:0:0:0:
435,37,92941,6,0,P|430:96|431:156,1,118.150003605652,0|2,1:0|0:0,0:0:0:0:
489,227,93292,1,0,1:0:0:0:
407,177,93409,2,0,P|411:209|411:240,1,59.075001802826,8|0,0:0|0:0,0:0:0:0:
456,362,93644,2,0,P|456:334|459:303,1,59.075001802826,0|0,1:0|0:0,0:0:0:0:
261,300,93878,1,2,0:0:0:0:
261,300,93995,2,0,P|318:287|372:311,1,118.150003605652,0|2,1:0|0:0,0:0:0:0:
310,372,94347,1,8,0:0:0:0:
342,115,94581,1,2,0:3:0:0:
212,228,94816,6,0,P|157:220|91:216,1,118.999996368408,4|2,1:2|0:0,0:0:0:0:
232,204,95170,1,0,1:0:0:0:
113,191,95288,2,0,P|106:130|106:70,1,118.999996368408,8|0,0:0|1:0,0:0:0:0:
21,334,95760,1,2,0:0:0:0:
21,334,95878,2,0,P|83:330|142:321,1,118.999996368408,0|2,1:0|0:0,0:0:0:0:
221,357,96233,1,8,0:0:0:0:
384,192,96469,1,0,0:0:0:0:
222,27,96705,6,0,P|283:29|339:39,1,118.999996368408,0|2,1:0|0:0,0:0:0:0:
420,0,97060,1,0,0:0:0:0:
359,65,97178,2,0,P|328:63|298:65,1,59.4999981842042,8|0,0:0|0:0,0:0:0:0:
162,112,97414,2,0,P|190:109|221:112,1,59.4999981842042,0|0,1:0|0:0,0:0:0:0:
298,300,97650,1,8,0:0:0:0:
298,300,97768,1,0,1:0:0:0:
300,252,97886,1,2,0:3:0:0:
303,204,98004,1,0,1:0:0:0:
306,156,98123,5,8,0:0:0:0:
292,384,98359,5,4,0:0:0:0:
46,251,98595,6,0,P|119:214|191:266,1,179.774990810452,4|0,1:0|1:0,0:0:0:0:
121,364,99069,2,0,P|119:335|112:299,1,59.9249969368173,8|0,0:0|0:0,0:0:0:0:
218,249,99306,2,0,P|218:201|227:121,1,119.849993873635,0|2,1:0|0:0,0:0:0:0:
250,45,99662,1,0,1:0:0:0:
335,265,99899,1,2,0:0:0:0:
335,265,100017,2,0,P|335:313|326:394,1,119.849993873635,8|0,0:0|0:0,0:0:0:0:
63,209,100492,6,0,P|122:194|171:221,1,119.849993873635,0|2,1:2|0:0,0:0:0:0:
225,130,100847,1,0,1:0:0:0:
225,130,100966,2,0,P|257:130|289:127,1,59.9249969368173,8|0,0:0|0:0,0:0:0:0:
374,122,101203,1,0,1:0:0:0:
254,336,101440,1,2,0:0:0:0:
254,336,101559,2,0,P|256:282|268:211,1,119.849993873635,0|2,1:0|0:0,0:0:0:0:
132,107,101915,2,0,P|114:60|172:37,1,119.849993873635,8|2,0:0|0:3,0:0:0:0:
374,121,102389,6,0,P|309:122|255:111,1,118.999996368408,4|2,1:2|0:0,0:0:0:0:
187,174,102743,1,0,1:0:0:0:
282,138,102861,2,0,P|291:148|322:196,1,59.4999981842042,8|0,0:0|0:0,0:0:0:0:
375,314,103097,1,0,1:0:0:0:
512,220,103333,1,2,0:0:0:0:
512,220,103451,2,0,P|447:219|393:230,1,118.999996368408,0|2,1:0|0:0,0:0:0:0:
307,266,103806,1,8,0:0:0:0:
82,213,104042,1,2,0:3:0:0:
153,369,104278,6,0,P|209:365|219:312,1,118.999996368408,4|2,1:2|0:0,0:0:0:0:
307,266,104633,1,0,0:0:0:0:
204,287,104751,2,0,P|198:257|197:224,1,59.4999981842042,8|0,0:0|0:0,0:0:0:0:
217,141,104987,2,0,P|233:115|256:92,1,59.4999981842042,0|0,1:0|0:0,0:0:0:0:
336,60,105223,1,8,0:0:0:0:
344,67,105459,1,8,0:0:0:0:
352,74,105696,5,0,1:0:0:0:
280,71,105814,1,8,0:3:0:0:
208,68,105932,1,4,0:3:0:0:
136,65,106050,1,8,0:0:0:0:
89,4,106168,6,0,P|99:78|102:182,1,178.499994552612,4|0,1:0|1:0,0:0:0:0:
125,269,106640,2,0,P|93:264|58:264,1,59.4999981842042,8|0,0:0|0:0,0:0:0:0:
189,203,106877,2,0,P|247:212|317:212,1,118.999996368408,0|0,1:0|1:0,0:0:0:0:
395,199,107231,1,8,1:2:0:0:
154,293,107467,1,2,1:2:0:0:
154,293,107585,2,0,P|96:284|25:284,1,118.999996368408,8|2,0:0|0:3,0:0:0:0:
254,366,108058,6,0,L|248:245,1,118.999996368408,4|2,1:2|0:0,0:0:0:0:
322,198,108412,1,0,1:0:0:0:
274,340,108530,2,0,P|305:335|345:334,1,59.4999981842042,8|0,0:0|0:0,0:0:0:0:
455,268,108766,2,0,P|424:263|383:261,1,59.4999981842042,0|0,1:0|0:0,0:0:0:0:
327,79,109003,1,0,1:0:0:0:
327,79,109121,2,0,P|326:140|322:198,1,118.999996368408,8|2,0:2|1:2,0:0:0:0:
333,333,109475,1,8,0:0:0:0:
300,94,109711,2,0,P|303:123|303:154,1,59.4999981842042,2|0,0:3|0:0,0:0:0:0:
111,222,109948,6,0,P|199:223|224:266,1,118.999996368408,4|2,1:2|0:0,0:0:0:0:
406,172,110420,1,8,0:0:0:0:
333,333,110656,2,0,L|336:273,1,59.4999981842042,0|0,1:0|0:0,0:0:0:0:
240,221,110892,5,0,1:0:0:0:
245,173,111011,1,0,1:0:0:0:
250,125,111129,1,0,1:0:0:0:
256,77,111247,1,0,1:0:0:0:
262,29,111365,1,8,0:0:0:0:
96,98,111601,5,12,0:0:0:0:
94,86,112074,5,12,0:0:0:0:
92,74,112546,5,8,0:3:0:0:
90,62,113018,5,12,0:0:0:0:
88,50,113727,6,0,P|87:74|91:126,1,54.8250008365631,4|2,1:0|0:0,0:0:0:0:
104,15,113961,1,0,1:0:0:0:
108,196,114195,1,8,0:0:0:0:
116,210,114312,1,0,1:0:0:0:
119,227,114430,2,0,P|119:266|117:301,1,54.8250008365631,2|8,0:3|0:0,0:0:0:0:
201,355,114664,6,0,P|198:317|199:233,1,109.650001673126,0|8,1:0|0:0,0:0:0:0:
38,137,115016,2,0,P|38:192|34:246,1,109.650001673126,0|0,1:0|1:0,0:0:0:0:
172,115,115367,1,8,0:0:0:0:
325,356,115602,6,0,P|324:331|320:298,1,54.8250008365631,4|2,1:2|0:0,0:0:0:0:
310,197,115836,2,0,L|429:183,1,109.650001673126,0|8,1:0|0:0,0:0:0:0:
451,118,116187,1,0,0:0:0:0:
411,55,116305,1,2,0:3:0:0:
392,23,116422,6,0,P|391:48|396:80,1,54.8250008365631,8|0,0:0|1:0,0:0:0:0:
490,251,116656,1,8,0:0:0:0:
490,251,116773,2,0,P|494:223|493:196,1,55.2499974708558,2|0,0:3|0:0,0:0:0:0:
489,328,117008,5,8,0:0:0:0:
23,328,117242,1,12,0:0:0:0:
28,38,117477,6,0,L|96:32,1,54.8250008365631,4|2,1:2|0:0,0:0:0:0:
3,64,117711,1,0,1:0:0:0:
228,63,117945,1,8,0:0:0:0:
228,63,118062,2,0,P|233:121|234:196,1,109.650001673126,0|8,1:0|0:0,0:0:0:0:
339,251,118414,2,0,P|311:251|279:256,1,54.8250008365631,0|0,1:0|0:0,0:0:0:0:
193,350,118648,1,8,0:0:0:0:
193,350,118766,2,0,P|188:292|186:218,1,109.650001673126,0|0,1:0|1:0,0:0:0:0:
406,215,119117,1,8,0:0:0:0:
485,31,119352,5,4,1:2:0:0:
291,128,119590,1,0,1:0:0:0:
123,57,119828,2,0,L|56:66,1,55.6750010194397,8|0,0:0|0:0,0:0:0:0:
38,148,120066,1,2,0:3:0:0:
27,134,120185,2,0,P|28:166|25:214,1,55.6750010194397,8|0,0:0|1:0,0:0:0:0:
78,300,120423,1,0,1:0:0:0:
89,314,120542,1,8,0:0:0:0:
91,286,120661,1,8,1:2:0:0:
88,258,120780,1,4,1:3:0:0:
89,230,120899,1,8,1:3:0:0:
89,230,121018,2,0,L|168:236,1,55.6750010194397,0|0,1:0|1:0,0:0:0:0:
272,149,121256,6,0,P|271:80|265:23,1,111.350002038879,4|0,1:0|1:0,0:0:0:0:
480,106,121732,1,8,0:0:0:0:
480,106,121852,2,0,P|422:117|361:117,1,111.350002038879,0|8,1:0|0:0,0:0:0:0:
251,172,122209,6,0,P|245:208|245:252,2,55.6750010194397,0|0|8,1:0|1:0|0:0,0:0:0:0:
52,223,122566,2,0,P|117:238|184:236,1,111.350002038879,0|0,1:0|1:0,0:0:0:0:
272,149,122923,1,8,0:0:0:0:
63,314,123161,2,0,P|38:311|8:302,1,55.6750010194397,4|2,1:2|0:0,0:0:0:0:
193,240,123399,2,0,P|211:280|216:361,1,111.350002038879,0|8,1:0|0:0,0:0:0:0:
139,333,123756,2,0,P|106:317|73:315,1,55.6750010194397,0|2,1:0|0:3,0:0:0:0:
292,312,123994,6,0,P|346:323|395:299,1,111.350002038879,8|0,0:0|1:0,0:0:0:0:
445,234,124352,1,2,0:3:0:0:
179,162,124590,1,8,0:0:0:0:
383,345,124828,1,12,1:2:0:0:
179,162,125066,6,0,L|241:178,1,54.8250008365631,4|2,1:2|0:0,0:0:0:0:
323,125,125300,1,0,1:0:0:0:
347,113,125417,2,0,L|379:56,1,54.8250008365631,0|8,0:0|0:0,0:0:0:0:
512,182,125651,1,0,0:0:0:0:
494,161,125769,2,0,L|432:143,1,54.8250008365631,2|8,0:3|0:0,0:0:0:0:
281,201,126003,2,0,L|243:253,1,54.8250008365631,0|8,1:0|0:0,0:0:0:0:
139,283,126237,1,2,0:3:0:0:
104,285,126355,2,0,L|210:342,1,109.650001673126,0|0,1:0|0:0,0:0:0:0:
348,338,126706,2,0,P|314:295|247:304,1,109.650001673126,8|4,0:0|1:2,0:0:0:0:
389,74,127175,6,0,L|414:184,1,109.650001673126,8|0,0:0|1:0,0:0:0:0:
417,214,127526,1,0,1:0:0:0:
408,238,127644,1,8,0:0:0:0:
398,263,127761,2,0,L|453:252,1,54.8250008365631,2|0,0:3|0:0,0:0:0:0:
336,197,127995,5,2,0:0:0:0:
258,217,128112,1,0,0:0:0:0:
206,279,128230,1,0,0:0:0:0:
129,296,128347,1,2,0:0:0:0:
54,265,128464,5,0,0:0:0:0:
46,244,128581,1,2,0:0:0:0:
40,223,128698,1,0,0:0:0:0:
30,201,128851,6,0,P|69:218|111:214,1,85,0|0,1:0|0:0,0:0:0:0:
81,137,129205,1,0,1:0:0:0:
81,137,129323,2,0,P|122:132|155:105,1,85,0|0,0:0|1:0,0:0:0:0:
173,109,129677,2,0,L|180:67,1,42.5
419,55,129913,6,0,L|334:39,1,85,0|0,1:0|0:0,0:0:0:0:
251,8,130268,2,0,P|251:29|255:50,1,42.5,0|0,1:0|0:0,0:0:0:0:
264,64,130504,2,0,L|256:105,1,42.5,0|0,1:0|0:0,0:0:0:0:
187,189,130740,5,0,1:0:0:0:
289,365,130976,1,0,0:0:0:0:
306,368,131095,2,0,B|320:318|321:352|338:290,1,85,0|0,1:0|0:0,0:0:0:0:
370,161,131449,5,0,1:0:0:0:
455,197,131567,2,0,P|432:162|391:151,1,85,0|0,0:0|1:0,0:0:0:0:
294,202,131921,1,0,0:0:0:0:
425,295,132158,6,0,L|482:313,1,42.5,0|0,1:0|0:0,0:0:0:0:
472,298,132394,2,0,L|431:285,1,42.5,0|0,1:0|0:0,0:0:0:0:
342,344,132630,6,0,P|305:365|264:368,1,85,0|0,1:0|0:0,0:0:0:0:
282,287,132984,1,0,1:0:0:0:
282,287,133102,2,0,P|240:283|204:262,1,85,0|0,0:0|1:0,0:0:0:0:
183,277,133457,2,0,L|177:234,2,42.5,0|0|0,0:0|0:0|1:0,0:0:0:0:
73,335,133811,5,0,0:0:0:0:
55,316,133929,2,0,L|60:271,2,42.5,0|0|0,0:0|1:0|0:0,0:0:0:0:
182,276,134284,2,0,L|177:234,1,42.5,0|0,1:0|0:0,0:0:0:0:
39,178,134520,6,0,P|98:178|117:122,1,126.224999614792,0|0,1:0|1:0,0:0:0:0:
116,121,134988,2,0,L|199:134,1,84.1499997431946,0|0,0:0|1:0,0:0:0:0:
286,177,135340,5,0,0:0:0:0:
289,168,135457,2,0,P|292:158|296:148,3,21.0374999357986,8|0|0|0,0:3|0:0|0:0|0:0,0:0:0:0:
367,84,135691,2,0,P|377:87|387:91,3,21.0374999357986,0|0|0|0,1:0|0:0|0:0|0:0,0:0:0:0:
462,130,135926,1,8,0:0:0:0:
512,42,136160,1,0,0:0:0:0:
445,214,136395,5,4,1:0:0:0:
185,226,139207,6,0,P|192:192|197:159,1,68,0|0,1:0|0:0,0:0:0:0:
203,149,139441,6,0,P|153:159|97:160,1,101.149997993546,8|0,0:0|0:0,0:0:0:0:
10,143,139793,2,0,P|16:172|20:201,1,58.6500000894928,0|0,1:0|0:0,0:0:0:0:
86,323,140145,6,0,P|129:314|182:311,1,86.7000005291748,4|0,1:0|0:0,0:0:0:0:
204,233,140507,2,0,P|247:242|300:244,1,86.7000005291748,0|0,1:0|0:0,0:0:0:0:
344,180,140870,1,0,1:0:0:0:
259,327,141112,1,0,0:0:0:0:
259,327,141233,1,0,1:0:0:0:
118,233,141475,1,0,0:0:0:0:
118,233,141596,2,0,P|122:185|117:134,1,86.7000005291748,0|4,1:0|1:2,0:0:0:0:
61,35,141959,1,0,0:0:0:0:
69,54,142080,6,0,P|136:38|189:66,2,123.675002925053,4|0|0,1:2|1:0|1:0,0:0:0:0:
282,36,142996,2,0,L|279:91,1,42.9249991485214,8|0,0:3|0:0,0:0:0:0:
371,64,143234,2,0,L|405:61,3,28.6166660990143,0|8|0|8,1:0|1:3|1:0|0:0,0:0:0:0:
327,339,143710,1,0,1:0:0:0:
343,146,143948,5,8,0:0:0:0:
343,146,144900,5,8,0:0:0:0:
343,146,145852,6,0,L|341:184,1,21.4624995742607,12|0,0:2|0:0,0:0:0:0:
265,111,146328,6,0,L|263:151,1,21.4624995742607,12|0,0:2|0:0,0:0:0:0:
188,74,146805,6,0,L|186:112,1,21.4624995742607,12|0,0:0|0:0,0:0:0:0:
110,37,147043,6,0,L|104:69,2,28.6166660990143,8|0|0,0:0|1:0|1:0,0:0:0:0:
65,7,147281,1,8,0:0:0:0:
48,46,147400,1,0,1:0:0:0:
49,88,147519,1,8,0:3:0:0:
65,126,147638,1,4,0:3:0:0:
22,157,147757,6,0,P|92:159|208:157,1,177.225005408478,4|0,1:0|1:0,0:0:0:0:
177,184,148225,2,0,P|205:180|246:184,1,59.075001802826,8|0,0:0|0:0,0:0:0:0:
324,133,148460,1,0,1:0:0:0:
345,101,148577,2,0,P|345:177|352:248,1,118.150003605652,0|0,0:0|1:0,0:0:0:0:
358,295,148928,1,2,0:0:0:0:
456,3,149163,2,0,P|462:83|462:208,1,177.225005408478,8|0,0:0|0:0,0:0:0:0:
467,216,149632,6,0,P|441:215|344:220,1,118.150003605652,0|2,1:0|0:0,0:0:0:0:
277,242,149983,1,0,1:0:0:0:
186,221,150100,2,0,P|157:218|106:220,1,59.075001802826,8|0,0:0|0:0,0:0:0:0:
34,239,150335,2,0,P|63:236|114:239,1,59.075001802826,0|0,1:0|0:0,0:0:0:0:
105,140,150569,1,2,0:0:0:0:
72,127,150686,1,0,1:0:0:0:
105,123,150803,1,2,0:3:0:0:
241,16,151038,1,8,0:0:0:0:
249,264,151272,1,2,0:3:0:0:
441,91,151507,6,0,P|442:133|441:172,1,59.4999981842042,4|0,1:2|0:0,0:0:0:0:
384,222,151743,2,0,P|385:264|384:302,1,59.4999981842042,2|0,0:0|1:0,0:0:0:0:
414,353,151979,1,8,0:0:0:0:
298,103,152215,1,0,1:0:0:0:
294,177,152333,2,0,P|294:248|301:311,1,118.999996368408,0|0,0:0|1:0,0:0:0:0:
298,338,152688,1,0,0:0:0:0:
190,43,152924,2,0,P|193:124|191:183,1,118.999996368408,8|0,0:0|0:0,0:0:0:0:
202,233,153278,1,0,0:0:0:0:
188,306,153396,6,0,P|128:306|59:317,1,119.849993873635,0|2,1:0|0:0,0:0:0:0:
74,239,153753,1,0,1:0:0:0:
30,176,153872,2,0,P|31:145|28:110,1,59.4999981842042,8|0,0:0|0:0,0:0:0:0:
84,66,154110,1,0,1:0:0:0:
168,117,154229,1,0,0:0:0:0:
231,75,154348,2,0,L|294:80,1,59.9249969368173,8|0,0:0|0:0,0:0:0:0:
363,57,154586,2,0,L|364:11,2,39.9499979578782,0|0|0,1:0|1:0|1:0,0:0:0:0:
434,88,154824,1,8,0:0:0:0:
431,327,155062,1,4,0:2:0:0:
164,206,155300,6,0,P|262:205|362:193,1,179.774990810452,4|0,1:0|1:0,0:0:0:0:
359,227,155776,2,0,P|330:230|280:246,1,59.9249969368173,8|0,0:0|0:0,0:0:0:0:
440,115,156015,1,0,1:0:0:0:
440,115,156134,2,0,P|363:113|303:97,1,119.849993873635,0|0,0:0|1:0,0:0:0:0:
251,82,156491,1,2,0:0:0:0:
512,275,156729,2,0,P|449:282|325:316,1,179.774990810452,8|0,0:0|0:0,0:0:0:0:
266,342,157205,6,0,P|188:335|135:336,1,118.999996368408,0|2,1:0|0:0,0:0:0:0:
74,335,157559,1,0,1:0:0:0:
79,235,157677,2,0,P|80:199|77:164,1,59.4999981842042,8|0,0:0|0:0,0:0:0:0:
31,58,157913,2,0,P|29:87|30:119,1,59.4999981842042,0|0,1:0|0:0,0:0:0:0:
164,56,158149,1,2,0:0:0:0:
163,21,158267,1,0,1:0:0:0:
148,50,158386,1,2,0:3:0:0:
318,131,158622,1,8,0:0:0:0:
484,64,158858,1,2,0:3:0:0:
232,141,159094,6,0,P|232:175|233:215,1,59.075001802826,4|0,1:2|0:0,0:0:0:0:
293,304,159328,2,0,P|294:273|293:245,1,59.075001802826,2|0,0:0|1:0,0:0:0:0:
351,200,159562,1,8,0:0:0:0:
95,327,159797,1,0,1:0:0:0:
128,258,159914,2,0,P|125:186|127:119,1,118.150003605652,0|0,0:0|1:0,0:0:0:0:
102,81,160265,2,0,P|100:117|100:152,1,59.075001802826,0|2,0:0|0:0,0:0:0:0:
163,263,160500,2,0,P|165:299|164:334,1,59.075001802826,8|0,0:0|0:0,0:0:0:0:
330,378,160734,2,0,L|256:383,1,59.4999981842042,2|0,0:0|0:0,0:0:0:0:
442,281,160969,6,0,P|361:293|300:294,1,118.150003605652,4|2,1:2|0:0,0:0:0:0:
268,242,161320,1,0,1:0:0:0:
319,182,161437,2,0,P|349:182|385:186,1,59.075001802826,8|0,0:0|0:0,0:0:0:0:
498,133,161672,2,0,P|468:133|439:136,1,59.075001802826,0|0,1:0|0:0,0:0:0:0:
269,72,161906,1,8,0:0:0:0:
304,31,162023,1,0,1:0:0:0:
357,34,162140,1,0,1:0:0:0:
397,71,162258,1,0,1:0:0:0:
244,157,162375,1,0,1:0:0:0:
196,213,162492,1,8,1:3:0:0:
123,225,162609,1,4,1:3:0:0:
57,182,162726,1,8,0:0:0:0:
257,58,162844,6,0,P|264:156|274:241,1,178.499994552612,4|0,1:0|1:0,0:0:0:0:
273,235,163316,2,0,L|355:224,1,59.4999981842042,8|0,0:0|0:0,0:0:0:0:
481,353,163552,2,0,P|474:263|464:176,1,178.499994552612,0|8,1:2|0:2,0:0:0:0:
460,140,164025,1,2,0:0:0:0:
240,153,164261,1,8,0:0:0:0:
274,334,164497,1,2,0:3:0:0:
281,26,164733,6,0,P|274:124|264:210,1,178.499994552612,0|0,1:0|1:0,0:0:0:0:
269,208,165206,2,0,L|188:197,1,59.4999981842042,8|0,0:0|0:0,0:0:0:0:
57,321,165442,2,0,P|63:231|73:143,1,178.499994552612,0|8,1:0|0:2,0:0:0:0:
82,91,165914,1,0,0:0:0:0:
105,164,166032,1,2,1:2:0:0:
92,242,166151,2,0,P|88:276|88:303,1,59.4999981842042,8|0,0:0|0:0,0:0:0:0:
162,317,166387,1,2,0:3:0:0:
162,317,166505,1,0,0:0:0:0:
240,364,166623,6,0,P|239:334|236:304,1,59.4999981842042,4|0,1:2|0:0,0:0:0:0:
276,237,166859,1,2,0:0:0:0:
233,173,166977,1,0,1:0:0:0:
253,102,167095,2,0,P|319:100|383:88,1,118.999996368408,8|0,0:0|1:0,0:0:0:0:
428,138,167450,1,0,0:0:0:0:
496,171,167568,2,0,P|495:211|499:242,1,59.4999981842042,8|0,0:0|1:0,0:0:0:0:
369,198,167804,2,0,P|368:238|372:269,1,59.4999981842042,0|0,0:0|1:0,0:0:0:0:
231,187,168040,2,0,P|230:227|234:258,1,59.4999981842042,8|0,0:0|0:0,0:0:0:0:
142,40,168277,5,12,1:2:0:0:
142,40,168749,1,12,0:0:0:0:
133,119,168985,1,2,0:0:0:0:
140,198,169221,1,4,0:3:0:0:
139,276,169458,1,2,0:0:0:0:
139,276,169694,1,12,0:0:0:0:
136,353,169930,6,0,P|136:331|131:277,1,63.75,2|0,0:0|0:0,0:0:0:0:
51,318,170403,5,4,1:0:0:0:
33,75,170641,1,2,0:0:0:0:
32,101,170760,2,0,L|26:194,1,85.8499982970429
55,193,171117,2,0,P|99:200|146:196,1,85.8499982970429,2|0,0:0|0:0,0:0:0:0:
293,269,171474,2,0,P|249:262|201:266,1,85.8499982970429
179,272,171831,1,0,0:0:0:0:
302,240,171950,2,0,P|304:171|287:108,1,128.774997445564,4|4,1:2|1:0,0:0:0:0:
34,283,172554,5,2,0:0:0:0:
61,286,172678,2,0,P|106:286|149:277,1,89.2499972763062
179,272,173050,2,0,P|190:323|193:362,1,85.8499982970429,2|0,0:0|0:0,0:0:0:0:
114,189,173407,2,0,P|67:195|27:196,1,85.8499982970429
0,189,173764,1,0,0:0:0:0:
141,178,173883,2,0,P|211:166|280:171,1,128.774997445564,4|4,1:2|1:0,0:0:0:0:
409,315,174470,5,2,0:0:0:0:
380,321,174586,2,0,P|336:331|292:331,1,83.2999992373657
268,325,174932,1,2,0:0:0:0:
268,325,175163,1,4,1:2:0:0:
185,278,175278,1,0,0:0:0:0:
32,186,175509,1,0,0:0:0:0:
119,149,175624,1,0,0:0:0:0:
186,45,175855,1,2,0:0:0:0:
60,263,176086,6,0,P|42:228|31:176,1,83.2999992373657,4|0,1:2|0:0,0:0:0:0:
385,248,176551,2,0,P|429:243|470:224,1,83.2999992373657,4|0,1:2|0:0,0:0:0:0:
464,227,177016,1,8,0:0:0:0:
405,159,177132,2,0,L|376:127,1,41.6499996186829,0|0,1:0|0:0,0:0:0:0:
318,175,177365,1,8,0:0:0:0:
437,79,177481,2,0,L|451:35,2,41.6499996186829,0|0|8,1:0|1:0|0:0,0:0:0:0:
377,2,177946,5,2,0:0:0:0:
450,298,185524,5,4,1:0:0:0:
409,332,185642,1,0,0:0:0:0:
357,344,185760,1,2,0:0:0:0:
314,296,185878,5,0,1:0:0:0:
271,300,185996,1,0,0:0:0:0:
229,289,186114,1,0,0:0:0:0:
213,238,186232,5,0,1:0:0:0:
184,224,186350,1,0,0:0:0:0:
162,200,186468,1,0,0:0:0:0:
169,158,186586,5,0,1:0:0:0:
163,137,186705,1,2,0:0:0:0:
162,115,186823,1,0,0:0:0:0:
189,99,186941,6,0,P|192:81|201:55,1,42.5,0|0,1:0|0:0,0:0:0:0:
296,186,187177,2,0,P|293:204|284:230,1,42.5,0|0,1:0|0:0,0:0:0:0:
150,294,187413,5,0,1:0:0:0:
116,268,187528,1,0,0:0:0:0:
73,262,187643,1,2,0:0:0:0:
105,220,187759,5,0,1:0:0:0:
88,192,187874,1,0,0:0:0:0:
61,175,187989,1,0,0:0:0:0:
92,146,188105,5,0,1:0:0:0:
89,124,188220,1,0,0:0:0:0:
81,104,188336,1,0,0:0:0:0:
112,98,188451,5,0,1:0:0:0:
117,89,188566,1,2,0:0:0:0:
120,78,188682,1,0,0:0:0:0:
140,84,188797,6,0,P|157:73|178:52,1,41.6499996186829,0|0,1:0|0:0,0:0:0:0:
312,51,189028,2,0,P|295:62|273:82,1,41.6499996186829,0|0,1:0|0:0,0:0:0:0:
216,184,189259,5,0,1:0:0:0:
213,215,189380,1,0,0:0:0:0:
220,245,189502,1,2,0:0:0:0:
204,284,189624,5,0,1:0:0:0:
223,292,189746,1,0,0:0:0:0:
243,295,189868,1,0,0:0:0:0:
258,323,189990,5,0,1:0:0:0:
266,316,190112,1,0,0:0:0:0:
272,307,190234,1,0,0:0:0:0:
293,308,190351,5,0,1:0:0:0:
297,307,190468,1,2,0:0:0:0:
301,306,190585,1,0,0:0:0:0:
309,312,190702,6,0,P|335:308|363:309,1,42.0749998715973,0|0,1:0|0:0,0:0:0:0:
454,264,190937,2,0,P|432:249|406:238,1,42.0749998715973,0|0,1:0|0:0,0:0:0:0:
324,92,191171,2,0,P|320:152|330:220,1,126.224999614792,0|0,1:0|1:0,0:0:0:0:
329,217,191639,1,2,0:0:0:0:
223,209,191874,1,0,1:0:0:0:
223,209,191991,1,2,0:0:0:0:
122,198,192225,1,0,1:0:0:0:
19,188,192460,1,2,0:0:0:0:
19,188,192577,2,0,P|31:229|37:272,1,84.1499997431946,4|0,1:2|0:0,0:0:0:0:
54,60,193046,5,4,1:0:0:0:
85,105,193167,1,0,0:0:0:0:
137,121,193289,1,2,0:0:0:0:
191,110,193411,1,0,1:0:0:0:
181,132,193533,5,0,0:0:0:0:
201,126,193655,1,0,0:0:0:0:
221,130,193777,1,0,1:0:0:0:
238,142,193899,1,0,0:0:0:0:
256,120,194021,5,0,0:0:0:0:
295,158,194138,1,0,1:0:0:0:
350,164,194255,1,2,0:0:0:0:
402,148,194372,1,0,0:0:0:0:
359,183,194489,1,4,1:2:0:0:
303,184,194606,1,0,0:0:0:0:
303,184,194724,6,0,L|296:228,1,42.0749998715973,4|0,1:2|0:0,0:0:0:0:
488,227,194958,5,4,1:0:0:0:
457,272,195075,1,0,0:0:0:0:
405,288,195192,1,2,0:0:0:0:
351,277,195309,1,0,1:0:0:0:
361,299,195426,5,0,0:0:0:0:
341,293,195543,1,0,0:0:0:0:
321,297,195661,1,4,1:2:0:0:
304,309,195778,1,0,0:0:0:0:
286,287,195895,5,0,0:0:0:0:
247,325,196012,1,0,1:0:0:0:
192,331,196129,1,2,0:0:0:0:
140,315,196247,1,0,0:0:0:0:
187,349,196364,6,0,P|290:350|334:234,1,224.399999315186,4|0,1:2|0:0,0:0:0:0:
345,239,196754,1,0,0:0:0:0:
336,230,196833,6,0,P|306:239|267:236,1,57.2333321980286,0|0,1:0|0:0,0:0:0:0:
209,232,196991,2,0,P|178:224|146:203,1,57.2333321980286,0|0,1:0|0:0,0:0:0:0:
98,166,197150,2,0,P|75:144|58:110,1,57.2333321980286,0|0,1:0|0:0,0:0:0:0:
40,52,197309,1,8,0:0:0:0:
174,251,197626,1,0,0:0:0:0:
167,239,197706,1,0,0:0:0:0:
176,230,197785,6,0,P|206:239|244:236,1,58.9333329736328,0|0,1:0|0:0,0:0:0:0:
303,232,197948,2,0,P|333:224|365:201,1,58.9333329736328,0|0,1:0|0:0,0:0:0:0:
414,166,198112,2,0,P|436:144|451:109,1,58.9333329736328,0|0,1:0|0:0,0:0:0:0:
472,52,198276,1,8,0:0:0:0:
338,251,198604,1,0,0:0:0:0:
345,239,198686,1,0,0:0:0:0:
336,230,198768,6,0,P|306:239|267:236,1,58.0833342196147,0|0,1:0|0:0,0:0:0:0:
470,229,198929,2,0,P|443:245|404:253,1,58.0833342196147,0|0,1:0|0:0,0:0:0:0:
505,162,199090,1,0,1:0:0:0:
177,300,199251,6,0,P|207:309|245:306,1,58.0833342196147,0|0,1:0|0:0,0:0:0:0:
43,299,199413,2,0,P|69:315|107:322,1,58.0833342196147,0|0,1:0|0:0,0:0:0:0:
8,232,199574,1,8,0:0:0:0:
252,33,199735,5,4,1:0:0:0:
252,33,200219,6,0,P|255:80|252:131,1,98.1749980525589,2|0,0:0|0:0,0:0:0:0:
253,158,200683,6,0,P|246:271|265:383,1,175.950000268478,4|0,1:0|1:0,0:0:0:0:
339,325,201148,2,0,P|344:353|352:387,1,58.6500000894928,8|0,0:0|0:0,0:0:0:0:
512,217,201380,2,0,P|448:231|362:223,1,117.300000178986,0|2,1:0|0:0,0:0:0:0:
313,214,201729,1,0,1:0:0:0:
76,212,201962,1,2,0:0:0:0:
76,212,202078,2,0,B|132:241|209:222|209:222|185:207|178:176,1,175.950000268478,8|0,0:0|0:0,0:0:0:0:
11,154,202543,6,0,P|-9:216|8:269,1,117.300000178986,0|2,1:0|0:0,0:0:0:0:
64,323,202892,1,0,1:0:0:0:
223,293,203008,2,0,P|215:249|200:215,1,58.6500000894928,8|0,0:0|0:0,0:0:0:0:
138,278,203241,2,0,P|141:307|156:354,1,58.6500000894928,0|0,1:0|0:0,0:0:0:0:
278,370,203473,1,2,0:0:0:0:
278,370,203589,2,0,P|314:328|320:259,1,117.300000178986,0|2,1:0|0:0,0:0:0:0:
303,184,203938,1,8,0:0:0:0:
91,61,204171,2,0,P|125:72|156:79,1,58.6500000894928,2|0,0:3|0:0,0:0:0:0:
324,189,204403,6,0,P|385:206|477:225,1,119.849993873635,4|2,1:2|0:0,0:0:0:0:
370,110,204760,1,0,1:0:0:0:
223,192,204879,2,0,P|174:183|96:156,1,119.849993873635,8|0,0:0|1:0,0:0:0:0:
30,198,205236,1,0,0:0:0:0:
30,198,205355,2,0,L|9:142,1,59.9249969368173,2|0,0:0|1:0,0:0:0:0:
344,289,205712,1,2,0:0:0:0:
371,276,205831,1,8,0:0:0:0:
94,286,206069,2,0,P|152:311|233:332,1,119.849993873635,0|0,0:0|1:0,0:0:0:0:
245,333,206435,5,0,0:0:0:0:
245,333,206553,2,0,L|264:259,1,59.4999981842042,2|0,0:0|1:0,0:0:0:0:
166,164,206789,2,0,P|174:195|182:221,1,59.4999981842042,8|0,0:0|0:0,0:0:0:0:
389,341,207025,2,0,P|358:330|316:320,1,59.4999981842042,0|0,1:0|0:0,0:0:0:0:
270,248,207261,2,0,P|276:218|284:187,1,59.4999981842042,2|0,0:0|1:0,0:0:0:0:
232,102,207498,2,0,L|224:62,2,39.6666654561361,0|0|0,1:0|1:0|1:0,0:0:0:0:
166,164,207734,1,8,0:0:0:0:
429,95,207970,1,4,0:0:0:0:
166,164,208206,6,0,P|234:207|328:200,1,178.499994552612,4|0,1:0|1:0,0:0:0:0:
424,229,208679,2,0,P|462:219|490:208,1,59.4999981842042,8|0,0:0|0:0,0:0:0:0:
333,227,208915,2,0,P|352:304|363:354,1,118.999996368408,0|2,1:0|0:0,0:0:0:0:
281,369,209269,1,0,1:0:0:0:
484,127,209505,1,2,0:0:0:0:
484,127,209624,2,0,P|420:146|359:143,1,118.999996368408,8|0,0:0|0:0,0:0:0:0:
502,383,210096,6,0,P|513:325|498:249,1,118.999996368408,0|2,1:0|0:0,0:0:0:0:
424,229,210450,1,0,1:0:0:0:
500,183,210568,2,0,P|488:150|483:118,1,59.4999981842042,8|0,0:0|0:0,0:0:0:0:
291,228,210805,2,0,P|326:274|381:298,1,118.999996368408,0|2,1:0|0:0,0:0:0:0:
330,44,211159,2,0,P|290:86|277:145,1,118.999996368408,0|2,1:0|0:0,0:0:0:0:
463,297,211513,2,0,P|507:244|508:180,1,118.999996368408,8|2,0:0|0:3,0:0:0:0:
449,116,211868,5,0,0:0:0:0:
449,116,211986,1,4,1:2:0:0:
178,200,212222,1,2,0:0:0:0:
376,305,212458,2,0,P|319:339|247:331,1,118.999996368408,8|0,0:0|1:0,0:0:0:0:
0,125,212931,1,2,0:0:0:0:
0,125,213049,2,0,P|65:116|124:149,1,118.999996368408,0|2,1:0|0:0,0:0:0:0:
178,200,213403,1,8,0:0:0:0:
455,249,213639,1,0,0:0:0:0:
247,382,213876,6,0,P|221:318|228:259,1,118.999996368408,4|2,1:2|0:0,0:0:0:0:
285,206,214230,1,0,1:0:0:0:
371,226,214348,2,0,P|412:241|442:246,1,59.4999981842042,8|0,0:0|0:0,0:0:0:0:
358,75,214584,2,0,L|343:152,1,59.4999981842042,0|0,1:0|0:0,0:0:0:0:
245,288,214820,5,8,1:2:0:0:
155,282,214939,1,0,1:0:0:0:
78,231,215057,1,0,1:0:0:0:
53,146,215175,1,0,1:0:0:0:
256,40,215293,1,0,1:0:0:0:
224,125,215411,1,8,1:3:0:0:
142,160,215529,1,4,1:3:0:0:
53,146,215647,1,8,0:0:0:0:
276,38,215765,6,0,B|301:25|320:0|320:0|370:-2|402:31|402:31|381:51,1,179.774990810452,4|0,1:0|1:0,0:0:0:0:
358,75,216241,2,0,L|343:152,1,59.4999981842042,8|0,0:0|0:0,0:0:0:0:
62,44,216479,2,0,B|136:62|97:38|180:62,1,119.849993873635,0|2,1:0|0:0,0:0:0:0:
224,125,216836,1,0,1:0:0:0:
388,264,217074,1,2,0:0:0:0:
289,323,217193,2,0,B|311:245|311:245|304:231|304:231|325:150,1,179.774990810452,8|0,0:0|0:0,0:0:0:0:
358,75,217669,5,4,1:2:0:0:
466,299,217905,2,0,L|407:286,1,59.4999981842042,2|0,0:0|1:0,0:0:0:0:
388,264,218141,2,0,P|383:293|373:321,1,59.4999981842042,8|0,0:0|0:0,0:0:0:0:
203,305,218377,2,0,P|208:334|218:361,1,59.4999981842042,0|0,1:0|0:0,0:0:0:0:
108,262,218613,5,2,0:0:0:0:
0,313,218731,2,0,B|74:288|45:311|115:286,1,118.999996368408,0|2,1:0|0:0,0:0:0:0:
103,171,219086,2,0,B|132:178|164:167|164:167|167:201|184:220,1,118.999996368408,8|2,0:0|0:3,0:0:0:0:
469,111,219558,6,0,B|414:96|414:96|409:90|409:90|358:75,1,118.999996368408,4|2,1:2|0:0,0:0:0:0:
301,19,219913,1,0,1:0:0:0:
370,62,220031,1,8,0:0:0:0:
160,267,220267,2,0,P|218:251|277:243,1,118.999996368408,0|2,1:0|0:0,0:0:0:0:
331,157,220621,2,0,P|316:214|297:271,1,118.999996368408,0|0,1:0|1:0,0:0:0:0:
278,279,220976,1,8,0:0:0:0:
164,46,221212,5,2,0:3:0:0:
239,74,221330,1,0,3:0:0:0:
239,74,221448,2,0,B|166:103|199:70|125:99,1,118.150003605652,4|2,1:2|0:0,0:0:0:0:
74,167,221799,1,0,1:0:0:0:
4,182,221916,2,0,P|32:191|60:199,1,59.075001802826,8|0,0:0|0:0,0:0:0:0:
142,323,222151,2,0,P|151:294|159:266,1,59.075001802826,0|0,1:0|0:0,0:0:0:0:
222,202,222385,5,2,0:0:0:0:
222,202,222502,1,8,0:0:0:0:
222,202,222619,2,0,L|216:143,2,39.3833345352173,4|4|8,1:3|1:2|1:3,0:0:0:0:
278,279,222854,1,8,0:0:0:0:
54,363,223088,1,4,0:0:0:0:
417,189,223323,6,0,L|444:380,1,178.499994552612,4|0,1:0|1:0,0:0:0:0:
472,323,223795,2,0,P|471:352|459:379,1,59.4999981842042,8|0,0:0|0:0,0:0:0:0:
334,213,224031,2,0,B|312:177|316:130|316:130|329:142|344:145,1,118.999996368408,0|0,1:0|1:0,0:0:0:0:
499,214,224385,1,8,0:0:0:0:
399,272,224622,1,2,1:2:0:0:
399,272,224740,1,8,0:0:0:0:
281,364,224976,2,0,P|251:363|224:351,1,59.4999981842042
217,336,225212,6,0,B|160:354|160:354|154:352|154:352|102:367,1,118.999996368408,4|2,1:2|0:0,0:0:0:0:
4,282,225567,1,0,1:0:0:0:
74,167,225685,2,0,P|78:137|82:108,1,59.4999981842042,8|0,0:0|0:0,0:0:0:0:
51,33,225921,2,0,P|55:62|58:91,1,59.4999981842042,0|0,1:0|0:0,0:0:0:0:
175,139,226157,1,0,1:0:0:0:
248,90,226275,2,0,L|366:80,1,118.999996368408,8|2,0:0|1:2,0:0:0:0:
484,64,226630,2,0,L|366:54,1,118.999996368408,8|2,0:0|0:3,0:0:0:0:
361,39,227102,6,0,B|349:109|370:87|352:158,1,118.999996368408,4|2,1:2|0:0,0:0:0:0:
275,273,227456,1,0,1:0:0:0:
305,209,227574,1,8,1:2:0:0:
341,193,227693,1,0,1:0:0:0:
368,195,227811,1,0,1:0:0:0:
385,204,227929,1,0,1:0:0:0:
401,231,228046,6,0,L|322:245,1,55.2499974708558,0|0,1:0|1:0,0:0:0:0:
275,273,228273,2,0,L|201:286,1,55.2499974708558,0|0,1:0|1:0,0:0:0:0:
137,320,228500,2,0,L|83:329,1,55.2499974708558,8|0,0:0|0:0,0:0:0:0:
10,375,228727,5,12,0:0:0:0:
222,203,229193,1,12,0:0:0:0:
286,26,229669,1,12,0:0:0:0:
210,2,229907,6,0,P|207:40|222:75,1,77.3500025965882,4|0,0:2|0:0,0:0:0:0:
232,86,230205,2,0,L|253:99,2,19.3375006491471
294,161,230383,2,0,P|321:147|351:141,1,60.349996961136,2|0,0:0|0:0,0:0:0:0:
409,89,230859,5,2,0:0:0:0:
284,231,231803,5,2,0:0:0:0:
200,115,232748,5,2,0:0:0:0:
114,113,233228,1,0,0:0:0:0:
62,180,233708,5,2,0:0:0:0:
128,233,234188,1,0,0:0:0:0:
96,361,234668,5,2,0:0:0:0:
272,291,235612,5,2,0:0:0:0:
237,211,236085,1,0,0:0:0:0:
284,89,236557,5,2,0:0:0:0:
311,169,236793,1,0,0:0:0:0:
237,211,237030,1,0,0:0:0:0:
172,158,237266,1,0,0:0:0:0:
150,156,237384,1,2,0:0:0:0:
85,216,237620,1,0,0:0:0:0:
63,218,237738,1,2,0:0:0:0:
21,134,237975,1,0,0:0:0:0:
63,218,238211,1,2,0:0:0:0:
55,52,238447,6,0,L|130:37,1,63.7500024318696,0|0,1:0|0:0,0:0:0:0:
117,39,238801,1,2,0:0:0:0:
125,46,238919,2,0,L|187:56,1,63.7500024318696,0|0,1:0|0:0,0:0:0:0:
188,57,239274,1,2,0:0:0:0:
195,65,239392,2,0,L|273:51,1,63.7500024318696,0|0,1:0|0:0,0:0:0:0:
334,37,239864,1,0,1:0:0:0:
334,37,239982,1,2,0:0:0:0:
475,189,240219,5,2,0:0:0:0:
475,189,240337,2,0,P|477:246|478:280,1,63.7500024318696,0|0,1:0|0:0,0:0:0:0:
477,252,240691,1,2,0:0:0:0:
477,252,240809,1,0,1:0:0:0:
381,230,241045,1,0,0:0:0:0:
347,240,241164,1,2,0:0:0:0:
312,232,241282,1,0,1:0:0:0:
278,220,241400,1,2,0:0:0:0:
243,226,241518,1,0,0:0:0:0:
170,258,241754,1,0,1:0:0:0:
148,265,241872,1,0,0:0:0:0:
67,258,242108,1,2,0:0:0:0:
49,245,242227,6,0,P|48:206|46:172,1,63.7500024318696,0|0,1:0|0:0,0:0:0:0:
54,146,242581,1,2,0:0:0:0:
45,112,242699,1,0,1:0:0:0:
110,61,242935,1,0,0:0:0:0:
139,79,243053,1,2,0:0:0:0:
173,85,243171,1,0,1:0:0:0:
207,78,243290,1,2,0:0:0:0:
240,66,243408,1,0,0:0:0:0:
274,63,243526,1,2,0:0:0:0:
308,69,243644,5,0,1:0:0:0:
318,336,243880,1,8,0:0:0:0:
318,336,244353,5,12,0:0:0:0:
317,264,244589,1,0,1:0:0:0:
182,174,244825,1,4,0:3:0:0:
183,246,245061,1,0,1:0:0:0:
307,106,245297,1,8,0:0:0:0:
141,27,245534,6,0,B|142:66|142:97,1,63.7500024318696,2|0,0:0|0:0,0:0:0:0:
24,287,246006,5,4,1:0:0:0:
282,191,246242,2,0,P|235:164|166:184,1,110.499994941712,0|8,1:0|0:0,1:0:0:0:
98,204,246597,1,0,0:0:0:0:
355,343,246833,1,8,0:0:0:0:
329,355,246951,2,0,P|295:365|200:360,1,110.499994941712,0|8,1:0|0:0,0:0:0:0:
129,315,247305,2,0,P|73:292|11:288,1,110.499994941712,0|0,1:0|1:0,0:0:0:0:
165,104,247660,2,0,P|190:168|192:212,1,110.499994941712,8|4,0:0|1:2,0:0:0:0:
13,333,248130,5,0,1:0:0:0:
14,310,248247,2,0,P|20:273|28:256,1,54.8250008365631,0|8,0:0|0:0,0:0:0:0:
207,231,248481,2,0,P|174:226|147:218,1,54.8250008365631,0|2,0:0|0:3,0:0:0:0:
252,39,248716,2,0,P|207:82|140:111,1,109.650001673126,8|8,0:0|0:0,0:0:0:0:
79,119,249067,1,2,0:3:0:0:
142,310,249302,1,8,0:0:0:0:
338,243,249536,2,0,P|390:252|455:261,1,109.650001673126,12|4,0:0|1:0,0:0:0:0:
482,185,249888,5,0,0:0:0:0:
455,182,250005,2,0,P|428:180|392:175,1,54.8250008365631,0|0,1:0|0:0,0:0:0:0:
306,312,250239,1,8,0:0:0:0:
332,319,250356,2,0,P|359:321|393:329,1,54.8250008365631,0|2,0:0|0:3,0:0:0:0:
227,252,250591,1,8,0:0:0:0:
142,310,250708,2,0,P|83:315|21:291,1,109.650001673126,0|8,1:0|0:0,0:0:0:0:
206,381,251060,2,0,P|229:333|221:253,1,109.650001673126,0|0,1:0|1:0,0:0:0:0:
139,218,251411,1,8,0:0:0:0:
332,319,251646,6,0,P|329:291|319:265,1,54.8250008365631,4|0,1:2|0:0,0:0:0:0:
249,143,251880,2,0,L|225:256,1,109.650001673126,0|8,1:0|0:0,0:0:0:0:
139,218,252231,1,0,1:0:0:0:
475,255,252466,1,8,0:0:0:0:
355,352,252700,5,0,0:0:0:0:
355,352,252817,2,0,L|341:298,1,54.8250008365631,0|8,1:0|0:0,0:0:0:0:
318,71,253052,1,0,1:0:0:0:
337,117,253169,1,0,1:0:0:0:
337,166,253286,1,8,0:0:0:0:
318,211,253403,1,0,1:0:0:0:
271,228,253521,5,4,1:0:0:0:
428,90,253761,2,0,P|372:82|318:71,1,112.199999657593,0|8,0:0|0:0,0:0:0:0:
249,143,254121,2,0,P|194:150|138:163,1,112.199999657593
117,146,254481,1,0,1:0:0:0:
224,38,254721,1,2,0:0:0:0:
224,38,254841,1,0,1:0:0:0:
224,38,254961,2,0,L|112:17,1,112.199999657593,8|0,0:0|1:0,0:0:0:0:
10,236,255441,5,0,1:0:0:0:
336,135,255675,2,0,L|358:255,1,109.650001673126,0|8,0:0|0:0,0:0:0:0:
426,317,256026,1,0,0:0:0:0:
187,204,256261,2,0,L|166:312,1,109.650001673126,2|0,0:0|0:0,0:0:0:0:
99,371,256612,1,2,0:0:0:0:
491,250,256847,2,0,P|464:244|438:234,1,54.8250008365631,8|0,0:0|0:0,0:0:0:0:
355,352,257081,2,0,P|328:357|302:367,1,54.8250008365631,0|0,1:0|0:0,0:0:0:0:
251,303,257316,5,0,1:0:0:0:
318,71,257554,1,0,0:0:0:0:
10,236,257792,1,8,0:0:0:0:
10,236,257911,2,0,B|59:246|59:246|64:251|64:251|117:263,1,111.350002038879
136,260,258268,1,0,1:0:0:0:
496,146,258506,2,0,L|442:160,1,55.6750010194397,2|0,0:0|1:0,0:0:0:0:
425,157,258744,1,8,0:0:0:0:
274,35,258982,1,0,1:0:0:0:
281,156,259220,6,0,P|294:102|301:45,1,111.350002038879,0|2,1:0|0:3,0:0:0:0:
167,0,259696,1,8,0:0:0:0:
145,82,259816,2,0,P|139:54|136:27,1,55.6750010194397,0|4,0:0|1:2,0:0:0:0:
164,109,260054,6,0,P|110:95|54:88,1,111.350002038879,0|8,1:0|0:0,0:0:0:0:
32,56,260411,2,0,P|28:83|22:111,1,55.6750010194397,0|0,1:0|0:0,0:0:0:0:
113,299,260649,5,0,1:0:0:0:
111,288,260768,1,0,1:0:0:0:
110,277,260887,1,0,1:0:0:0:
108,266,261006,1,0,1:0:0:0:
106,255,261125,1,4,1:2:0:0:
106,255,261363,6,0,P|173:232|219:261,1,129.199998422852,4|0,1:0|0:0,0:0:0:0:
218,260,261720,6,0,P|213:230|215:192,1,64.5999992114258,4|0,1:2|0:0,0:0:0:0:
80,102,262077,6,0,P|155:98|211:101,1,129.199998422852,4|0,1:0|0:0,0:0:0:0:
404,164,262435,2,0,P|338:177|287:140,1,129.199998422852,8|0,0:0|0:0,0:0:0:0:
362,21,262792,2,0,P|360:62|363:95,1,64.5999992114258,8|0,0:0|0:0,0:0:0:0:
454,278,263030,6,0,L|340:273,1,109.650001673126,4|8,1:2|0:0,0:0:0:0:
265,309,263381,1,0,1:0:0:0:
265,309,263498,2,0,L|262:266,1,42.0749998715973,0|12,1:0|1:2,0:0:0:0:
308,151,263733,2,0,L|310:194,1,42.0749998715973,0|8,1:0|0:0,0:0:0:0:
167,372,263967,5,0,1:0:0:0:
164,329,264084,1,8,1:3:0:0:
162,286,264201,1,8,0:0:0:0:
160,243,264319,1,4,1:3:0:0:
158,200,264436,1,8,1:2:0:0:
12,236,264670,1,4,1:2:0:0:
79,22,264905,6,0,L|82:132,1,84.1499997431946,4|0,1:2|0:0,0:0:0:0:
273,112,265139,1,4,1:0:0:0:
273,112,265373,1,0,1:0:0:0:
267,187,265490,1,8,0:0:0:0:
12,236,265725,5,8,0:0:0:0:
72,280,265842,2,0,P|116:288|159:274,1,84.1499997431946,4|0,1:0|0:0,0:0:0:0:
6,250,266076,5,8,0:0:0:0:
72,303,266194,2,0,B|154:299|153:359|235:355,1,168.299999486389,4|0,1:0|0:0,0:0:0:0:
253,123,266545,6,0,L|251:95,1,21.25,4|0,1:2|0:0,0:0:0:0:
455,85,266780,6,0,L|340:93,1,84.1499997431946,0|0,1:0|0:0,0:0:0:0:
377,273,267014,1,4,1:2:0:0:
377,273,267248,1,0,1:0:0:0:
453,266,267365,1,8,0:0:0:0:
478,196,267483,1,0,1:0:0:0:
482,282,267600,2,0,P|487:314|516:363,1,84.1499997431946,0|4,1:0|1:0,0:0:0:0:
325,215,267834,5,0,1:0:0:0:
271,262,267951,2,0,P|266:294|239:343,1,84.1499997431946,8|0,0:0|1:0,0:0:0:0:
33,334,268186,6,0,L|142:319,1,84.1499997431946,8|0,0:0|1:0,0:0:0:0:
28,161,268420,6,0,L|63:167,1,28.3333333333333,0|0,1:0|0:0,0:0:0:0:
85,171,268655,6,0,L|96:234,1,55.6750010194397,4|0,1:0|0:0,0:0:0:0:
169,198,268893,1,0,0:0:0:0:
229,258,269012,2,0,L|261:207,1,55.6750010194397,4|0,1:0|0:0,0:0:0:0:
311,292,269250,1,0,0:0:0:0:
378,349,269369,2,0,L|318:386,1,55.6750010194397,4|0,1:0|0:0,0:0:0:0:
393,264,269607,5,0,0:0:0:0:
439,280,269726,1,0,0:0:0:0:
465,322,269845,2,0,L|459:377,1,55.6750010194397
222,338,270083,1,0,0:0:0:0:
176,322,270202,1,0,0:0:0:0:
150,280,270321,2,0,L|156:223,1,55.6750010194397
249,169,270559,6,0,L|261:242,1,57.8000003527832,4|0,1:2|0:0,0:0:0:0:
162,108,270806,1,0,0:0:0:0:
74,170,270930,2,0,L|62:238,1,57.8000003527832,4|0,1:2|0:0,0:0:0:0:
164,73,271178,1,0,0:0:0:0:
251,134,271302,2,0,L|263:209,1,57.8000003527832,4|0,1:2|0:0,0:0:0:0:
76,135,271550,5,0,0:0:0:0:
74,170,271674,1,0,0:0:0:0:
71,202,271798,2,0,P|67:236|65:273,1,57.8000003527832
322,350,272016,1,0,0:0:0:0:
353,353,272134,1,0,0:0:0:0:
396,352,272252,2,0,P|400:318|400:283,1,55.2499974708558
470,207,272468,5,4,1:0:0:0:
420,215,272586,1,0,0:0:0:0:
387,177,272704,1,0,0:0:0:0:
414,174,272822,5,4,1:2:0:0:
430,193,272940,1,0,0:0:0:0:
455,189,273058,1,0,0:0:0:0:
470,207,273176,5,4,1:2:0:0:
508,174,273294,1,0,0:0:0:0:
500,124,273412,1,0,0:0:0:0:
470,148,273530,5,4,1:2:0:0:
474,173,273649,1,0,0:0:0:0:
455,189,273767,1,0,0:0:0:0:
420,215,273885,5,8,0:0:0:0:
360,157,274003,1,8,1:3:0:0:
280,179,274121,1,4,1:3:0:0:
274,261,274239,1,0,1:0:0:0:
293,241,274357,5,4,1:0:0:0:
297,231,274475,1,0,0:0:0:0:
298,220,274593,1,0,0:0:0:0:
300,275,274712,5,4,1:0:0:0:
246,261,274830,1,0,0:0:0:0:
198,289,274948,1,0,0:0:0:0:
236,323,275066,5,4,1:0:0:0:
235,312,275184,1,0,0:0:0:0:
231,302,275302,1,0,0:0:0:0:
198,289,275416,5,4,1:0:0:0:
144,303,275531,1,0,0:0:0:0:
96,275,275645,1,0,0:0:0:0:
103,219,275760,5,8,0:0:0:0:
100,301,275874,1,8,1:3:0:0:
26,263,275989,1,4,1:3:0:0:
74,262,276103,5,4,1:0:0:0:
138,37,276430,5,0,0:0:0:0:
126,53,276521,1,0,0:0:0:0:
122,73,276613,1,0,0:0:0:0:
126,89,276705,2,0,L|170:85,2,42.5,0|0|0,1:0|0:0|1:0,0:0:0:0:
70,147,277017,2,0,L|42:146,2,28.3333333333333,8|0|8,0:0|1:0|0:0,0:0:0:0:
133,203,277248,5,0,1:0:0:0:
418,105,277710,6,0,L|451:103,2,28.3333333333333
354,58,277924,6,0,P|284:44|213:49,1,141.666666666667,4|0,1:0|0:0,0:0:0:0:
139,26,278655,1,2,0:3:0:0:
135,47,278781,1,2,0:3:0:0:
123,66,278906,1,2,0:3:0:0:
107,83,279031,2,0,P|91:81|75:80,1,28.3333333333333,4|0,0:2|0:0,0:0:0:0:
11,123,279186,2,0,P|25:165|30:209,1,85,4|0,0:0|0:0,0:0:0:0:
101,231,279489,5,4,1:2:0:0:
205,176,279694,1,0,1:0:0:0:
297,308,279900,1,0,1:0:0:0:
447,222,280105,6,0,L|449:188,5,28.3333333333333,4|0|0|0|4|8,1:0|1:0|1:0|1:0|1:3|1:3,0:0:0:0:
427,148,280505,2,0,L|417:198,1,42.5,0|8,1:0|0:0,0:0:0:0:
299,185,280705,6,0,L|295:150,5,28.3333333333333,0|0|0|4|0|0,1:0|1:0|1:0|1:0|1:0|1:0,0:0:0:0:
264,124,281105,2,0,L|257:172,1,42.5,0|8,1:0|0:0,0:0:0:0:
138,165,281305,6,0,L|128:127,5,28.3333333333333,4|0|0|4|8|8,1:0|1:0|1:0|1:3|1:3|0:0,0:0:0:0:
111,52,281705,1,4,1:2:0:0:
70,243,281905,6,0,L|38:241,2,28.3333333333333,0|0|0,0:0|1:0|1:0,0:0:0:0:
138,286,282105,2,0,L|178:282,5,28.3333333333333,8|0|0|0|8|0,0:0|1:0|1:0|1:0|0:0|1:0,0:0:0:0:
239,231,282505,1,0,1:0:0:0:
251,248,282594,1,8,0:0:0:0:
268,260,282683,1,0,1:0:0:0:
286,269,282772,1,8,0:0:0:0:
298,303,282862,5,0,1:0:0:0:
340,299,282966,1,8,0:0:0:0:
376,277,283071,1,0,1:0:0:0:
400,242,283176,1,8,0:0:0:0:
450,241,283281,5,4,1:3:0:0:
476,194,283392,1,8,1:3:0:0:
479,141,283503,1,4,1:3:0:0:
461,90,283614,1,8,1:3:0:0:
480,35,283725,5,8,0:0:0:0:
416,10,283855,1,0,1:0:0:0:
348,11,283985,1,4,1:3:0:0:
282,29,284116,1,4,1:3:0:0:
197,4,284266,5,4,1:3:0:0:
107,106,284498,1,4,0:3:0:0:
110,259,284731,1,4,0:3:0:0:
261,363,284963,1,0,1:0:0:0:
205,290,285105,5,12,1:2:0:0:
390,186,285304,5,12,0:0:0:0:
207,78,285503,5,12,0:0:0:0:
256,192,286699,5,4,1:0:0:0:
256,192,286795,12,0,289732,0:0:0:0:
