osu file format v14

[General]
AudioFilename: audio.mp3
AudioLeadIn: 0
PreviewTime: 62022
Countdown: 0
SampleSet: Soft
StackLeniency: 0.7
Mode: 0
LetterboxInBreaks: 0
WidescreenStoryboard: 0

[Editor]
DistanceSpacing: 1
BeatDivisor: 3
GridSize: 4
TimelineZoom: 1.9

[Metadata]
Title:Kimagure Stardom
TitleUnicode:気まぐれスターダム
Artist:Nishizawa-sanP x Rib
ArtistUnicode:西沢さんP×りぶ
Creator:arronchu1207
Version:Stardom
Source:
Tags:Rib on TOKOTOKO Nishizawa san P zawaso Glaceon Japanese rock jrock j-rock utaite
BeatmapID:2053674
BeatmapSetID:981332

[Difficulty]
HPDrainRate:7
CircleSize:4.2
OverallDifficulty:8.8
ApproachRate:9.3
SliderMultiplier:1.8
SliderTickRate:1

[Events]
//Background and Video events
0,0,"1920.jpg",0,0
//Break Periods
2,84300,90625
2,163851,164782
2,186772,188530
//Storyboard Layer 0 (Background)
//Storyboard Layer 1 (Fail)
//Storyboard Layer 2 (Pass)
//Storyboard Layer 3 (Foreground)
//Storyboard Layer 4 (Overlay)
//Storyboard Sound Samples

[TimingPoints]
505,337.078651685393,4,2,1,50,1,0
1094,-100,4,2,1,70,0,0
23426,-100,4,2,1,60,0,0
24100,-100,4,2,1,70,0,0
24774,-125,4,2,1,50,0,0
35561,-100,4,2,1,60,0,0
46347,-125,4,2,1,60,0,0
57134,-100,4,2,1,60,0,0
61179,-125,4,2,1,70,0,0
61431,-125,4,2,1,5,0,0
61516,-66.6666666666667,4,2,1,70,0,0
61853,-66.6666666666667,4,2,1,5,0,0
62190,-133.333333333333,4,2,1,70,0,0
62527,-83.3333333333333,4,2,1,80,0,1
81403,-100,4,2,1,70,0,0
102976,-125,4,2,1,50,0,0
108370,-100,4,2,1,60,0,0
124549,-125,4,2,1,60,0,0
135336,-100,4,2,1,70,0,0
140729,-83.3333333333333,4,2,1,80,0,1
159606,-100,4,2,1,70,0,0
160954,-100,4,2,1,60,0,0
162302,-100,4,2,1,50,0,0
163651,-100,4,2,1,40,0,0
169044,-100,4,2,1,70,0,0
170055,-133.333333333333,4,2,1,70,0,0
170308,-100,4,2,1,5,0,0
170392,-100,4,2,1,70,0,0
175785,-100,4,2,1,80,0,0
191291,-100,4,2,1,80,0,0
191965,-83.3333333333333,4,2,1,90,0,1
205448,-166.666666666667,4,2,1,80,0,0
205785,-83.3333333333333,4,2,1,90,0,1
221628,-100,4,2,1,80,0,0
248594,-125,4,2,1,80,0,0

[Colours]
Combo1 : 191,91,0
Combo2 : 255,188,128
Combo3 : 255,155,64
Combo4 : 255,120,0

[HitObjects]
222,155,505,5,4,0:0:0:0:
218,175,842,1,4,0:0:0:0:
214,191,1094,2,0,L|207:213,2,22.5,8|8|8,0:0|0:0|0:0,0:0:0:0:
236,162,1263,1,8,0:0:0:0:
269,149,1347,1,8,0:3:0:0:
304,154,1431,1,8,0:3:0:0:
333,175,1516,1,10,0:0:0:0:
348,210,1600,1,8,0:0:0:0:
376,231,1684,1,8,0:3:0:0:
412,235,1769,1,8,0:3:0:0:
445,223,1853,6,0,L|440:325,1,90,6|0,1:2|0:0,0:0:0:0:
440,312,2106,1,2,0:0:0:0:
440,312,2190,1,10,0:0:0:0:
256,208,2358,1,2,0:0:0:0:
324,356,2527,1,10,0:3:0:0:
272,184,2696,1,10,0:3:0:0:
152,308,2864,1,10,0:0:0:0:
360,236,3033,6,0,P|374:189|364:140,1,90,10|0,0:3|0:0,0:0:0:0:
144,221,3370,2,0,P|138:265|151:307,1,90,10|8,0:3|0:0,0:0:0:0:
216,116,3707,1,2,0:0:0:0:
239,78,3791,1,10,0:0:0:0:
230,35,3875,1,10,0:3:0:0:
194,10,3960,1,2,0:0:0:0:
150,17,4044,1,10,0:3:0:0:
123,52,4128,1,2,0:0:0:0:
128,95,4212,2,0,L|24:84,1,90,10|0,0:0|0:0,0:0:0:0:
234,211,4549,6,0,L|334:198,1,90,2|0,1:2|0:0,0:0:0:0:
323,199,4802,1,2,0:0:0:0:
323,199,4887,1,10,0:0:0:0:
456,68,5055,1,2,0:0:0:0:
432,256,5224,1,10,0:3:0:0:
308,112,5392,1,10,0:3:0:0:
496,148,5561,1,10,0:0:0:0:
288,108,5729,6,0,P|241:113|184:128,1,90,14|0,0:3|0:0,0:0:0:0:
55,205,6066,2,0,P|98:215|143:220,1,90,10|8,0:3|0:0,0:0:0:0:
304,272,6403,1,2,0:0:0:0:
316,316,6488,1,10,0:0:0:0:
312,360,6572,1,10,0:3:0:0:
252,180,6740,1,10,0:3:0:0:
296,168,6825,1,2,0:0:0:0:
340,156,6909,1,10,0:0:0:0:
171,301,7078,1,8,0:0:0:0:
171,301,7162,1,8,0:0:0:0:
171,301,7246,6,0,L|164:196,1,90,6|0,1:2|0:0,0:0:0:0:
165,211,7499,1,2,0:0:0:0:
165,211,7583,1,10,0:0:0:0:
322,165,7752,1,2,0:0:0:0:
204,56,7920,1,10,0:3:0:0:
328,184,8089,1,10,0:3:0:0:
372,16,8257,1,10,0:0:0:0:
240,180,8426,6,0,L|248:280,1,90,10|0,0:3|0:0,0:0:0:0:
424,205,8763,2,0,L|432:116,1,90,10|8,0:3|0:0,0:0:0:0:
212,102,9100,1,2,0:0:0:0:
168,100,9184,1,10,0:0:0:0:
135,129,9269,1,10,0:3:0:0:
133,173,9353,1,2,0:0:0:0:
162,205,9437,1,10,0:3:0:0:
206,208,9521,1,2,0:0:0:0:
239,179,9606,2,0,B|284:176|284:176|332:188,1,90,10|0,0:0|0:0,0:0:0:0:
409,305,9943,6,0,L|301:293,1,90,2|0,1:2|0:0,0:0:0:0:
319,295,10196,1,2,0:0:0:0:
319,295,10280,1,10,0:0:0:0:
144,232,10448,1,2,0:0:0:0:
196,364,10617,1,10,0:3:0:0:
220,176,10785,1,10,0:3:0:0:
52,248,10954,1,10,0:0:0:0:
292,224,11122,6,0,P|304:172|292:132,1,90,14|0,0:3|0:0,0:0:0:0:
49,161,11460,2,0,P|39:204|51:247,1,90,10|8,0:3|0:0,0:0:0:0:
148,96,11797,1,2,0:0:0:0:
156,52,11881,1,2,0:0:0:0:
124,20,11965,2,0,L|64:16,1,45,10|8,0:0|0:3,0:0:0:0:
49,161,12134,2,0,L|109:157,1,45,10|10,0:3|0:3,0:3:0:0:
184,192,12302,5,10,0:0:0:0:
227,188,12387,1,8,0:0:0:0:
261,216,12471,1,8,0:0:0:0:
264,259,12555,1,8,0:0:0:0:
235,292,12639,6,0,L|344:284,1,90,6|0,1:2|0:0,0:0:0:0:
372,284,12892,1,2,0:0:0:0:
372,284,12976,1,10,0:0:0:0:
460,128,13145,1,2,0:0:0:0:
296,132,13313,1,10,0:3:0:0:
480,216,13482,1,10,0:3:0:0:
436,40,13651,1,10,0:0:0:0:
280,144,13819,2,0,P|220:144|184:140,1,90,10|0,0:3|0:0,0:0:0:0:
48,44,14156,2,0,P|92:40|137:40,1,90,10|8,0:3|0:0,0:0:0:0:
280,144,14493,5,2,0:0:0:0:
313,172,14578,1,10,0:0:0:0:
320,215,14662,1,10,0:3:0:0:
297,253,14746,1,2,0:0:0:0:
255,266,14830,1,10,0:3:0:0:
215,249,14915,1,2,0:0:0:0:
195,210,14999,2,0,L|203:103,1,90,10|0,0:0|0:0,0:0:0:0:
356,72,15336,6,0,P|398:60|457:79,1,90,2|0,1:2|0:0,0:0:0:0:
482,96,15589,1,2,0:0:0:0:
482,96,15673,1,10,0:0:0:0:
384,276,15842,1,2,0:0:0:0:
400,140,16010,1,10,0:3:0:0:
468,276,16179,1,10,0:3:0:0:
300,276,16347,1,10,0:0:0:0:
484,184,16516,6,0,P|492:132|480:92,1,90,14|0,0:3|0:0,0:0:0:0:
301,188,16853,2,0,P|290:231|299:275,1,90,10|8,0:3|0:0,0:0:0:0:
400,140,17190,1,10,0:0:0:0:
400,140,17274,1,10,0:0:0:0:
400,140,17358,1,10,0:3:0:0:
213,156,17527,1,10,0:3:0:0:
213,156,17611,1,2,0:0:0:0:
213,156,17696,2,0,L|217:67,1,90,10|0,0:0|0:0,0:0:0:0:
100,232,18033,6,0,P|100:268|124:328,1,90,6|0,1:2|0:0,0:0:0:0:
156,348,18285,1,2,0:0:0:0:
156,348,18370,1,10,0:0:0:0:
360,344,18538,1,2,0:0:0:0:
216,236,18707,1,10,0:3:0:0:
364,364,18875,1,10,0:3:0:0:
396,172,19044,1,10,0:0:0:0:
245,355,19212,6,0,L|153:347,1,90,10|0,0:3|0:0,0:0:0:0:
306,179,19549,2,0,L|398:171,1,90,10|8,0:3|0:0,0:0:0:0:
216,236,19887,1,2,0:0:0:0:
174,251,19971,1,10,0:0:0:0:
134,234,20055,1,10,0:3:0:0:
118,193,20139,1,2,0:0:0:0:
135,152,20224,1,10,0:3:0:0:
176,136,20308,1,2,0:0:0:0:
216,152,20392,2,0,P|216:100|208:56,1,90,10|0,0:0|0:0,0:0:0:0:
336,208,20729,6,0,P|332:268|338:325,1,90,6|0,1:2|0:0,0:0:0:0:
342,341,20982,1,2,0:0:0:0:
342,341,21066,1,10,0:0:0:0:
510,301,21235,1,2,0:0:0:0:
418,165,21403,1,10,0:3:0:0:
422,337,21572,1,10,0:3:0:0:
418,141,21740,1,10,0:0:0:0:
264,252,21909,6,0,L|156:240,1,90,14|0,0:3|0:0,0:0:0:0:
20,348,22246,2,0,L|128:336,1,90,10|12,0:3|0:0,0:0:0:0:
264,252,22583,1,2,0:0:0:0:
284,212,22667,1,2,0:0:0:0:
276,168,22752,2,0,L|280:108,1,45,10|0,0:0|0:0,0:0:0:0:
184,20,22920,5,10,0:3:0:0:
164,60,23004,1,2,0:0:0:0:
172,104,23089,2,0,L|168:164,1,45,10|8,0:0|0:0,0:0:0:0:
56,184,23257,2,0,L|53:139,1,45,8|8,0:0|0:0,0:0:0:0:
120,260,23426,6,0,B|116:304|116:304|128:364,1,90,10|0,0:3|0:0,0:0:0:0:
200,360,23679,2,0,L|296:352,1,90,10|0,0:3|0:0,0:0:0:0:
364,344,23931,1,10,0:3:0:0:
368,340,24016,1,2,0:0:0:0:
372,336,24100,1,8,0:0:0:0:
476,192,24269,1,8,0:3:0:0:
272,240,24437,1,8,0:0:0:0:
256,244,24774,6,0,P|224:168|232:136,1,108,4|0,1:2|0:0,0:0:0:0:
236,112,25111,2,0,P|168:112|148:104,1,72,8|0,0:0|0:0,0:0:0:0:
296,36,25448,1,10,0:3:0:0:
296,36,25617,2,0,P|330:94|333:116,1,72,10|8,0:3|0:0,0:0:0:0:
296,184,25954,2,0,L|456:176,1,144,10|10,0:3|0:3,0:0:0:0:
492,256,26460,2,0,P|486:301|468:332,1,72,10|0,0:0|0:0,0:0:0:0:
436,352,26712,1,8,0:0:0:0:
436,352,26797,2,0,L|364:348,1,72,8|8,0:3|0:3,0:0:0:0:
296,284,27134,2,0,L|220:288,1,72,10|0,0:0|0:0,0:0:0:0:
140,328,27471,6,0,P|132:300|140:244,1,72,10|0,0:3|0:0,0:0:0:0:
207,121,27808,2,0,P|211:156|204:192,1,72,10|0,0:0|0:0,0:0:0:0:
132,60,28145,1,10,0:3:0:0:
132,60,28313,2,0,P|168:32|212:24,1,72,10|8,0:3|0:0,0:0:0:0:
280,60,28651,6,0,L|428:52,1,144,10|10,0:3|0:3,0:0:0:0:
484,124,29156,2,0,L|488:204,1,72,8|0,0:0|0:0,0:0:0:0:
472,240,29409,1,8,0:0:0:0:
472,240,29493,2,0,B|434:245|434:245|390:237,1,72,8|8,0:3|0:3,0:0:0:0:
400,152,29830,2,0,P|348:167|328:188,1,72,10|0,0:0|0:0,0:0:0:0:
324,360,30167,6,0,L|252:356,1,72,6|0,0:0|0:0,0:0:0:0:
196,280,30504,2,0,L|108:288,1,72,8|0,0:0|0:0,0:0:0:0:
36,252,30842,1,10,0:3:0:0:
36,252,31010,2,0,P|28:204|40:164,1,72,10|8,0:3|0:0,0:0:0:0:
96,112,31347,6,0,L|244:104,1,144,10|10,0:3|0:3,0:0:0:0:
332,84,31853,2,0,P|328:140|304:168,1,72,10|0,0:0|0:0,0:0:0:0:
288,188,32106,1,8,0:0:0:0:
288,188,32190,2,0,L|292:276,1,72,8|8,0:3|0:3,0:0:0:0:
332,344,32527,6,0,P|364:352|420:352,1,72,10|0,0:0|0:0,0:0:0:0:
476,292,32864,2,0,B|484:256|484:256|476:204,1,72,10|0,0:3|0:0,0:0:0:0:
432,140,33201,2,0,L|356:148,1,72,8|0,0:0|0:0,0:0:0:0:
292,212,33538,1,10,0:3:0:0:
292,212,33707,2,0,L|216:208,1,72,10|8,0:3|0:0,0:0:0:0:
148,268,34044,6,0,P|92:272|20:208,1,144,14|10,0:3|0:3,0:0:0:0:
227,136,34549,2,0,L|219:212,1,72,10|0,0:0|0:0,0:0:0:0:
256,284,34802,1,8,0:0:0:0:
256,284,34887,2,0,L|260:364,1,72,2|8,0:0|0:3,0:0:0:0:
404,284,35224,1,8,0:0:0:0:
412,263,35308,1,8,0:0:0:0:
416,240,35392,1,8,0:0:0:0:
415,218,35476,1,8,0:0:0:0:
408,196,35561,6,0,L|308:188,1,90,14|0,0:3|0:0,0:0:0:0:
166,131,35898,2,0,L|256:124,1,90,10|0,0:0|0:0,0:0:0:0:
115,207,36235,1,10,0:3:0:0:
115,207,36403,2,0,P|86:174|75:130,1,90,10|8,0:3|0:0,0:0:0:0:
204,216,36740,2,0,L|192:320,1,90,10|0,0:3|0:0,0:0:0:0:
256,372,37078,1,10,0:3:0:0:
436,332,37246,5,10,0:0:0:0:
312,284,37415,1,0,0:0:0:0:
312,284,37499,1,8,0:0:0:0:
312,284,37583,2,0,L|300:184,1,90,8|0,0:3|0:3,0:0:0:0:
332,84,37920,2,0,P|343:155|292:197,1,135,10|0,0:0|0:0,0:0:0:0:
276,128,38257,6,0,L|184:120,1,90,10|0,0:3|0:0,0:0:0:0:
34,172,38594,2,0,L|124:180,1,90,10|0,0:0|0:0,0:0:0:0:
212,204,38931,1,10,0:3:0:0:
136,356,39100,1,10,0:3:0:0:
148,268,39269,1,10,0:0:0:0:
224,364,39437,6,0,L|332:356,1,90,10|0,0:3|0:0,0:0:0:0:
404,348,39774,1,10,0:3:0:0:
436,212,39943,1,10,0:0:0:0:
292,272,40111,1,0,0:0:0:0:
292,272,40196,1,8,0:0:0:0:
292,272,40280,2,0,P|244:272|192:264,1,90,8|8,0:3|0:3,0:0:0:0:
52,168,40617,2,0,P|104:148|176:196,1,135,10|0,0:0|0:0,0:0:0:0:
104,224,40954,6,0,L|108:316,1,90,10|0,0:3|0:0,0:0:0:0:
264,276,41291,2,0,L|368:268,1,90,10|0,0:0|0:0,0:0:0:0:
415,131,41628,1,10,0:3:0:0:
415,131,41797,2,0,P|364:132|312:108,1,90,10|8,0:3|0:0,0:0:0:0:
480,68,42134,6,0,P|504:120|496:172,1,90,10|0,0:3|0:0,0:0:0:0:
440,220,42471,1,10,0:3:0:0:
415,131,42639,1,10,0:0:0:0:
504,296,42808,1,0,0:0:0:0:
504,296,42892,1,8,0:0:0:0:
504,296,42976,2,0,P|463:315|395:299,1,90,8|8,0:3|0:3,0:0:0:0:
280,232,43313,2,0,L|128:248,1,135,10|0,0:0|0:0,0:0:0:0:
68,256,43651,6,0,L|80:148,1,90,14|0,0:3|0:0,0:0:0:0:
161,30,43988,2,0,P|167:74|152:116,1,90,10|0,0:0|0:0,0:0:0:0:
4,112,44325,1,10,0:0:0:0:
80,64,44493,1,10,0:3:0:0:
20,200,44662,1,10,0:3:0:0:
152,115,44830,6,0,L|264:123,1,90,14|0,0:3|0:0,0:0:0:0:
424,72,45167,1,8,0:3:0:0:
264,204,45336,1,10,0:0:0:0:
344,52,45504,1,8,0:3:0:0:
332,48,45589,1,8,0:0:0:0:
320,44,45673,1,8,0:3:0:0:
292,292,45842,5,8,0:0:0:0:
292,292,45926,1,8,0:0:0:0:
292,292,46010,1,8,0:3:0:0:
364,136,46179,1,8,0:3:0:0:
360,352,46347,5,6,1:2:0:0:
344,220,46516,1,2,0:0:0:0:
472,340,46684,1,10,0:3:0:0:
292,292,46853,2,0,P|200:284|116:284,1,144,10|8,0:0|0:3,0:0:0:0:
16,360,47358,2,0,L|92:356,1,72,8|0,0:0|0:0,0:0:0:0:
160,188,47696,5,2,1:2:0:0:
60,116,47864,1,2,0:0:0:0:
56,104,47948,1,10,0:0:0:0:
52,92,48033,1,2,0:0:0:0:
180,176,48201,2,0,P|248:180|328:172,1,144,10|8,0:0|0:3,0:0:0:0:
400,40,48707,2,0,L|396:116,1,72,8|0,0:0|0:0,0:0:0:0:
384,312,49044,5,2,1:2:0:0:
472,192,49212,1,2,0:0:0:0:
460,352,49381,1,10,0:3:0:0:
364,228,49549,2,0,P|280:228|208:236,1,144,10|8,0:0|0:3,0:0:0:0:
88,304,50055,2,0,L|160:308,1,72,8|10,0:0|0:0,0:0:0:0:
168,316,50308,1,10,0:0:0:0:
176,324,50392,5,2,1:2:0:0:
20,364,50561,1,10,0:3:0:0:
64,216,50729,1,10,0:3:0:0:
228,252,50898,2,0,P|288:256|404:240,1,144,10|8,0:0|0:3,0:0:0:0:
460,132,51403,2,0,L|452:180,1,36,8|8,0:0|0:0,0:0:0:0:
490,240,51572,2,0,L|495:275,1,36,8|8,0:0|0:0,0:0:0:0:
464,352,51740,5,6,1:2:0:0:
371,247,51909,1,2,0:0:0:0:
276,360,52078,1,10,0:3:0:0:
312,192,52246,2,0,P|208:200|152:208,1,144,10|8,0:0|0:3,0:0:0:0:
12,256,52752,2,0,P|52:264|88:268,1,72,8|0,0:0|0:0,0:0:0:0:
168,205,53089,5,2,1:2:0:0:
96,104,53257,1,2,0:0:0:0:
92,92,53342,1,10,0:0:0:0:
88,80,53426,1,2,0:0:0:0:
192,216,53594,2,0,P|192:280|184:376,1,144,8|8,0:0|0:3,0:0:0:0:
316,263,54100,2,0,P|312:207|312:183,1,72,8|0,0:0|0:0,0:0:0:0:
408,48,54437,5,2,1:2:0:0:
468,216,54606,1,2,0:0:0:0:
496,40,54774,1,10,0:3:0:0:
344,108,54943,2,0,P|240:100|192:92,1,144,14|8,0:0|0:3,0:0:0:0:
20,40,55448,2,0,L|96:36,1,72,8|10,0:0|0:0,0:0:0:0:
100,44,55701,1,10,0:0:0:0:
108,52,55785,5,2,1:2:0:0:
64,152,55954,1,10,0:3:0:0:
200,93,56122,1,10,0:3:0:0:
156,193,56291,2,0,P|220:188|320:184,1,144,10|8,0:0|0:3,0:0:0:0:
420,236,56797,1,8,0:0:0:0:
432,256,56881,1,8,0:0:0:0:
440,280,56965,1,8,0:0:0:0:
440,304,57049,1,8,0:0:0:0:
436,328,57134,6,0,L|332:320,1,90,14|0,0:3|0:0,0:0:0:0:
256,312,57471,1,8,0:3:0:0:
86,328,57639,2,0,P|127:344|171:340,1,90,10|0,0:0|0:0,0:0:0:0:
140,256,57976,1,8,0:3:0:0:
362,225,58145,1,10,0:0:0:0:
358,249,58229,1,8,0:0:0:0:
354,273,58313,1,8,0:0:0:0:
350,297,58398,1,8,0:0:0:0:
346,321,58482,6,0,L|266:253,1,90,10|0,0:3|0:0,0:0:0:0:
212,200,58819,1,8,0:3:0:0:
53,250,58988,2,0,P|95:263|139:255,1,90,10|0,0:0|0:0,0:0:0:0:
100,172,59325,1,8,0:3:0:0:
296,24,59493,1,10,0:0:0:0:
307,54,59578,1,8,0:0:0:0:
307,86,59662,1,8,0:0:0:0:
277,262,59830,5,14,0:0:0:0:
212,80,59999,1,8,0:3:0:0:
212,340,60167,5,10,0:0:0:0:
290,140,60336,1,8,0:3:0:0:
368,336,60504,5,10,0:0:0:0:
184,192,60673,1,8,0:3:0:0:
428,64,60842,5,10,0:0:0:0:
440,92,60926,1,8,0:0:0:0:
440,124,61010,1,8,0:0:0:0:
428,152,61094,1,8,0:0:0:0:
404,176,61179,6,0,L|284:160,1,108,10|0,0:0|0:0,0:0:0:0:
294,75,61516,6,0,B|258:75|233:94|212:122|210:157|210:157|172:116|120:112|70:147,1,270.000010299683,14|0,0:0|0:0,0:0:0:0:
131,280,62190,6,0,P|127:332|151:380,1,101.250003862381,2|0,0:0|0:0,0:0:0:0:
148,376,62527,6,0,B|28:356,1,107.999996704102,6|0,0:0|0:0,0:0:0:0:
4,176,62864,2,0,B|110:193,1,107.999996704102,8|0,0:0|0:0,0:0:0:0:
288,128,63201,1,8,0:3:0:0:
176,288,63370,1,8,0:3:0:0:
176,76,63538,1,10,0:0:0:0:
256,272,63707,6,0,L|388:264,1,107.999996704102,10|0,0:3|0:0,0:0:0:0:
492,144,64044,2,0,L|360:136,1,107.999996704102,10|8,0:3|0:0,0:0:0:0:
208,84,64381,1,2,0:0:0:0:
208,84,64465,1,8,0:0:0:0:
208,84,64549,2,0,B|200:136|200:136|212:204,1,107.999996704102,8|10,0:3|0:3,0:3:0:0:
304,356,64887,1,8,0:0:0:0:
296,136,65055,1,2,0:0:0:0:
176,300,65224,6,0,L|64:288,1,107.999996704102,10|0,0:3|0:0,0:0:0:0:
304,236,65561,2,0,L|416:224,1,107.999996704102,10|0,0:0|0:0,0:0:0:0:
468,88,65898,1,10,0:3:0:0:
252,40,66066,2,0,P|240:100|252:156,1,107.999996704102,10|8,0:3|0:0,0:0:0:0:
296,343,66403,6,0,L|304:227,1,107.999996704102,10|0,0:3|0:0,0:0:0:0:
152,136,66740,1,8,0:3:0:0:
168,372,66909,2,0,L|160:256,1,107.999996704102,8|0,0:0|0:0,0:0:0:0:
160,264,67162,1,8,0:0:0:0:
160,264,67246,1,8,0:3:0:0:
308,124,67415,1,8,0:3:0:0:
65,62,67583,2,0,B|69:30|61:6|61:6|113:38|173:26,1,161.999995056153,10|0,0:0|0:0,0:0:0:0:
162,28,67920,6,0,L|150:152,1,107.999996704102,14|0,0:3|0:0,0:0:0:0:
318,231,68257,2,0,L|307:123,1,107.999996704102,8|0,0:0|0:0,0:0:0:0:
204,292,68594,1,10,0:3:0:0:
404,352,68763,1,8,0:3:0:0:
272,360,68931,1,8,0:0:0:0:
452,264,69100,6,0,P|484:296|504:356,1,107.999996704102,10|0,0:3|0:0,0:0:0:0:
336,308,69437,1,8,0:3:0:0:
455,156,69606,2,0,L|451:276,1,107.999996704102,10|0,0:0|0:0,0:0:0:0:
451,263,69858,1,8,0:0:0:0:
451,263,69943,1,10,0:3:0:0:
284,140,70111,1,10,0:3:0:0:
456,56,70280,1,8,0:0:0:0:
344,204,70448,1,2,0:0:0:0:
268,16,70617,6,0,L|156:24,1,107.999996704102,10|0,0:3|0:0,0:0:0:0:
12,248,70954,2,0,L|124:256,1,107.999996704102,10|0,0:0|0:0,0:0:0:0:
308,228,71291,1,10,0:3:0:0:
180,352,71460,1,10,0:3:0:0:
192,144,71628,1,8,0:0:0:0:
304,336,71797,6,0,P|360:344|416:332,1,107.999996704102,14|0,0:3|0:0,0:0:0:0:
496,192,72134,1,10,0:3:0:0:
299,136,72302,2,0,L|187:144,1,107.999996704102,12|8,0:0|0:0,0:0:0:0:
120,80,72555,2,0,L|108:28,1,53.9999983520508,8|8,0:0|0:0,0:0:0:0:
24,80,72724,2,0,L|12:132,1,53.9999983520508,8|8,0:0|0:0,0:0:0:0:
130,347,72976,1,10,0:0:0:0:
175,363,73061,1,8,0:0:0:0:
223,363,73145,1,8,0:0:0:0:
268,347,73229,1,8,0:0:0:0:
305,315,73313,6,0,L|424:328,1,107.999996704102,14|0,0:0|0:0,0:0:0:0:
492,180,73651,2,0,L|373:193,1,107.999996704102,12|0,0:0|0:0,0:0:0:0:
204,88,73988,1,8,0:3:0:0:
400,104,74156,1,8,0:3:0:0:
152,168,74325,1,10,0:0:0:0:
300,28,74493,6,0,L|308:148,1,107.999996704102,10|0,0:3|0:0,0:0:0:0:
144,275,74830,2,0,L|151:167,1,107.999996704102,10|8,0:3|0:0,0:0:0:0:
256,348,75167,1,2,0:0:0:0:
256,348,75252,1,8,0:0:0:0:
256,348,75336,2,0,B|312:360|312:360|368:336,1,107.999996704102,8|10,0:3|0:3,0:3:0:0:
484,188,75673,1,8,0:0:0:0:
304,272,75842,1,2,0:0:0:0:
448,380,76010,6,0,L|440:264,1,107.999996704102,10|0,0:3|0:0,0:0:0:0:
352,84,76347,2,0,L|344:191,1,107.999996704102,10|0,0:0|0:0,0:0:0:0:
160,152,76684,1,10,0:3:0:0:
284,24,76853,1,10,0:3:0:0:
244,220,77021,1,8,0:0:0:0:
144,48,77190,6,0,P|72:44|36:60,1,107.999996704102,14|0,0:3|0:0,0:0:0:0:
28,240,77527,1,8,0:3:0:0:
100,136,77696,1,8,0:0:0:0:
148,328,77864,1,0,0:0:0:0:
148,328,77948,1,8,0:0:0:0:
148,328,78033,2,0,L|260:320,1,107.999996704102,8|8,0:3|0:3,0:3:0:0:
432,308,78370,1,10,0:0:0:0:
304,140,78538,1,8,0:0:0:0:
304,140,78622,1,8,0:0:0:0:
304,140,78707,6,0,P|296:200|316:252,1,107.999996704102,14|0,0:3|0:0,0:0:0:0:
364,32,79044,1,8,0:0:0:0:
488,180,79212,1,0,0:0:0:0:
488,180,79297,1,8,0:0:0:0:
488,180,79381,2,0,P|496:120|476:68,1,107.999996704102,10|8,0:3|0:3,0:3:0:0:
304,140,79718,1,10,0:0:0:0:
412,336,79887,1,8,0:0:0:0:
412,336,79971,1,8,0:0:0:0:
412,336,80055,6,0,L|404:220,1,107.999996704102,6|0,0:0|0:0,0:0:0:0:
311,32,80392,2,0,L|303:139,1,107.999996704102,8|2,0:0|0:0,0:0:0:0:
288,344,80729,1,8,0:3:0:0:
260,336,80813,1,8,0:3:0:0:
232,332,80898,1,8,0:3:0:0:
204,336,80982,1,8,0:3:0:0:
176,344,81066,5,8,0:0:0:0:
124,332,81151,1,8,0:0:0:0:
92,288,81235,1,8,0:0:0:0:
96,236,81319,1,8,0:0:0:0:
136,200,81403,1,12,0:3:0:0:
256,192,81488,12,0,84100,0:0:0:0:
36,312,91179,5,4,0:0:0:0:
184,268,91347,5,2,0:0:0:0:
184,268,91431,1,2,0:0:0:0:
184,268,91516,2,0,L|188:200,1,45,10|8,0:0|0:3,0:0:0:0:
84,144,91684,1,10,0:3:0:0:
84,144,91769,1,10,0:3:0:0:
84,144,91853,6,0,L|86:188,1,45,10|8,0:0|0:0,0:0:0:0:
197,124,92021,2,0,L|200:80,1,45,8|8,0:0|0:0,0:0:0:0:
324,216,92190,2,0,P|368:220|420:196,1,90,6|0,1:2|0:0,0:0:0:0:
436,168,92443,1,2,0:0:0:0:
436,168,92527,1,10,0:0:0:0:
436,4,92696,1,2,0:0:0:0:
356,136,92864,1,10,0:3:0:0:
496,240,93033,1,10,0:3:0:0:
428,88,93201,1,10,0:0:0:0:
288,192,93370,6,0,L|184:200,1,90,10|0,0:3|0:0,0:0:0:0:
36,92,93707,2,0,L|140:100,1,90,10|8,0:3|0:0,0:0:0:0:
336,112,94044,1,2,0:0:0:0:
366,143,94128,1,10,0:0:0:0:
410,144,94212,1,10,0:3:0:0:
441,113,94297,1,2,0:0:0:0:
442,69,94381,1,10,0:3:0:0:
412,38,94465,1,2,0:0:0:0:
368,37,94549,2,0,B|264:44,1,90,10|0,0:0|0:0,0:0:0:0:
198,154,94887,6,0,B|192:200|192:200|200:244|200:244,1,90,2|0,1:2|0:0,0:0:0:0:
212,284,95139,1,2,0:0:0:0:
212,284,95224,1,10,0:0:0:0:
280,200,95392,1,2,0:0:0:0:
108,244,95561,1,10,0:3:0:0:
296,312,95729,1,10,0:3:0:0:
276,116,95898,1,10,0:0:0:0:
189,332,96066,6,0,L|201:228,1,90,14|0,0:3|0:0,0:0:0:0:
352,164,96403,2,0,L|362:253,1,90,10|8,0:3|0:0,0:0:0:0:
212,88,96740,1,10,0:0:0:0:
168,96,96825,1,10,0:0:0:0:
128,76,96909,1,10,0:3:0:0:
320,80,97078,1,10,0:3:0:0:
364,72,97162,1,2,0:0:0:0:
404,92,97246,2,0,L|504:80,1,90,10|0,0:0|0:0,0:0:0:0:
362,253,97583,6,0,P|306:257|256:212,1,90,6|0,1:2|0:0,0:0:0:0:
252,204,97836,1,2,0:0:0:0:
252,204,97920,1,10,0:0:0:0:
424,184,98089,1,2,0:0:0:0:
364,352,98257,1,10,0:3:0:0:
328,172,98426,1,10,0:3:0:0:
512,336,98594,1,10,0:0:0:0:
362,253,98763,6,0,L|254:261,1,90,10|0,0:3|0:0,0:0:0:0:
112,324,99100,2,0,L|220:332,1,90,10|8,0:3|0:0,0:0:0:0:
328,172,99437,1,2,0:0:0:0:
366,151,99521,1,10,0:0:0:0:
380,109,99606,1,2,0:3:0:0:
361,69,99690,1,2,0:0:0:0:
320,53,99774,1,2,0:3:0:0:
280,70,99858,1,2,0:0:0:0:
262,110,99943,2,0,B|216:116|216:116|160:104,1,90,10|0,0:0|0:0,0:0:0:0:
24,20,100280,6,0,L|40:144,1,90,6|0,1:2|0:0,0:0:0:0:
44,156,100533,1,2,0:0:0:0:
44,156,100617,1,10,0:0:0:0:
173,106,100785,1,2,0:0:0:0:
112,256,100954,1,10,0:3:0:0:
112,40,101122,1,10,0:3:0:0:
216,192,101291,1,10,0:0:0:0:
4,124,101460,6,0,L|100:120,1,90,14|0,0:3|0:0,0:0:0:0:
305,195,101797,2,0,L|209:191,1,90,10|8,0:3|0:0,0:0:0:0:
420,156,102134,1,2,0:0:0:0:
428,200,102218,1,10,0:0:0:0:
416,244,102302,1,10,0:0:0:0:
312,356,102471,2,0,L|317:311,1,45,10|10,0:0|0:3,0:0:0:0:
305,195,102639,1,2,1:2:0:0:
400,372,102808,1,0,1:0:0:0:
148,308,102976,6,0,P|140:272|144:232,1,72,14|0,2:3|2:3,2:3:0:0:
64,184,103313,2,0,P|91:159|127:142,1,72,8|0,2:3|2:3,2:3:0:0:
212,172,103651,1,8,2:3:0:0:
196,80,103819,1,8,2:3:0:0:
196,80,103903,1,8,2:3:0:0:
196,80,103988,2,0,L|280:72,1,72,8|0,2:3|2:3,2:3:0:0:
408,24,104325,6,0,L|380:96,1,72,10|0,2:3|2:3,2:3:0:0:
432,172,104662,2,0,L|355:183,1,72,8|0,2:3|2:3,2:3:0:0:
268,196,104999,1,8,2:3:0:0:
328,268,105167,1,0,2:3:0:0:
296,356,105336,1,8,2:3:0:0:
236,284,105504,1,0,2:3:0:0:
328,268,105673,6,0,P|364:292|388:336,1,72,10|0,2:3|2:3,2:3:0:0:
268,196,106010,2,0,P|270:152|296:110,1,72,8|8,2:3|2:3,2:3:0:0:
282,127,106263,1,8,2:3:0:0:
282,127,106347,1,8,2:3:0:0:
360,182,106516,1,0,2:3:0:0:
328,268,106684,2,0,P|289:287|239:285,1,72,8|0,2:3|2:3,2:3:0:0:
168,304,107021,6,0,P|170:260|196:218,1,72,10|0,2:3|2:3,2:3:0:0:
268,196,107358,1,8,2:3:0:0:
328,268,107527,1,0,2:3:0:0:
182,235,107696,2,0,P|173:192|187:144,1,72,8|0,2:3|2:3,2:3:0:0:
252,104,108033,1,10,0:3:0:0:
164,72,108201,1,2,2:3:0:0:
164,72,108285,1,10,2:3:0:0:
164,72,108370,6,0,L|56:80,1,90,10|0,0:3|0:0,0:0:0:0:
44,112,108622,1,8,0:3:0:0:
44,112,108707,2,0,P|32:156|52:212,1,90,10|0,0:3|0:0,0:0:0:0:
216,248,109044,1,10,0:3:0:0:
120,156,109212,1,8,0:3:0:0:
80,360,109381,1,10,0:3:0:0:
144,256,109549,1,0,0:0:0:0:
240,344,109718,6,0,P|288:348|328:328,1,90,10|0,0:3|0:0,0:0:0:0:
396,160,110055,1,10,0:3:0:0:
272,264,110224,1,0,0:3:0:0:
276,244,110308,1,8,0:3:0:0:
280,224,110392,1,10,0:3:0:0:
476,224,110561,1,0,0:0:0:0:
296,48,110729,2,0,L|308:144,1,90,10|0,0:0|0:0,0:0:0:0:
385,249,111066,6,0,L|396:159,1,90,10|0,0:3|0:0,0:0:0:0:
208,102,111403,2,0,L|220:198,1,90,8|0,0:0|0:0,0:0:0:0:
392,164,111740,2,0,P|400:108|392:72,1,90,10|0,0:3|0:3,0:3:0:0:
244,16,112078,1,8,0:0:0:0:
220,192,112246,6,0,L|116:200,1,90,4|0,0:0|0:0,0:0:0:0:
48,144,112583,1,8,0:3:0:0:
108,288,112752,1,8,0:0:0:0:
136,96,112920,1,8,0:0:0:0:
12,244,113089,1,12,0:0:0:0:
220,192,113257,5,8,0:3:0:0:
220,192,113342,1,8,0:3:0:0:
220,192,113426,2,0,L|280:188,1,45,8|8,0:0|0:0,0:0:0:0:
352,300,113594,2,0,L|292:296,1,45,8|8,0:0|0:0,0:0:0:0:
448,136,113763,6,0,P|463:177|457:221,1,90,14|0,0:3|0:0,0:0:0:0:
329,109,114100,2,0,P|314:68|320:24,1,90,10|0,0:0|0:0,0:0:0:0:
472,52,114437,1,10,0:3:0:0:
354,192,114606,2,0,L|250:188,1,90,10|8,0:3|0:0,0:0:0:0:
108,108,114943,2,0,L|212:104,1,90,10|0,0:3|0:0,0:0:0:0:
200,272,115280,1,10,0:3:0:0:
72,192,115448,5,10,0:0:0:0:
272,196,115617,1,0,0:0:0:0:
272,196,115701,1,8,0:0:0:0:
272,196,115785,2,0,P|297:235|304:292,1,90,8|8,0:3|0:3,0:0:0:0:
64,326,116122,2,0,L|72:186,1,135,10|0,0:0|0:0,0:0:0:0:
24,120,116460,6,0,B|16:72|16:72|24:31,1,90,10|0,0:3|0:0,0:0:0:0:
208,72,116797,2,0,L|108:76,1,90,10|0,0:0|0:0,0:0:0:0:
284,16,117134,1,10,0:3:0:0:
288,208,117302,1,10,0:3:0:0:
208,72,117471,1,10,0:0:0:0:
368,172,117639,6,0,B|376:216|376:216|367:260,1,90,10|0,0:3|0:0,0:0:0:0:
220,372,117976,1,10,0:3:0:0:
288,208,118145,1,10,0:0:0:0:
408,352,118313,1,0,0:0:0:0:
408,352,118398,1,8,0:0:0:0:
408,352,118482,2,0,L|318:341,1,90,8|8,0:3|0:3,0:0:0:0:
154,285,118819,2,0,P|121:228|143:167,1,135,10|0,0:0|0:0,0:0:0:0:
199,222,119156,6,0,L|295:206,1,90,14|0,0:3|0:0,0:0:0:0:
436,264,119493,2,0,P|444:312|432:360,1,90,10|0,0:0|0:0,0:0:0:0:
287,207,119830,1,10,0:3:0:0:
432,144,119999,1,10,0:3:0:0:
344,284,120167,1,10,0:0:0:0:
288,120,120336,2,0,L|184:124,1,90,10|0,0:3|0:0,0:0:0:0:
20,132,120673,1,10,0:3:0:0:
192,32,120842,5,10,0:0:0:0:
136,216,121010,1,0,0:0:0:0:
136,216,121094,1,8,0:0:0:0:
136,216,121179,2,0,P|136:272|144:316,1,90,8|8,0:3|0:3,0:0:0:0:
256,356,121516,2,0,L|400:348,1,135,10|0,0:0|0:0,0:0:0:0:
452,300,121853,6,0,B|460:256|460:256|444:196,1,90,14|0,0:3|0:0,0:0:0:0:
336,116,122190,2,0,L|246:122,1,90,10|0,0:0|0:0,0:0:0:0:
208,272,122527,1,10,0:0:0:0:
360,204,122696,1,10,0:3:0:0:
176,184,122864,1,10,0:3:0:0:
367,293,123033,6,0,L|359:203,1,90,14|0,0:3|0:0,0:0:0:0:
256,368,123370,1,2,0:0:0:0:
432,356,123538,1,10,0:0:0:0:
240,280,123707,1,8,0:3:0:0:
224,276,123791,1,8,0:0:0:0:
208,272,123875,1,8,0:3:0:0:
68,356,124044,5,8,0:0:0:0:
84,352,124128,1,8,0:0:0:0:
100,348,124212,1,8,0:0:0:0:
168,188,124381,1,8,0:3:0:0:
16,256,124549,5,6,1:2:0:0:
159,89,124718,1,2,0:0:0:0:
108,260,124887,1,10,0:3:0:0:
16,96,125055,2,0,P|96:96|168:88,1,144,10|8,0:0|0:3,0:0:0:0:
320,40,125561,2,0,L|240:32,1,72,8|0,0:0|0:0,0:0:0:0:
256,156,125898,5,2,1:2:0:0:
368,204,126066,1,2,0:0:0:0:
384,200,126151,1,10,0:0:0:0:
400,196,126235,1,2,0:0:0:0:
240,168,126403,2,0,P|240:239|252:310,1,144,10|8,0:0|0:3,0:0:0:0:
368,176,126909,2,0,P|372:120|368:84,1,72,8|0,0:0|0:0,0:0:0:0:
248,24,127246,5,2,1:2:0:0:
240,168,127415,1,2,0:0:0:0:
332,28,127583,1,10,0:3:0:0:
192,92,127752,2,0,P|124:92|40:96,1,144,8|8,0:0|0:3,0:0:0:0:
8,232,128257,2,0,L|88:228,1,72,8|10,0:0|0:0,0:0:0:0:
96,228,128510,1,10,0:0:0:0:
112,228,128594,5,2,1:2:0:0:
220,344,128763,1,10,0:3:0:0:
228,184,128931,1,10,0:3:0:0:
144,308,129100,2,0,P|212:304|300:304,1,144,10|8,0:0|0:3,0:0:0:0:
416,372,129606,2,0,L|412:332,1,36,8|8,0:0|0:0,0:0:0:0:
472,264,129774,2,0,L|476:224,1,36,8|8,0:0|0:0,0:0:0:0:
456,140,129943,5,6,1:2:0:0:
288,96,130111,1,2,0:0:0:0:
452,44,130280,1,10,0:3:0:0:
344,172,130448,2,0,P|280:172|176:176,1,144,10|8,0:0|0:3,0:0:0:0:
64,272,130954,2,0,L|136:276,1,72,8|0,0:0|0:0,0:0:0:0:
240,348,131291,5,2,1:2:0:0:
352,288,131460,1,2,0:0:0:0:
348,272,131544,1,10,0:0:0:0:
344,256,131628,1,2,0:0:0:0:
224,364,131797,2,0,P|148:360|68:360,1,144,8|8,0:0|0:3,0:0:0:0:
20,256,132302,2,0,L|28:180,1,72,8|0,0:0|0:0,0:0:0:0:
96,40,132639,5,2,1:2:0:0:
152,200,132808,1,2,0:0:0:0:
24,92,132976,1,10,0:3:0:0:
180,120,133145,2,0,P|248:124|336:120,1,144,14|8,0:0|0:3,0:0:0:0:
444,24,133651,2,0,L|432:100,1,72,8|8,0:0|0:0,0:0:0:0:
436,108,133903,1,10,0:0:0:0:
440,120,133988,5,2,1:2:0:0:
412,292,134156,1,10,0:3:0:0:
508,220,134325,1,10,0:3:0:0:
340,188,134493,2,0,P|268:192|172:204,1,144,10|8,0:0|0:3,0:0:0:0:
72,320,134999,1,8,0:0:0:0:
83,295,135083,1,8,0:0:0:0:
88,269,135167,1,8,0:0:0:0:
88,242,135252,1,8,0:0:0:0:
80,216,135336,6,0,L|72:116,1,90,14|0,0:0|0:0,0:0:0:0:
64,36,135673,1,8,0:3:0:0:
196,200,135842,2,0,L|204:100,1,90,10|0,0:0|0:0,0:0:0:0:
212,20,136179,1,8,0:3:0:0:
370,95,136347,1,8,0:0:0:0:
353,110,136431,1,8,0:0:0:0:
334,121,136516,1,8,0:0:0:0:
312,128,136600,1,8,0:0:0:0:
290,131,136684,6,0,L|190:107,1,90,10|0,0:3|0:0,0:0:0:0:
120,156,137021,1,8,0:3:0:0:
296,232,137190,2,0,L|396:208,1,90,10|0,0:0|0:0,0:0:0:0:
473,246,137527,1,8,0:3:0:0:
280,324,137696,1,8,0:0:0:0:
248,312,137780,1,8,0:0:0:0:
223,290,137864,1,8,0:0:0:0:
312,156,138033,5,14,0:0:0:0:
384,312,138201,1,8,0:3:0:0:
396,116,138370,5,10,0:0:0:0:
280,324,138538,1,8,0:3:0:0:
216,100,138707,5,10,0:0:0:0:
396,328,138875,1,8,0:3:0:0:
440,28,139044,5,10,0:0:0:0:
449,60,139128,1,8,0:0:0:0:
451,93,139212,1,8,0:0:0:0:
445,126,139297,1,8,0:0:0:0:
431,157,139381,6,0,L|320:168,1,90,14|0,0:0|0:0,0:0:0:0:
341,165,139634,1,8,0:0:0:0:
341,165,139718,1,8,0:3:0:0:
110,127,139887,6,0,L|221:138,1,90,14|0,0:0|0:0,0:0:0:0:
199,135,140139,1,8,0:0:0:0:
199,135,140224,1,8,0:3:0:0:
348,292,140392,2,0,L|356:328,5,30,10|8|8|8|8|8,0:0|0:0|0:0|0:0|0:0|0:0,0:0:0:0:
340,348,140729,6,0,P|284:364|220:336,1,107.999996704102,6|0,0:0|0:0,0:0:0:0:
4,268,141066,2,0,L|128:252,1,107.999996704102,8|0,0:0|0:0,0:0:0:0:
256,176,141403,1,8,0:3:0:0:
144,348,141572,1,8,0:3:0:0:
148,140,141740,1,10,0:0:0:0:
264,316,141909,6,0,L|380:304,1,107.999996704102,10|0,0:3|0:0,0:0:0:0:
480,164,142246,2,0,L|364:152,1,107.999996704102,10|8,0:3|0:0,0:0:0:0:
151,178,142583,1,2,0:0:0:0:
151,178,142667,1,8,0:0:0:0:
151,178,142752,2,0,B|207:190|207:190|275:170,1,107.999996704102,8|10,0:3|0:3,0:3:0:0:
392,56,143089,1,8,0:0:0:0:
200,96,143257,1,2,0:0:0:0:
379,260,143426,6,0,L|371:128,1,107.999996704102,10|0,0:3|0:0,0:0:0:0:
151,178,143763,2,0,L|145:286,1,107.999996704102,10|0,0:0|0:0,0:0:0:0:
348,372,144100,1,10,0:3:0:0:
255,184,144269,2,0,P|203:169|150:178,1,107.999996704102,10|8,0:3|0:0,0:0:0:0:
44,312,144606,6,0,L|36:192,1,107.999996704102,10|0,0:3|0:0,0:0:0:0:
28,96,144943,1,8,0:3:0:0:
248,172,145111,2,0,P|180:180|136:164,1,107.999996704102,8|0,0:0|0:0,0:0:0:0:
143,168,145364,1,8,0:0:0:0:
143,168,145448,1,8,0:3:0:0:
336,128,145617,1,8,0:3:0:0:
256,376,145785,2,0,B|226:360|190:367|190:367|207:316|181:272,1,161.999995056153,10|0,0:0|0:0,0:0:0:0:
184,276,146122,6,0,L|300:280,1,107.999996704102,14|0,0:3|0:0,0:0:0:0:
484,132,146460,2,0,L|368:136,1,107.999996704102,8|0,0:0|0:0,0:0:0:0:
252,80,146797,1,10,0:3:0:0:
369,224,146965,1,8,0:3:0:0:
360,24,147134,1,8,0:0:0:0:
240,172,147302,6,0,P|180:180|124:160,1,107.999996704102,10|0,0:3|0:0,0:0:0:0:
32,40,147639,1,8,0:3:0:0:
250,64,147808,2,0,L|238:188,1,107.999996704102,10|0,0:0|0:0,0:0:0:0:
239,171,148061,1,8,0:0:0:0:
239,171,148145,1,10,0:3:0:0:
316,360,148313,1,10,0:3:0:0:
144,280,148482,1,8,0:0:0:0:
320,224,148651,1,2,0:0:0:0:
112,360,148819,6,0,L|4:352,1,107.999996704102,10|0,0:3|0:0,0:0:0:0:
212,231,149156,2,0,L|320:223,1,107.999996704102,10|0,0:0|0:0,0:0:0:0:
460,140,149493,1,10,0:3:0:0:
356,304,149662,1,10,0:3:0:0:
352,88,149830,1,8,0:0:0:0:
507,232,149999,6,0,P|456:244|404:228,1,107.999996704102,14|0,0:3|0:0,0:0:0:0:
256,88,150336,1,10,0:3:0:0:
463,32,150504,2,0,L|459:148,1,107.999996704102,12|8,0:0|0:0,0:0:0:0:
352,164,150757,2,0,L|356:96,1,53.9999983520508,8|8,0:0|0:0,0:0:0:0:
252,34,150926,2,0,L|256:90,1,53.9999983520508,8|8,0:0|0:0,0:0:0:0:
270,330,151179,1,10,0:0:0:0:
239,366,151263,1,8,0:0:0:0:
193,362,151347,1,8,0:0:0:0:
170,320,151431,1,8,0:0:0:0:
193,278,151516,6,0,L|184:168,1,107.999996704102,6|0,0:0|0:0,0:0:0:0:
312,20,151853,2,0,L|302:127,1,107.999996704102,12|0,0:0|0:0,0:0:0:0:
456,204,152190,1,8,0:3:0:0:
276,212,152358,1,8,0:3:0:0:
432,124,152527,1,10,0:0:0:0:
332,292,152696,6,0,P|272:308|216:288,1,107.999996704102,10|0,0:3|0:0,0:0:0:0:
36,180,153033,2,0,P|96:164|152:184,1,107.999996704102,10|8,0:3|0:0,0:0:0:0:
96,372,153370,1,2,0:0:0:0:
96,372,153454,1,8,0:0:0:0:
96,372,153538,2,0,L|88:256,1,107.999996704102,8|10,0:3|0:3,0:3:0:0:
156,72,153875,1,8,0:0:0:0:
276,212,154044,1,2,0:0:0:0:
56,160,154212,6,0,L|188:168,1,107.999996704102,10|0,0:3|0:0,0:0:0:0:
376,104,154549,2,0,L|244:112,1,107.999996704102,10|0,0:0|0:0,0:0:0:0:
352,276,154887,1,10,0:3:0:0:
460,132,155055,1,10,0:3:0:0:
276,212,155224,1,8,0:0:0:0:
456,328,155392,6,0,P|464:272|444:208,1,107.999996704102,14|0,0:3|0:0,0:0:0:0:
216,304,155729,1,8,0:3:0:0:
380,376,155898,1,8,0:0:0:0:
280,216,156066,1,0,0:0:0:0:
280,216,156151,1,8,0:0:0:0:
280,216,156235,2,0,L|160:220,1,107.999996704102,8|8,0:3|0:3,0:3:0:0:
16,192,156572,1,10,0:0:0:0:
100,376,156740,1,8,0:0:0:0:
100,376,156825,1,8,0:0:0:0:
100,376,156909,6,0,L|96:256,1,107.999996704102,14|0,0:3|0:0,0:0:0:0:
92,136,157246,1,8,0:0:0:0:
283,108,157415,1,8,0:0:0:0:
283,108,157499,1,8,0:0:0:0:
283,108,157583,6,0,L|279:215,1,107.999996704102,10|8,0:3|0:3,0:3:0:0:
275,348,157920,1,10,0:0:0:0:
96,268,158089,1,8,0:0:0:0:
96,268,158173,1,8,0:0:0:0:
96,268,158257,6,0,L|92:160,1,107.999996704102,6|0,0:0|0:0,0:0:0:0:
286,0,158594,2,0,L|282:107,1,107.999996704102,8|2,0:0|0:0,0:0:0:0:
352,331,158931,1,8,0:3:0:0:
384,336,159016,1,8,0:3:0:0:
416,328,159100,1,8,0:3:0:0:
440,308,159184,1,8,0:3:0:0:
452,276,159269,5,8,0:0:0:0:
432,224,159353,1,8,0:0:0:0:
428,172,159437,1,8,0:0:0:0:
444,120,159521,1,8,0:0:0:0:
480,80,159606,5,12,0:0:0:0:
256,192,159690,12,0,163651,0:0:0:0:
420,132,165336,5,2,0:0:0:0:
400,124,166010,1,2,0:0:0:0:
284,328,166684,5,2,0:0:0:0:
304,320,167358,1,2,0:0:0:0:
136,180,168033,5,2,0:0:0:0:
116,172,168707,1,2,0:0:0:0:
256,192,169044,5,8,0:0:0:0:
216,80,169212,1,8,0:3:0:0:
180,296,169381,1,6,0:0:0:0:
380,220,169549,1,8,0:3:0:0:
136,180,169718,1,8,0:3:0:0:
305,319,169887,1,8,0:3:0:0:
340,108,170055,2,0,L|444:96,1,101.250003862381,12|0,0:0|0:0,0:0:0:0:
472,92,170392,5,14,0:3:0:0:
456,300,170561,1,0,0:3:0:0:
312,208,170729,1,10,0:0:0:0:
496,180,170898,1,0,0:3:0:0:
304,356,171066,5,10,0:3:0:0:
408,172,171235,1,8,0:3:0:0:
404,372,171403,1,10,0:0:0:0:
236,264,171572,1,0,0:3:0:0:
472,272,171740,6,0,L|368:280,1,90,10|0,0:3|0:0,0:0:0:0:
250,101,172078,2,0,L|354:109,1,90,10|0,0:0|0:0,0:0:0:0:
300,328,172415,2,0,P|288:276|304:224,1,90,10|8,0:3|0:3,0:0:0:0:
428,60,172752,2,0,P|440:112|424:164,1,90,10|0,0:0|0:0,0:0:0:0:
382,278,173089,5,10,0:3:0:0:
339,107,173257,1,0,0:0:0:0:
192,192,173426,1,10,0:0:0:0:
360,192,173594,1,0,0:0:0:0:
156,96,173763,5,10,0:3:0:0:
202,274,173931,1,8,0:3:0:0:
250,101,174100,1,10,0:0:0:0:
103,227,174269,1,0,0:0:0:0:
281,345,174437,6,0,L|285:237,1,90,10|0,0:3|0:0,0:0:0:0:
103,227,174774,2,0,L|106:316,1,90,10|0,0:0|0:0,0:0:0:0:
284,255,175111,2,8,L|288:147,1,90,10|8,0:3|0:3,0:3:0:0:
156,96,175448,1,10,0:0:0:0:
106,316,175617,1,2,0:0:0:0:
106,316,175701,1,2,0:0:0:0:
106,316,175785,5,14,0:3:0:0:
292,112,175954,1,0,0:0:0:0:
199,378,176122,1,10,0:0:0:0:
60,144,176291,1,0,0:0:0:0:
292,280,176460,6,0,L|396:284,1,90,10|8,0:3|0:3,0:3:0:0:
149,140,176797,2,0,L|45:144,1,90,10|0,0:0|0:0,0:0:0:0:
164,336,177134,5,10,0:3:0:0:
236,104,177302,1,0,0:0:0:0:
256,368,177471,1,10,0:0:0:0:
149,140,177639,1,0,0:0:0:0:
381,283,177808,6,0,P|437:279|469:271,1,90,10|8,0:3|0:3,0:3:0:0:
237,152,178145,2,0,P|193:141|148:139,1,90,10|0,0:0|0:0,0:0:0:0:
36,332,178482,5,14,0:0:0:0:
280,232,178651,1,8,0:3:0:0:
28,152,178819,1,14,0:0:0:0:
232,372,178988,6,0,L|228:304,1,45,8|8,0:0|0:0,0:0:0:0:
184,164,179156,1,10,0:0:0:0:
496,268,179325,6,0,L|436:276,1,45,8|8,0:0|0:0,0:0:0:0:
168,160,179493,1,10,0:0:0:0:
456,36,179662,1,8,0:3:0:0:
460,184,179830,6,0,L|376:168,1,60,12|0,0:0|0:0,0:0:0:0:
272,100,180055,2,0,L|356:84,1,60,8|0,0:0|0:0,0:0:0:0:
216,192,180280,2,0,L|132:176,1,60,8|0,0:0|0:0,0:0:0:0:
48,280,180504,6,0,B|44:312|44:312|48:356,1,60,12|0,0:0|0:0,0:0:0:0:
157,180,180729,2,0,B|132:160|132:160|92:142,1,60,8|0,0:0|0:0,0:0:0:0:
189,326,180954,2,0,B|219:313|219:313|255:288,1,60,8|0,0:0|0:0,0:0:0:0:
312,132,181179,6,0,P|292:188|300:232,1,90,14|0,0:0|0:0,0:0:0:0:
384,192,181516,1,8,0:3:0:0:
484,312,181684,2,0,P|486:267|468:226,1,90,10|0,0:0|0:0,0:0:0:0:
396,286,182021,1,8,0:3:0:0:
296,217,182190,1,10,0:0:0:0:
293,195,182274,1,8,0:0:0:0:
294,172,182358,1,8,0:0:0:0:
301,151,182443,1,8,0:0:0:0:
312,132,182527,6,0,L|416:112,1,90,10|0,0:3|0:0,0:0:0:0:
488,96,182864,1,8,0:3:0:0:
396,286,183033,2,0,L|292:266,1,90,10|0,0:0|0:0,0:0:0:0:
220,250,183370,1,8,0:3:0:0:
88,352,183538,1,10,0:0:0:0:
112,348,183622,1,8,0:0:0:0:
136,344,183707,1,8,0:0:0:0:
52,188,183875,5,14,0:0:0:0:
252,364,184044,1,8,0:3:0:0:
216,108,184212,5,10,0:0:0:0:
136,344,184381,1,8,0:3:0:0:
80,96,184549,5,10,0:0:0:0:
308,269,184718,1,8,0:3:0:0:
230,20,184887,5,10,0:0:0:0:
227,42,184971,1,8,0:0:0:0:
223,64,185055,1,8,0:0:0:0:
219,86,185139,1,8,0:0:0:0:
216,108,185224,6,0,P|252:152|284:160,1,90,14|0,0:0|0:0,0:0:0:0:
360,148,185476,2,0,L|356:248,1,90,8|0,0:0|0:0,0:0:0:0:
316,304,185729,2,0,L|264:308,1,45,8|0,0:0|0:0,0:0:0:0:
176,360,185898,2,0,L|80:356,1,90,10|8,0:0|0:3,0:0:0:0:
87,356,186151,1,8,0:0:0:0:
87,356,186235,1,8,0:0:0:0:
200,232,186403,1,8,0:0:0:0:
200,232,186488,1,8,0:0:0:0:
200,232,186572,5,14,0:3:0:0:
300,192,189100,6,0,B|324:192|324:192|358:203,1,45,8|8,0:0|0:0,0:0:0:0:
168,240,189269,2,0,P|144:188|176:104,1,135,12|0,0:0|0:0,0:0:0:0:
280,24,189606,2,0,L|336:32,1,45,8|8,0:0|0:3,0:0:0:0:
472,84,189774,2,0,L|416:92,1,45,8|8,0:0|0:3,0:0:0:0:
300,192,189943,2,0,L|292:136,1,45,8|8,0:0|0:3,0:0:0:0:
404,272,190111,1,8,0:0:0:0:
400,296,190448,6,0,B|352:304|352:304|272:284|272:284|212:296,1,180,12|0,0:0|0:0,0:0:0:0:
216,320,190870,1,8,0:0:0:0:
208,344,190954,5,8,0:0:0:0:
159,356,191038,1,8,0:0:0:0:
111,343,191122,1,8,0:3:0:0:
75,308,191207,1,8,0:3:0:0:
61,260,191291,5,12,0:3:0:0:
72,211,191375,1,8,0:0:0:0:
106,174,191460,1,8,0:0:0:0:
154,158,191544,1,8,0:0:0:0:
203,168,191628,5,10,0:0:0:0:
267,182,191712,1,8,0:0:0:0:
325,150,191797,1,8,0:0:0:0:
346,87,191881,1,8,0:0:0:0:
319,27,191965,6,0,B|376:40|376:40|432:32,1,107.999996704102,14|0,0:0|0:0,0:0:0:0:
373,187,192302,2,0,B|316:174|316:174|260:182,1,107.999996704102,8|0,0:0|0:0,0:0:0:0:
160,336,192639,1,10,0:3:0:0:
312,260,192808,1,8,0:3:0:0:
112,248,192976,1,8,0:0:0:0:
319,367,193145,6,0,L|311:251,1,107.999996704102,10|0,0:3|0:0,0:0:0:0:
300,84,193482,1,8,0:3:0:0:
488,208,193651,2,0,P|428:216|376:188,1,107.999996704102,10|0,0:0|0:0,0:0:0:0:
386,196,193903,1,8,0:0:0:0:
386,196,193988,1,10,0:3:0:0:
360,20,194156,1,10,0:3:0:0:
256,180,194325,1,8,0:0:0:0:
448,120,194493,1,2,0:0:0:0:
232,32,194662,6,0,B|176:28|176:28|112:48,1,107.999996704102,10|0,0:3|0:0,0:0:0:0:
12,192,194999,2,0,B|61:207|61:207|117:203,1,107.999996704102,10|0,0:0|0:0,0:0:0:0:
256,136,195336,1,10,0:3:0:0:
200,364,195504,2,0,L|204:244,1,107.999996704102,10|8,0:3|0:0,0:0:0:0:
384,128,195842,2,0,L|387:235,1,107.999996704102,6|0,0:0|0:0,0:0:0:0:
396,368,196179,1,10,0:3:0:0:
164,168,196347,6,0,P|228:164|280:196,1,107.999996704102,14|8,0:0|0:0,0:0:0:0:
320,288,196600,2,0,L|316:348,1,53.9999983520508,8|8,0:0|0:0,0:0:0:0:
207,309,196769,2,0,L|203:255,1,53.9999983520508,8|8,0:0|0:0,0:0:0:0:
296,60,197021,1,10,0:0:0:0:
341,88,197106,1,8,0:0:0:0:
394,94,197190,1,8,0:0:0:0:
445,77,197274,1,8,0:0:0:0:
483,39,197358,6,0,L|480:156,1,107.999996704102,14|0,0:0|0:0,0:0:0:0:
396,368,197696,2,0,L|392:260,1,107.999996704102,12|0,0:0|0:0,0:0:0:0:
296,60,198033,1,8,0:3:0:0:
480,147,198201,1,8,0:3:0:0:
256,192,198370,1,10,0:0:0:0:
392,8,198538,6,0,P|404:64|380:128,1,107.999996704102,10|0,0:3|0:0,0:0:0:0:
257,295,198875,2,0,P|243:243|255:191,1,107.999996704102,10|8,0:3|0:0,0:0:0:0:
464,240,199212,1,2,0:0:0:0:
464,240,199297,1,8,0:0:0:0:
464,240,199381,2,0,L|348:244,1,107.999996704102,8|10,0:3|0:3,0:0:0:0:
168,336,199718,1,8,0:0:0:0:
368,340,199887,1,2,0:0:0:0:
236,144,200055,6,0,P|228:200|248:264,1,107.999996704102,10|0,0:3|0:0,0:0:0:0:
344,56,200392,2,0,P|299:21|234:6,1,107.999996704102,10|0,0:0|0:0,0:0:0:0:
48,104,200729,1,10,0:3:0:0:
236,144,200898,1,10,0:3:0:0:
76,16,201066,1,8,0:0:0:0:
160,228,201235,6,0,L|156:116,1,107.999996704102,14|0,0:3|0:0,0:0:0:0:
32,232,201572,1,8,0:3:0:0:
232,296,201740,1,8,0:0:0:0:
48,332,201909,1,0,0:0:0:0:
48,332,201993,1,8,0:0:0:0:
48,332,202078,2,0,B|96:352|96:352|164:340,1,107.999996704102,8|8,0:3|0:3,0:3:0:0:
352,304,202415,1,10,0:0:0:0:
345,264,202499,1,8,0:0:0:0:
343,223,202583,1,8,0:0:0:0:
344,183,202667,1,8,0:0:0:0:
350,143,202752,6,0,L|468:136,1,107.999996704102,14|0,0:0|0:0,0:0:0:0:
276,40,203089,1,10,0:0:0:0:
248,248,203257,1,0,0:0:0:0:
176,68,203426,1,14,0:3:0:0:
176,68,203510,1,8,0:0:0:0:
176,68,203594,1,8,0:0:0:0:
184,312,203763,1,10,0:3:0:0:
350,143,203931,1,8,0:3:0:0:
56,204,204100,6,0,L|180:192,1,107.999996704102,14|0,0:3|0:0,0:0:0:0:
243,134,204353,1,8,0:0:0:0:
243,134,204437,2,0,B|287:138|287:138|307:146|307:146|363:142,1,107.999996704102,8|8,0:3|0:3,0:0:0:0:
472,36,204774,1,14,0:0:0:0:
355,196,204943,6,0,L|347:124,1,53.9999983520508,8|8,0:3|0:3,0:0:0:0:
496,280,205111,1,10,0:0:0:0:
481,331,205196,1,8,0:0:0:0:
440,364,205280,1,8,0:0:0:0:
387,368,205364,1,8,0:0:0:0:
342,340,205448,6,0,B|312:340|312:340|288:348|288:348|248:348,1,80.9999975280763,10|0,0:3|0:0,0:0:0:0:
184,352,205785,6,0,P|124:356|152:268,1,161.999995056153,14|8,0:0|0:3,0:0:0:0:
196,236,206122,2,0,L|204:176,1,53.9999983520508,8|8,0:3|0:3,0:3:0:0:
300,80,206291,2,0,L|307:133,1,53.9999983520508,8|8,0:3|0:3,0:3:0:0:
152,108,206460,2,0,L|159:54,1,53.9999983520508,10|8,0:3|0:3,0:3:0:0:
284,224,206628,2,0,L|392:220,1,107.999996704102,14|0,0:0|0:0,0:0:0:0:
476,376,206965,5,10,0:3:0:0:
196,304,207134,1,8,0:0:0:0:
372,40,207302,5,10,0:0:0:0:
408,316,207471,1,8,0:0:0:0:
120,192,207639,5,10,0:0:0:0:
432,180,207808,1,8,0:0:0:0:
380,192,207892,1,8,0:0:0:0:
328,192,207976,1,10,0:0:0:0:
283,164,208061,1,8,0:0:0:0:
248,124,208145,6,0,L|240:12,1,107.999996704102,14|0,0:0|0:0,0:0:0:0:
72,96,208482,2,0,L|63:203,1,107.999996704102,10|0,0:0|0:0,0:0:0:0:
48,360,208819,1,10,0:3:0:0:
248,248,208988,2,0,B|192:236|192:236|116:244,1,107.999996704102,10|8,0:3|0:0,0:0:0:0:
352,360,209325,6,0,L|460:344,1,107.999996704102,14|0,0:3|0:0,0:0:0:0:
484,192,209662,1,8,0:3:0:0:
264,192,209830,2,0,P|320:220|380:224,1,107.999996704102,8|0,0:0|0:0,0:0:0:0:
364,225,210083,1,8,0:0:0:0:
364,225,210167,1,8,0:3:0:0:
220,60,210336,1,8,0:3:0:0:
69,246,210504,2,0,B|41:230|8:238|8:238|36:190|7:136,1,161.999995056153,10|0,0:0|0:0,0:0:0:0:
10,143,210842,6,0,L|134:127,1,107.999996704102,14|0,0:3|0:0,0:0:0:0:
371,205,211179,2,0,L|247:189,1,107.999996704102,8|0,0:0|0:0,0:0:0:0:
64,240,211516,1,10,0:3:0:0:
195,92,211684,1,8,0:3:0:0:
208,320,211853,1,8,0:0:0:0:
20,152,212021,6,0,P|80:144|132:168,1,107.999996704102,10|0,0:3|0:0,0:0:0:0:
112,328,212358,1,8,0:3:0:0:
292,216,212527,2,0,L|180:232,1,107.999996704102,10|0,0:0|0:0,0:0:0:0:
185,231,212780,1,8,0:0:0:0:
185,231,212864,1,10,0:3:0:0:
368,328,213033,1,10,0:3:0:0:
344,96,213201,1,8,0:0:0:0:
256,316,213370,1,2,0:0:0:0:
484,216,213538,6,0,P|424:204|372:208,1,107.999996704102,10|0,0:3|0:0,0:0:0:0:
237,105,213875,2,0,P|290:107|343:95,1,107.999996704102,10|0,0:0|0:0,0:0:0:0:
484,64,214212,1,10,0:3:0:0:
400,312,214381,1,10,0:3:0:0:
237,105,214549,1,8,0:0:0:0:
507,324,214718,6,0,P|423:312|367:316,1,107.999996704102,6|0,0:0|0:0,0:0:0:0:
172,356,215055,1,10,0:3:0:0:
343,95,215224,2,0,L|335:211,1,107.999996704102,10|8,0:0|0:0,0:0:0:0:
392,296,215476,2,0,L|396:368,1,53.9999983520508,8|8,0:0|0:0,0:0:0:0:
280,372,215645,2,0,L|282:318,1,53.9999983520508,8|8,0:0|0:0,0:0:0:0:
96,76,215898,1,10,0:0:0:0:
51,112,215982,1,8,0:0:0:0:
32,166,216066,1,8,0:0:0:0:
39,223,216151,1,8,0:0:0:0:
72,268,216235,6,0,L|228:251,1,107.999996704102,14|0,0:0|0:0,0:0:0:0:
343,95,216572,2,0,L|230:83,1,107.999996704102,12|0,0:0|0:0,0:0:0:0:
344,244,216909,1,8,0:3:0:0:
436,36,217078,1,8,0:3:0:0:
272,172,217246,1,10,0:0:0:0:
448,300,217415,6,0,B|460:244|460:244|444:172,1,107.999996704102,10|0,0:3|0:0,0:0:0:0:
260,264,217752,2,0,B|248:313|248:313|260:369,1,107.999996704102,10|8,0:3|0:0,0:0:0:0:
360,172,218089,1,2,0:0:0:0:
360,172,218173,1,8,0:0:0:0:
360,172,218257,2,0,L|352:60,1,107.999996704102,8|10,0:3|0:3,0:3:0:0:
168,160,218594,1,8,0:0:0:0:
355,276,218763,1,2,0:0:0:0:
244,16,218931,6,0,P|236:84|256:132,1,107.999996704102,10|0,0:3|0:0,0:0:0:0:
355,276,219269,2,0,P|369:224|359:171,1,107.999996704102,10|0,0:0|0:0,0:0:0:0:
172,236,219606,1,10,0:3:0:0:
312,368,219774,1,10,0:3:0:0:
359,171,219943,1,8,0:0:0:0:
184,360,220111,6,0,L|68:352,1,107.999996704102,14|0,0:3|0:0,0:0:0:0:
24,192,220448,1,8,0:3:0:0:
279,228,220617,2,0,L|163:236,1,107.999996704102,8|0,0:0|0:0,0:0:0:0:
171,235,220870,1,8,0:0:0:0:
171,235,220954,1,8,0:0:0:0:
28,96,221122,1,8,0:0:0:0:
200,40,221291,1,10,0:3:0:0:
88,196,221460,1,8,0:3:0:0:
216,36,221628,6,0,B|264:16|308:44|308:44|352:68|408:44,1,180,14|8,0:3|0:3,0:0:0:0:
492,112,222134,1,0,0:0:0:0:
412,252,222302,2,0,L|400:144,1,90,10|0,0:0|0:0,0:0:0:0:
504,272,222639,2,0,L|494:361,1,90,2|8,0:0|0:0,0:0:0:0:
272,368,222976,6,0,P|264:272|340:208,1,180,10|8,0:3|0:3,0:0:0:0:
360,312,223482,1,0,0:0:0:0:
176,264,223651,2,0,L|80:272,1,90,10|0,0:0|0:0,0:0:0:0:
24,144,223988,2,0,L|120:152,1,90,2|8,0:0|0:0,0:0:0:0:
276,120,224325,6,0,P|288:80|276:24,1,90,14|0,0:3|0:0,0:0:0:0:
109,64,224662,2,0,P|101:107|113:150,1,90,10|0,0:3|0:0,0:0:0:0:
292,248,224999,1,10,0:0:0:0:
188,104,225167,1,8,0:3:0:0:
232,320,225336,1,10,0:0:0:0:
276,120,225504,1,8,0:3:0:0:
236,336,225673,5,14,0:3:0:0:
240,348,226010,5,8,0:0:0:0:
188,104,226179,1,8,0:0:0:0:
312,316,226347,5,8,0:0:0:0:
28,272,226516,1,8,0:3:0:0:
316,232,226684,1,8,0:0:0:0:
338,235,226769,1,8,0:0:0:0:
358,245,226853,1,8,0:0:0:0:
375,260,226937,1,8,0:0:0:0:
388,280,227021,6,0,L|484:264,1,90,6|0,1:2|0:0,0:0:0:0:
476,265,227274,1,2,0:0:0:0:
476,265,227358,1,10,0:0:0:0:
432,96,227527,1,2,0:0:0:0:
316,232,227696,1,10,0:3:0:0:
496,172,227864,1,10,0:3:0:0:
348,56,228033,1,10,0:0:0:0:
312,252,228201,6,0,L|316:356,1,90,10|0,0:3|0:0,0:0:0:0:
208,196,228538,2,0,L|211:106,1,90,10|8,0:3|0:0,0:0:0:0:
136,300,228875,1,2,0:0:0:0:
122,341,228960,1,10,0:0:0:0:
83,362,229044,1,10,0:3:0:0:
41,350,229128,1,2,0:0:0:0:
18,313,229212,1,10,0:3:0:0:
27,270,229297,1,2,0:0:0:0:
63,245,229381,2,0,B|68:200|68:200|48:152,1,90,10|0,0:0|0:0,0:0:0:0:
160,52,229718,6,0,L|260:44,1,90,2|0,1:2|0:0,0:0:0:0:
296,44,229971,1,2,0:0:0:0:
296,44,230055,1,10,0:0:0:0:
416,136,230224,1,2,0:0:0:0:
328,272,230392,1,10,0:3:0:0:
272,128,230561,1,10,0:3:0:0:
408,228,230729,1,10,0:0:0:0:
256,332,230898,6,0,L|152:324,1,90,10|0,0:3|0:0,0:0:0:0:
16,200,231235,2,0,L|120:192,1,90,10|8,0:3|0:0,0:0:0:0:
256,128,231572,1,10,0:3:0:0:
300,116,231656,1,10,0:0:0:0:
344,124,231740,1,8,0:3:0:0:
424,296,231909,1,10,0:3:0:0:
380,284,231993,1,10,0:3:0:0:
336,272,232078,1,10,0:0:0:0:
223,356,232246,1,8,0:0:0:0:
223,356,232330,1,8,0:0:0:0:
223,356,232415,6,0,L|116:352,1,90,6|0,1:2|0:0,0:0:0:0:
88,352,232667,1,0,0:0:0:0:
88,352,232752,1,8,0:0:0:0:
28,152,232920,1,2,0:0:0:0:
188,256,233089,1,10,0:3:0:0:
12,236,233257,1,10,0:3:0:0:
176,144,233426,1,10,0:0:0:0:
88,352,233594,6,0,P|80:304|104:248,1,90,10|0,0:3|0:0,0:0:0:0:
252,96,233931,2,0,P|264:138|255:182,1,90,10|8,0:3|0:0,0:0:0:0:
88,132,234269,1,2,0:0:0:0:
44,130,234353,1,10,0:0:0:0:
12,100,234437,1,10,0:3:0:0:
9,56,234521,1,2,0:0:0:0:
37,22,234606,1,10,0:3:0:0:
80,15,234690,1,2,0:0:0:0:
117,40,234774,2,0,L|208:28,1,90,10|0,0:0|0:0,0:0:0:0:
388,112,235111,6,0,L|297:100,1,90,2|0,1:2|0:0,0:0:0:0:
252,96,235364,1,2,0:0:0:0:
252,96,235448,1,10,0:0:0:0:
400,24,235617,1,2,0:0:0:0:
336,224,235785,1,10,0:3:0:0:
308,16,235954,1,10,0:3:0:0:
472,76,236122,1,10,0:0:0:0:
268,180,236291,6,0,B|216:184|216:184|172:172,1,90,14|0,0:3|0:0,0:0:0:0:
20,104,236628,2,0,B|56:94|56:94|108:98,1,90,10|12,0:3|0:0,0:0:0:0:
268,180,236965,1,2,0:0:0:0:
268,180,237049,1,10,0:3:0:0:
268,180,237134,2,0,L|272:240,1,45,10|8,0:0|0:3,0:0:0:0:
364,136,237302,2,0,L|366:91,1,45,10|10,0:3|0:3,0:3:0:0:
440,200,237471,5,10,0:0:0:0:
455,242,237555,1,8,0:0:0:0:
451,286,237639,1,8,0:0:0:0:
429,325,237724,1,8,0:0:0:0:
393,351,237808,6,0,L|288:344,1,90,6|0,1:2|0:0,0:0:0:0:
256,344,238061,1,2,0:0:0:0:
256,344,238145,1,14,0:0:0:0:
80,260,238313,1,2,0:0:0:0:
256,200,238482,1,10,0:3:0:0:
152,360,238651,1,10,0:3:0:0:
152,164,238819,1,10,0:0:0:0:
316,264,238988,6,0,P|368:268|420:252,1,90,10|0,0:3|0:0,0:0:0:0:
240,168,239325,2,0,P|196:158|151:163,1,90,10|8,0:3|0:0,0:0:0:0:
16,244,239662,1,2,0:0:0:0:
7,287,239746,1,10,0:0:0:0:
32,323,239830,1,10,0:3:0:0:
75,331,239915,1,2,0:0:0:0:
111,306,239999,1,10,0:3:0:0:
119,263,240083,1,2,0:0:0:0:
93,227,240167,2,0,B|75:183|75:183|71:131,1,90,10|0,0:0|0:0,0:0:0:0:
122,28,240504,6,0,L|212:32,1,90,2|0,1:2|0:0,0:0:0:0:
257,35,240757,1,2,0:0:0:0:
257,35,240842,1,10,0:0:0:0:
416,128,241010,1,2,0:0:0:0:
240,168,241179,1,10,0:3:0:0:
384,40,241347,1,10,0:3:0:0:
416,236,241516,1,10,0:0:0:0:
240,168,241684,6,0,P|288:156|340:164,1,90,10|0,0:3|0:0,0:0:0:0:
503,243,242021,2,0,P|458:246|415:235,1,90,10|8,0:3|0:0,0:0:0:0:
424,52,242358,1,10,0:0:0:0:
420,96,242443,1,10,0:0:0:0:
417,141,242527,1,10,0:3:0:0:
247,258,242696,1,10,0:3:0:0:
243,213,242780,1,2,0:0:0:0:
240,168,242864,2,0,L|232:72,1,90,10|0,0:0|0:0,0:0:0:0:
56,240,243201,6,0,P|96:252|160:232,1,90,6|0,1:2|0:0,0:0:0:0:
180,220,243454,1,2,0:0:0:0:
180,220,243538,1,10,0:0:0:0:
16,152,243707,1,2,0:0:0:0:
104,348,243875,1,10,0:3:0:0:
104,148,244044,1,10,0:3:0:0:
8,312,244212,1,10,0:0:0:0:
184,344,244381,6,0,L|280:336,1,90,10|0,0:3|0:0,0:0:0:0:
412,200,244718,2,0,L|322:192,1,90,10|8,0:3|0:0,0:0:0:0:
104,148,245055,1,2,0:0:0:0:
67,172,245139,1,10,0:0:0:0:
59,215,245224,1,10,0:3:0:0:
85,251,245308,1,2,0:0:0:0:
128,257,245392,1,10,0:3:0:0:
163,231,245476,1,2,0:0:0:0:
168,188,245561,2,0,B|160:92,1,90,10|0,0:0|0:0,0:0:0:0:
334,56,245898,6,0,B|326:145,1,90,6|0,1:2|0:0,0:0:0:0:
322,192,246151,1,2,0:0:0:0:
322,192,246235,1,10,0:0:0:0:
360,368,246403,1,2,0:0:0:0:
412,200,246572,1,10,0:3:0:0:
264,340,246740,1,10,0:3:0:0:
472,304,246909,1,10,0:0:0:0:
272,256,247078,6,0,P|220:268|192:296,1,90,14|0,0:3|0:0,0:0:0:0:
16,340,247415,2,0,L|116:352,1,90,10|12,0:3|0:0,0:0:0:0:
272,256,247752,1,2,0:0:0:0:
284,212,247836,1,10,0:0:0:0:
264,172,247920,1,10,0:0:0:0:
172,20,248089,1,10,0:3:0:0:
152,60,248173,1,2,0:0:0:0:
164,104,248257,2,0,L|224:100,1,45,10|8,0:0|0:0,0:0:0:0:
348,60,248426,2,0,L|288:56,1,45,8|8,0:0|0:0,0:0:0:0:
264,172,248594,6,0,B|324:176|324:176|340:168|340:168|408:172,1,144,14|8,0:3|0:3,0:0:0:0:
488,256,249100,1,2,0:0:0:0:
488,256,249269,2,0,P|492:304|480:336,1,72,8|0,0:3|0:0,0:0:0:0:
324,296,249606,2,0,L|412:284,1,72,10|8,0:3|0:0,0:0:0:0:
395,286,249858,1,8,0:0:0:0:
395,286,249943,5,10,0:3:0:0:
284,376,250111,1,0,0:0:0:0:
228,300,250280,2,0,P|240:252|260:224,1,72,8|2,0:3|0:0,0:0:0:0:
200,156,250617,2,0,P|247:142|281:145,1,72,8|2,0:3|0:0,0:0:0:0:
284,148,250870,1,0,0:0:0:0:
300,152,250954,2,0,L|356:148,1,36,10|0,0:3|0:0,0:0:0:0:
420,180,251122,1,8,0:0:0:0:
420,180,251207,1,8,0:0:0:0:
420,180,251291,6,0,B|416:124|416:124|428:92|428:92|424:24,1,144,10|8,0:3|0:3,0:0:0:0:
300,24,251797,1,2,0:0:0:0:
263,145,251965,2,0,L|343:149,1,72,8|0,0:3|0:0,0:0:0:0:
196,76,252302,2,0,L|116:80,1,72,10|8,0:3|0:0,0:0:0:0:
124,79,252555,1,8,0:0:0:0:
124,79,252639,5,10,0:3:0:0:
56,188,252808,1,0,0:0:0:0:
156,232,252976,2,0,P|164:184|156:144,1,72,8|2,0:3|0:0,0:0:0:0:
72,288,253313,1,8,0:3:0:0:
292,344,253482,5,8,0:0:0:0:
72,368,253651,1,8,0:0:0:0:
256,172,253819,1,8,0:0:0:0:
