osu file format v14

[General]
AudioFilename: audio.mp3
AudioLeadIn: 0
PreviewTime: 62022
Countdown: 0
SampleSet: Soft
StackLeniency: 0.7
Mode: 0
LetterboxInBreaks: 0
WidescreenStoryboard: 1

[Editor]
DistanceSpacing: 1
BeatDivisor: 4
GridSize: 32
TimelineZoom: 1.299999

[Metadata]
Title:Kimagure Stardom
TitleUnicode:気まぐれスターダム
Artist:Nishizawa-sanP x Rib
ArtistUnicode:西沢さんP×りぶ
Creator:arronchu1207
Version:Normal
Source:
Tags:Rib on TOKOTOKO Nishizawa san P zawaso Glaceon Japanese rock jrock j-rock utaite
BeatmapID:2056967
BeatmapSetID:981332

[Difficulty]
HPDrainRate:3
CircleSize:3
OverallDifficulty:4
ApproachRate:5
SliderMultiplier:1
SliderTickRate:1

[Events]
//Background and Video events
0,0,"1920.jpg",0,0
//Break Periods
2,84300,101776
2,163851,167844
2,186772,188069
//Storyboard Layer 0 (Background)
//Storyboard Layer 1 (Fail)
//Storyboard Layer 2 (Pass)
//Storyboard Layer 3 (Foreground)
//Storyboard Layer 4 (Overlay)
//Storyboard Sound Samples

[TimingPoints]
505,337.078651685393,4,2,1,50,1,0
1179,-100,4,2,1,70,0,0
23426,-100,4,2,1,60,0,0
23763,-100,4,2,1,5,0,0
23931,-100,4,2,1,60,0,0
24100,-100,4,2,1,70,0,0
24774,-100,4,2,1,50,0,0
35561,-100,4,2,1,60,0,0
61179,-100,4,2,1,70,0,0
62527,-100,4,2,1,80,0,1
81403,-100,4,2,1,70,0,0
102976,-100,4,2,1,50,0,0
108370,-100,4,2,1,60,0,0
135336,-100,4,2,1,70,0,0
140729,-100,4,2,1,80,0,1
159606,-100,4,2,1,70,0,0
160954,-100,4,2,1,60,0,0
162302,-100,4,2,1,50,0,0
163651,-100,4,2,1,40,0,0
169044,-100,4,2,1,70,0,0
175785,-100,4,2,1,80,0,0
191965,-100,4,2,1,90,0,1
205448,-100,4,2,1,80,0,0
205785,-100,4,2,1,90,0,1
221628,-100,4,2,1,80,0,0
248594,-100,4,2,1,80,0,0

[Colours]
Combo1 : 191,91,0
Combo2 : 255,188,128
Combo3 : 255,155,64
Combo4 : 255,120,0

[HitObjects]
56,56,505,6,4,L|156:48,1,100
236,104,1179,2,0,L|336:112,1,100,12|10,0:0|0:0,0:0:0:0:
436,124,1853,6,0,P|444:192|424:252,1,100,6|8,1:2|0:0,0:0:0:0:
356,280,2527,2,0,L|360:344,2,50,10|10|10,0:3|0:3|0:0,0:0:0:0:
312,252,3033,2,8,B|288:252|288:252|240:264|240:264|192:264,1,100,10|10,0:3|0:3,0:3:0:0:
164,264,3538,1,8,0:0:0:0:
72,228,3875,2,0,P|60:176|68:124,1,100,10|8,0:3|0:0,0:0:0:0:
140,64,4549,6,0,L|248:68,1,100,2|8,1:2|0:0,0:0:0:0:
340,72,5224,2,0,L|344:12,2,50,10|10|10,0:3|0:3|0:0,0:0:0:0:
336,120,5729,2,8,P|360:176|352:236,1,100,14|10,0:3|0:3,0:3:0:0:
336,256,6235,1,8,0:0:0:0:
260,188,6572,2,0,L|152:180,1,100,10|8,0:3|0:0,0:0:0:0:
76,128,7246,6,0,P|64:184|84:244,1,100,6|8,1:2|0:0,0:0:0:0:
112,316,7920,2,0,L|104:384,2,50,10|10|10,0:3|0:3|0:0,0:0:0:0:
156,292,8426,2,8,L|256:296,1,100,10|10,0:3|0:3,0:3:0:0:
300,316,8931,1,8,0:0:0:0:
380,256,9269,2,0,L|372:156,1,100,10|8,0:3|0:0,0:0:0:0:
428,72,9943,6,0,P|372:56|316:72,1,100,2|8,1:2|0:0,0:0:0:0:
236,88,10617,2,0,L|228:24,2,50,10|10|10,0:3|0:3|0:0,0:0:0:0:
244,136,11122,2,8,L|144:124,1,100,14|10,0:3|0:3,0:3:0:0:
96,116,11628,1,8,0:0:0:0:
44,200,11965,2,0,P|36:248|56:316,1,100,10|8,0:3|0:0,0:0:0:0:
132,352,12639,6,0,L|248:348,1,100,6|8,1:2|0:0,0:0:0:0:
316,296,13313,2,0,L|312:240,2,50,10|10|10,0:3|0:3|0:0,0:0:0:0:
352,332,13819,2,8,P|408:340|464:324,1,100,10|10,0:3|0:3,0:3:0:0:
484,296,14325,1,8,0:0:0:0:
472,196,14662,2,0,L|456:88,1,100,10|8,0:3|0:0,0:0:0:0:
360,72,15336,6,0,P|308:88|260:88,1,100,2|8,1:2|0:0,0:0:0:0:
168,60,16010,2,0,L|172:0,2,50,10|10|10,0:3|0:3|0:0,0:0:0:0:
132,96,16516,2,8,L|140:200,1,100,14|10,0:3|0:3,0:3:0:0:
144,244,17021,1,8,0:0:0:0:
216,312,17358,2,0,P|272:320|324:304,1,100,10|8,0:3|0:0,0:0:0:0:
408,280,18033,6,0,L|396:168,1,100,6|8,1:2|0:0,0:0:0:0:
336,104,18707,2,0,L|340:48,2,50,10|10|10,0:3|0:3|0:0,0:0:0:0:
304,144,19212,2,8,P|252:160|192:144,1,100,10|10,0:3|0:3,0:3:0:0:
168,124,19718,1,8,0:0:0:0:
120,36,20055,2,0,L|20:48,1,100,10|8,0:3|0:0,0:0:0:0:
20,148,20729,6,0,P|16:208|44:260,1,100,6|8,1:2|0:0,0:0:0:0:
128,276,21403,2,0,L|140:212,2,50,10|10|10,0:3|0:3|0:0,0:0:0:0:
116,324,21909,2,8,L|228:320,1,100,14|10,0:3|0:3,0:3:0:0:
264,340,22415,1,12,0:0:0:0:
356,304,22752,1,10,0:3:0:0:
388,208,23089,2,0,L|396:148,1,50,8|0,0:0|0:0,0:0:0:0:
404,108,23426,6,0,P|340:136|248:112,1,150,10|10,0:3|0:3,0:0:0:0:
216,100,24100,2,0,L|228:212,1,100,8|10,0:0|0:0,0:0:0:0:
180,288,24774,6,0,B|132:296|132:296|81:285,1,100,14|8,0:3|0:0,0:0:0:0:
24,204,25448,2,0,L|28:104,1,100,10|8,0:3|0:0,0:0:0:0:
32,56,25954,2,0,P|80:68|140:52,1,100,10|10,0:3|0:3,0:0:0:0:
172,32,26460,1,10,0:0:0:0:
248,96,26797,2,0,L|352:104,1,100,8|10,0:3|0:0,0:0:0:0:
448,112,27471,5,10,0:3:0:0:
472,208,27808,1,10,0:0:0:0:
424,296,28145,2,0,P|360:296|304:272,1,100,10|8,0:3|0:0,0:0:0:0:
296,248,28651,2,0,L|184:260,1,100,10|10,0:3|0:3,0:0:0:0:
148,264,29156,1,8,0:0:0:0:
60,312,29493,2,0,P|48:264|59:213,1,100,8|10,0:3|0:0,0:0:0:0:
144,164,30167,5,14,0:3:0:0:
100,76,30504,1,10,0:0:0:0:
180,16,30842,2,0,L|292:20,1,100,10|8,0:3|0:0,0:0:0:0:
324,44,31347,2,0,L|424:40,1,100,10|10,0:3|0:3,0:0:0:0:
468,16,31853,1,10,0:0:0:0:
500,112,32190,2,0,B|512:160|512:160|496:220,1,100,8|10,0:3|0:0,0:0:0:0:
412,160,32864,5,10,0:3:0:0:
324,212,33201,1,10,0:0:0:0:
244,152,33538,2,0,P|196:164|148:152,1,100,10|8,0:3|0:0,0:0:0:0:
104,124,34044,2,0,L|100:228,1,100,14|10,0:3|0:3,0:0:0:0:
96,272,34549,1,10,0:0:0:0:
172,336,34887,2,0,L|276:332,1,100,8|10,0:3|0:0,0:0:0:0:
320,348,35392,1,8,0:0:0:0:
320,348,35561,6,0,L|312:240,1,100,14|10,0:3|0:0,0:0:0:0:
228,192,36235,2,0,L|232:84,1,100,10|8,0:3|0:0,0:0:0:0:
236,44,36740,2,0,P|284:36|340:52,1,100,10|10,0:3|0:3,0:0:0:0:
368,84,37246,1,10,0:0:0:0:
424,164,37583,2,0,L|420:264,1,100,8|10,0:3|0:0,0:0:0:0:
356,340,38257,5,10,0:3:0:0:
272,284,38594,1,10,0:0:0:0:
184,332,38931,2,0,P|172:284|184:232,1,100,10|10,0:3|0:0,0:0:0:0:
204,188,39437,2,0,L|96:160,1,100,10|10,0:3|0:3,0:0:0:0:
60,148,39943,1,10,0:0:0:0:
4,64,40280,2,0,P|51:48|100:54,1,100,8|10,0:3|0:0,0:0:0:0:
192,92,40954,5,10,0:3:0:0:
276,36,41291,1,10,0:0:0:0:
372,68,41628,2,0,L|368:176,1,100,10|8,0:3|0:0,0:0:0:0:
364,216,42134,2,0,P|316:201|266:205,1,100,10|10,0:3|0:3,0:0:0:0:
228,236,42639,1,10,0:0:0:0:
216,336,42976,2,0,L|100:328,1,100,8|10,0:3|0:0,0:0:0:0:
16,324,43651,5,14,0:3:0:0:
44,228,43988,1,10,0:0:0:0:
132,180,44325,2,0,P|128:147|132:116,2,50,10|10|10,0:0|0:3|0:3,0:0:0:0:
156,224,44830,6,0,L|284:216,1,100,14|10,0:3|0:3,0:0:0:0:
304,212,45336,1,10,0:0:0:0:
392,260,45673,2,0,P|396:296|392:328,1,50,8|8,0:3|0:0,0:0:0:0:
368,352,46010,2,0,P|332:356|300:352,1,50,8|8,0:3|0:3,0:0:0:0:
272,336,46347,6,0,L|152:348,1,100,6|10,1:2|0:3,0:0:0:0:
124,348,46853,2,0,P|92:292|104:192,1,150,10|8,0:0|0:0,0:0:0:0:
196,192,47696,2,0,L|316:204,1,100,2|10,1:2|0:3,0:0:0:0:
344,204,48201,2,0,P|376:148|364:48,1,150,10|8,0:0|0:0,0:0:0:0:
272,48,49044,6,0,L|152:36,1,100,2|10,1:2|0:3,0:0:0:0:
124,36,49549,2,0,P|92:92|104:192,1,150,10|8,0:0|0:0,0:0:0:0:
184,220,50392,2,0,L|304:208,1,100,2|10,1:2|0:3,0:0:0:0:
332,208,50898,2,0,P|364:264|352:364,1,150,10|8,0:0|0:0,0:0:0:0:
264,368,51740,6,0,B|212:368|212:368|144:348,1,100,6|10,1:2|0:3,0:0:0:0:
116,340,52246,2,0,L|104:180,1,150,10|8,0:0|0:0,0:0:0:0:
200,220,53089,2,0,B|252:220|252:220|320:200,1,100,2|10,1:2|0:3,0:0:0:0:
348,192,53594,2,0,L|360:32,1,150,10|8,0:0|0:0,0:0:0:0:
264,12,54437,6,0,B|212:12|212:12|144:32,1,100,2|10,1:2|0:3,0:0:0:0:
116,40,54943,2,0,L|104:200,1,150,14|8,0:0|0:0,0:0:0:0:
156,276,55785,2,0,P|216:292|260:288,1,100,2|10,1:2|0:3,0:0:0:0:
296,264,56291,2,0,L|460:260,1,150,10|8,0:0|0:0,0:0:0:0:
496,272,56965,1,8,0:0:0:0:
496,272,57134,6,0,P|480:208|480:120,2,150,14|10|10,0:3|0:0|0:0,0:0:0:0:
448,360,58482,2,0,L|284:336,2,150,10|10|10,0:3|0:0|0:0,0:0:0:0:
496,272,59830,5,14,0:0:0:0:
488,172,60167,1,10,0:0:0:0:
436,88,60504,1,10,0:0:0:0:
348,36,60842,1,10,0:0:0:0:
248,36,61179,2,0,L|140:48,1,100,10|8,0:0|0:0,0:0:0:0:
52,224,62190,5,2,0:0:0:0:
124,292,62527,2,0,P|204:320|236:320,1,100,14|8,0:3|0:0,0:0:0:0:
312,284,63201,2,0,L|424:280,1,100,8|10,0:3|0:0,0:0:0:0:
452,248,63707,2,0,P|472:196|460:144,1,100,10|10,0:3|0:3,0:0:0:0:
436,112,64212,1,8,0:0:0:0:
436,112,64381,2,0,L|332:104,1,100,2|10,0:0|0:3,0:0:0:0:
240,72,65055,1,2,0:0:0:0:
240,72,65224,6,0,P|240:124|260:168,1,100,10|10,0:3|0:0,0:0:0:0:
308,252,65898,2,8,L|296:320,1,50,10|10,0:3|0:3,0:3:0:0:
216,356,66403,2,0,B|176:340|140:356|140:356|100:368|64:352,1,150,10|8,0:3|0:0,0:0:0:0:
12,272,67246,1,8,0:3:0:0:
32,176,67583,1,10,0:0:0:0:
116,120,67920,6,0,L|236:116,1,100,14|8,0:3|0:0,0:0:0:0:
300,60,68594,2,0,P|316:112|308:160,1,100,10|8,0:3|0:0,0:0:0:0:
280,196,69100,2,0,L|292:300,1,100,10|8,0:3|0:3,0:0:0:0:
296,344,69606,1,10,0:0:0:0:
196,360,69943,1,10,0:3:0:0:
196,360,70111,2,0,L|96:344,1,100,10|2,0:3|0:0,0:0:0:0:
48,332,70617,6,0,P|36:280|56:216,1,100,10|10,0:3|0:0,0:0:0:0:
128,176,71291,1,10,0:3:0:0:
128,176,71460,2,0,L|124:108,1,50,10|8,0:3|0:0,0:0:0:0:
108,80,71797,6,0,P|168:88|232:84,1,100,14|10,0:3|0:3,0:0:0:0:
252,68,72302,1,8,0:0:0:0:
336,124,72639,2,0,L|468:116,1,100,8|10,0:3|0:0,0:0:0:0:
504,192,73313,5,14,0:3:0:0:
504,292,73651,1,12,0:0:0:0:
412,332,73988,2,0,L|308:324,1,100,8|10,0:3|0:0,0:0:0:0:
264,312,74493,2,0,P|248:260|260:204,1,100,10|10,0:3|0:3,0:0:0:0:
276,168,74999,1,8,0:0:0:0:
276,168,75167,2,0,L|164:176,1,100,2|10,0:0|0:3,0:0:0:0:
80,144,75842,1,2,0:0:0:0:
80,144,76010,6,0,P|72:92|92:32,1,100,10|10,0:3|0:0,0:0:0:0:
180,16,76684,2,8,L|244:24,1,50,10|10,0:3|0:3,0:3:0:0:
324,52,77190,2,0,B|340:92|328:128|328:128|312:168|332:212,1,150,14|8,0:3|0:0,0:0:0:0:
364,292,78033,2,0,L|256:304,1,100,8|10,0:3|0:0,0:0:0:0:
176,348,78707,6,0,P|168:288|192:232,1,100,14|8,0:3|0:0,0:0:0:0:
216,216,79212,1,0,0:0:0:0:
216,216,79381,2,0,L|204:112,1,100,10|10,0:3|0:0,0:0:0:0:
300,80,80055,6,0,L|311:179,1,100,14|8,0:3|0:0,0:0:0:0:
352,208,80561,1,2,0:0:0:0:
352,208,80729,2,0,P|360:264|344:312,1,100,8|10,0:3|0:0,0:0:0:0:
308,336,81235,1,2,0:0:0:0:
260,336,81403,1,12,0:3:0:0:
256,192,81572,12,0,84100,0:0:0:0:
112,76,102976,6,0,P|144:120|208:140,1,100,14|8,2:3|2:3,2:3:0:0:
280,112,103651,2,0,L|380:120,1,100,8|8,2:3|2:3,2:3:0:0:
452,192,104325,2,0,P|460:252|444:300,1,100,10|8,2:3|2:3,2:3:0:0:
360,336,104999,2,0,L|244:328,1,100,8|8,2:3|2:3,2:3:0:0:
160,344,105673,5,10,2:3:0:0:
104,260,106010,1,8,2:3:0:0:
176,192,106347,2,0,L|184:92,1,100,8|8,2:3|2:3,2:3:0:0:
264,32,107021,2,0,L|364:40,1,100,10|8,2:3|2:3,2:3:0:0:
436,112,107696,1,8,2:3:0:0:
424,212,108033,1,8,2:3:0:0:
340,264,108370,6,0,L|232:256,1,100,10|10,0:3|0:3,0:0:0:0:
152,208,109044,2,0,L|148:148,1,50,10|8,0:3|0:3,0:0:0:0:
168,112,109381,1,10,0:3:0:0:
256,64,109718,6,0,P|324:60|368:80,1,100,10|10,0:3|0:3,0:0:0:0:
404,156,110392,2,0,L|412:208,1,50,10|8,0:3|0:3,0:0:0:0:
396,252,110729,1,10,0:0:0:0:
308,304,111066,2,0,L|200:300,1,100,10|10,0:3|0:0,0:0:0:0:
112,328,111740,2,0,P|112:272|140:224,1,100,10|10,0:3|0:0,0:0:0:0:
172,208,112246,6,0,L|160:104,1,100,12|8,0:3|0:0,0:0:0:0:
188,68,112752,2,8,L|260:72,1,50
276,104,113089,2,8,L|348:100,1,50,12|8,0:0|0:0,0:0:0:0:
372,124,113426,1,10,0:0:0:0:
440,200,113763,6,0,P|448:260|432:312,1,100,14|10,0:3|0:0,0:0:0:0:
356,352,114437,2,0,L|256:340,1,100,10|8,0:3|0:0,0:0:0:0:
220,304,114943,2,0,P|208:252|216:200,1,100,10|10,0:3|0:3,0:0:0:0:
240,164,115448,1,10,0:0:0:0:
292,80,115785,2,0,L|184:56,1,100,8|10,0:3|0:0,0:0:0:0:
100,24,116460,6,0,P|96:64|116:120,1,100,10|10,0:3|0:0,0:0:0:0:
208,160,117134,2,0,P|210:209|192:255,1,100,10|8,0:3|0:0,0:0:0:0:
164,296,117639,2,0,L|264:308,1,100,10|10,0:3|0:3,0:0:0:0:
312,312,118145,1,10,0:0:0:0:
408,280,118482,2,0,P|424:224|416:172,1,100,8|10,0:3|0:0,0:0:0:0:
400,84,119156,5,14,0:3:0:0:
304,116,119493,1,10,0:0:0:0:
232,44,119830,2,0,L|120:52,1,100,10|8,0:3|0:0,0:0:0:0:
84,56,120336,2,0,P|92:112|92:164,1,100,10|10,0:3|0:3,0:0:0:0:
80,204,120842,1,10,0:0:0:0:
116,296,121179,2,0,L|220:292,1,100,8|10,0:3|0:0,0:0:0:0:
304,336,121853,5,14,0:3:0:0:
396,300,122190,1,10,0:0:0:0:
436,208,122527,2,0,L|432:152,1,50,10|10,0:0|0:3,0:0:0:0:
440,108,122864,1,10,0:3:0:0:
440,108,123033,2,0,P|376:120|324:104,1,100,14|10,0:3|0:3,0:0:0:0:
300,88,123538,1,10,0:0:0:0:
212,136,123875,2,0,L|112:120,1,100,8|8,0:3|0:3,0:0:0:0:
44,192,124549,6,0,P|32:244|48:300,1,100,6|10,1:2|0:3,0:0:0:0:
76,324,125055,2,0,L|240:312,1,150,10|8,0:0|0:0,0:0:0:0:
313,360,125898,2,0,P|323:312|312:264,1,100,2|10,1:2|0:3,0:0:0:0:
280,224,126403,2,0,L|444:236,1,150,10|8,0:0|0:0,0:0:0:0:
500,164,127246,6,0,P|512:96|496:44,1,100,2|10,1:2|0:3,0:0:0:0:
460,44,127752,2,0,L|300:64,1,150,10|8,0:0|0:0,0:0:0:0:
228,8,128594,2,0,P|216:76|232:128,1,100,2|10,1:2|0:3,0:0:0:0:
244,152,129100,2,0,L|84:132,1,150,10|8,0:0|0:0,0:0:0:0:
44,220,129943,6,0,B|36:272|36:272|48:328,1,100,6|10,1:2|0:3,0:0:0:0:
84,352,130448,2,0,L|252:332,1,150,10|8,0:0|0:0,0:0:0:0:
324,380,131291,2,0,B|332:328|332:328|320:272,1,100,2|10,1:2|0:3,0:0:0:0:
308,236,131797,2,0,L|476:216,1,150,10|8,0:0|0:0,0:0:0:0:
508,132,132639,6,0,P|508:80|492:32,1,100,2|10,1:2|0:3,0:0:0:0:
448,16,133145,2,0,L|280:40,1,150,14|8,0:0|0:0,0:0:0:0:
220,100,133988,2,0,P|220:152|236:200,1,100,2|10,1:2|0:3,0:0:0:0:
260,240,134493,2,0,L|92:216,1,150,10|8,0:0|0:0,0:0:0:0:
64,208,135167,1,8,0:0:0:0:
64,208,135336,6,0,P|48:276|68:368,2,150,14|10|10,0:3|0:0|0:0,0:0:0:0:
136,140,136684,2,0,B|108:56|108:56|32:16,2,150,10|10|10,0:3|0:0|0:0,0:0:0:0:
164,236,138033,5,14,0:0:0:0:
240,304,138370,1,10,0:0:0:0:
340,320,138707,1,10,0:0:0:0:
436,296,139044,1,10,0:0:0:0:
496,216,139381,2,0,L|480:88,1,100,12|0,0:0|0:0,0:0:0:0:
476,68,139887,2,0,P|428:88|368:80,1,100,12|0,0:0|0:0,0:0:0:0:
336,64,140392,1,10,0:0:0:0:
240,84,140729,6,0,L|128:76,1,100,14|10,0:3|0:0,0:0:0:0:
68,144,141403,2,0,P|48:208|56:248,1,100,8|10,0:3|0:0,0:0:0:0:
80,284,141909,2,0,L|192:276,1,100,10|10,0:3|0:3,0:0:0:0:
228,296,142415,1,8,0:0:0:0:
228,296,142583,2,0,L|328:304,1,100,2|10,0:0|0:3,0:0:0:0:
408,364,143257,1,2,0:0:0:0:
408,364,143426,6,0,P|424:296|412:248,1,100,10|10,0:3|0:0,0:0:0:0:
356,188,144100,2,8,L|368:128,1,50,10|10,0:3|0:3,0:3:0:0:
384,40,144606,2,0,B|348:52|312:40|312:40|264:24|208:48,1,150,10|8,0:3|0:0,0:0:0:0:
160,104,145448,1,8,0:3:0:0:
164,204,145785,1,10,0:0:0:0:
228,280,146122,6,0,L|336:268,1,100,14|8,0:3|0:0,0:0:0:0:
408,328,146797,2,0,P|424:272|416:224,1,100,10|8,0:3|0:0,0:0:0:0:
388,192,147302,2,0,L|392:92,1,100,10|8,0:3|0:3,0:0:0:0:
396,44,147808,1,10,0:0:0:0:
296,60,148145,1,10,0:3:0:0:
296,60,148313,2,0,P|232:64|168:48,1,100,10|2,0:3|0:0,0:0:0:0:
148,44,148819,6,0,L|160:152,1,100,10|10,0:3|0:0,0:0:0:0:
228,216,149493,1,10,0:3:0:0:
228,216,149662,2,0,L|224:280,1,50,10|8,0:3|0:0,0:0:0:0:
236,316,149999,2,0,P|172:308|112:312,1,100,14|10,0:3|0:3,0:0:0:0:
88,328,150504,1,8,0:0:0:0:
28,248,150842,2,0,L|32:148,1,100,8|10,0:3|0:0,0:0:0:0:
100,72,151516,5,14,0:3:0:0:
196,52,151853,1,12,0:0:0:0:
276,112,152190,2,0,P|336:128|380:128,1,100,8|10,0:3|0:0,0:0:0:0:
424,120,152696,2,0,L|412:224,1,100,10|10,0:3|0:3,0:0:0:0:
404,268,153201,1,8,0:0:0:0:
404,268,153370,2,0,P|352:264|304:272,1,100,2|10,0:0|0:3,0:0:0:0:
228,336,154044,1,2,0:0:0:0:
228,336,154212,6,0,L|104:328,1,100,10|10,0:3|0:0,0:0:0:0:
48,268,154887,2,8,P|44:228|48:204,1,50,10|10,0:3|0:3,0:3:0:0:
96,132,155392,2,0,B|152:128|152:128|188:136|188:136|256:132,1,150,14|8,0:3|0:0,0:0:0:0:
340,168,156235,2,0,P|356:224|352:268,1,100,8|10,0:3|0:0,0:0:0:0:
288,340,156909,6,0,L|188:328,1,100,14|8,0:3|0:0,0:0:0:0:
140,340,157415,1,0,0:0:0:0:
140,340,157583,2,0,P|152:276|144:224,1,100,10|10,0:3|0:0,0:0:0:0:
68,180,158257,6,0,P|56:116|64:64,1,100,14|8,0:3|0:0,0:0:0:0:
96,48,158763,1,2,0:0:0:0:
96,48,158931,2,8,L|172:56,1,50,8|8,0:3|0:3,0:3:0:0:
188,80,159269,2,8,L|264:72,1,50,10|10,0:0|0:0,0:0:0:0:
288,68,159606,5,12,0:0:0:0:
256,192,159774,12,0,163651,0:0:0:0:
120,52,169044,6,0,P|192:32|244:44,1,100,12|8,0:3|0:0,0:0:0:0:
260,56,169549,1,8,0:3:0:0:
260,56,169718,2,0,L|328:44,1,50,8|8,0:3|0:3,0:0:0:0:
352,72,170055,1,14,0:0:0:0:
428,136,170392,6,0,L|424:260,1,100,14|10,0:3|0:0,0:0:0:0:
364,316,171066,2,0,L|368:380,2,50,10|8|10,0:3|0:3|0:0,0:0:0:0:
276,272,171740,2,0,L|279:172,1,100,10|10,0:3|0:0,0:0:0:0:
212,96,172415,2,0,L|208:32,2,50,10|8|10,0:3|0:3|0:0,0:0:0:0:
128,152,173089,6,0,P|107:196|108:246,1,100,10|10,0:3|0:0,0:0:0:0:
144,340,173763,2,0,L|80:348,2,50,10|8|10,0:3|0:3|0:0,0:0:0:0:
244,320,174437,2,0,P|264:275|263:225,1,100,10|10,0:3|0:0,0:0:0:0:
168,192,175111,2,0,L|64:200,1,100,10|10,0:3|0:0,0:0:0:0:
20,208,175617,1,2,0:0:0:0:
20,208,175785,6,0,L|4:324,1,100,14|10,0:3|0:0,0:0:0:0:
96,352,176460,2,8,L|164:344,1,50,10|8,0:3|0:3,0:3:0:0:
192,360,176797,1,10,0:0:0:0:
292,344,177134,6,0,P|324:276|316:228,1,100,10|10,0:3|0:0,0:0:0:0:
296,156,177808,2,8,L|304:96,1,50,10|8,0:3|0:3,0:3:0:0:
288,60,178145,1,10,0:0:0:0:
192,92,178482,5,14,0:3:0:0:
96,60,178819,1,14,0:0:0:0:
24,132,179156,2,0,L|32:236,1,100,10|10,0:3|0:0,0:0:0:0:
40,332,179830,6,0,P|104:312|236:336,1,200,14|12,0:0|0:0,0:0:0:0:
328,364,180842,1,10,0:0:0:0:
404,300,181179,2,0,P|420:224|368:152,2,150,14|10|10,0:3|0:0|0:0,0:0:0:0:
324,240,182527,2,0,L|160:252,2,150,10|10|10,0:3|0:0|0:0,0:0:0:0:
388,164,183875,5,14,0:0:0:0:
344,76,184212,1,10,0:0:0:0:
256,124,184549,1,10,0:0:0:0:
212,32,184887,1,10,0:0:0:0:
128,88,185224,6,0,B|117:159|117:159|132:204|132:204|120:300,1,200,12|8,0:3|0:0,0:0:0:0:
28,316,186235,1,10,0:0:0:0:
28,216,186572,1,14,0:3:0:0:
100,112,189269,6,0,L|224:108,1,100,14|10,0:0|0:0,0:0:0:0:
284,160,189943,2,8,L|356:156,1,50,10|10,0:0|0:0,0:0:0:0:
428,188,190448,2,0,P|448:252|424:336,1,150,14|8,0:0|0:0,0:0:0:0:
332,360,191291,2,0,L|232:348,1,100,12|10,0:0|0:0,0:0:0:0:
132,336,191965,6,0,P|116:268|120:220,1,100,14|8,0:3|0:0,0:0:0:0:
204,192,192639,2,0,P|220:124|216:76,1,100,10|8,0:3|0:0,0:0:0:0:
204,44,193145,2,0,L|312:48,1,100,10|8,0:3|0:3,0:0:0:0:
352,52,193651,1,10,0:0:0:0:
424,120,193988,1,10,0:3:0:0:
424,120,194156,2,0,P|432:184|416:232,1,100,10|2,0:3|0:0,0:0:0:0:
400,264,194662,6,0,L|288:256,1,100,10|10,0:3|0:0,0:0:0:0:
228,188,195336,2,8,L|152:192,1,50,10|10,0:3|0:3,0:3:0:0:
92,240,195842,2,0,P|80:184|96:132,1,100,14|10,0:3|0:3,0:0:0:0:
124,108,196347,1,10,0:0:0:0:
220,76,196684,2,0,L|324:88,1,100,8|10,0:3|0:0,0:0:0:0:
416,104,197358,5,14,0:3:0:0:
444,200,197696,1,12,0:0:0:0:
376,276,198033,2,0,L|272:268,1,100,8|10,0:3|0:0,0:0:0:0:
232,248,198538,2,0,P|232:304|212:356,1,100,10|10,0:3|0:3,0:0:0:0:
172,368,199044,1,8,0:0:0:0:
172,368,199212,2,0,L|64:352,1,100,2|10,0:0|0:3,0:0:0:0:
24,268,199887,1,2,0:0:0:0:
24,268,200055,6,0,P|16:208|36:144,1,100,10|10,0:3|0:0,0:0:0:0:
96,100,200729,2,8,L|152:104,1,50,10|10,0:3|0:3,0:3:0:0:
232,152,201235,2,0,P|324:156|380:136,1,150,14|8,0:3|0:0,0:0:0:0:
472,100,202078,2,0,L|480:204,1,100,8|10,0:3|0:0,0:0:0:0:
456,296,202752,6,0,B|408:308|364:292|364:292|312:268|248:288,1,200,14|10,0:3|0:0,0:0:0:0:
176,336,203763,2,0,L|116:324,1,50,10|8,0:0|0:0,0:0:0:0:
76,336,204100,2,0,L|64:232,1,100,14|8,0:3|0:3,0:0:0:0:
144,176,204774,2,0,L|156:72,1,100,14|8,0:0|0:0,0:0:0:0:
248,36,205448,5,10,0:0:0:0:
344,68,205785,1,14,0:0:0:0:
420,132,206122,2,0,P|436:208|432:252,1,100,8|10,0:3|0:0,0:0:0:0:
420,276,206628,2,0,L|308:272,1,100,14|10,0:0|0:3,0:0:0:0:
276,300,207134,2,8,L|216:304,1,50,8|10,0:0|0:0,0:0:0:0:
180,324,207471,2,8,L|176:384,2,50,12|10|8,0:0|0:0|0:0,0:0:0:0:
168,224,208145,5,14,0:3:0:0:
196,128,208482,1,10,0:0:0:0:
272,60,208819,2,8,L|348:64,1,50,10|10,0:3|0:3,0:3:0:0:
416,92,209325,2,0,B|424:144|424:144|416:184|416:184|424:240,1,150,14|8,0:3|0:0,0:0:0:0:
444,336,210167,1,8,0:3:0:0:
348,356,210504,1,10,0:0:0:0:
256,312,210842,6,0,P|248:240|264:192,1,100,14|8,0:3|0:0,0:0:0:0:
328,144,211516,2,0,P|336:72|320:24,1,100,10|8,0:3|0:0,0:0:0:0:
284,24,212021,2,0,L|172:36,1,100,10|8,0:3|0:3,0:0:0:0:
136,44,212527,1,10,0:0:0:0:
80,124,212864,2,8,L|76:192,1,50,10|10,0:3|0:3,0:3:0:0:
76,276,213370,1,10,0:3:0:0:
76,276,213538,6,0,P|140:284|184:308,1,100,10|10,0:3|0:0,0:0:0:0:
252,360,214212,1,10,0:3:0:0:
252,360,214381,2,0,L|320:348,1,50,10|8,0:3|0:0,0:0:0:0:
352,364,214718,6,0,P|344:296|352:264,1,100,14|10,0:3|0:3,0:0:0:0:
384,228,215224,1,10,0:0:0:0:
452,156,215561,2,0,L|440:52,1,100,8|10,0:3|0:0,0:0:0:0:
344,28,216235,5,14,0:3:0:0:
260,80,216572,1,12,0:0:0:0:
168,44,216909,2,0,P|100:64|64:100,1,100,8|10,0:3|0:0,0:0:0:0:
60,128,217415,2,0,L|72:232,1,100,10|10,0:3|0:3,0:0:0:0:
80,276,217920,1,8,0:0:0:0:
80,276,218089,2,0,P|144:264|184:272,1,100,2|10,0:0|0:3,0:0:0:0:
260,324,218763,1,2,0:0:0:0:
260,324,218931,6,0,L|376:316,1,100,10|10,0:3|0:0,0:0:0:0:
452,280,219606,1,10,0:3:0:0:
452,280,219774,2,0,L|448:208,1,50,10|8,0:3|0:0,0:0:0:0:
460,180,220111,2,0,P|404:192|344:172,1,100,14|8,0:3|0:3,0:0:0:0:
320,160,220617,1,8,0:0:0:0:
260,80,220954,2,0,L|208:84,1,50,8|8,0:0|0:0,0:0:0:0:
180,124,221291,2,0,L|184:176,1,50,10|8,0:3|0:3,0:0:0:0:
216,212,221628,6,0,P|220:284|120:368,1,200,14|10,0:3|0:0,0:0:0:0:
36,336,222639,2,0,L|28:272,1,50,2|8,0:0|0:0,0:0:0:0:
52,240,222976,6,0,B|64:176|64:176|52:108|52:108|64:40,1,200,10|10,0:3|0:0,0:0:0:0:
164,28,223988,1,2,0:0:0:0:
236,96,224325,2,0,P|292:120|340:112,1,100,14|10,0:3|0:3,0:0:0:0:
428,92,224999,2,0,L|432:156,1,50,10|8,0:0|0:3,0:0:0:0:
456,184,225336,2,0,L|452:248,1,50,10|8,0:0|0:3,0:0:0:0:
428,276,225673,5,14,0:3:0:0:
336,316,226010,2,8,L|272:300,1,50,10|8,0:0|0:0,0:0:0:0:
240,288,226347,2,8,L|191:300,1,50,10|8,0:0|0:0,0:0:0:0:
144,316,226684,1,10,0:0:0:0:
60,264,227021,6,0,P|48:208|72:148,1,100,6|8,1:2|0:0,0:0:0:0:
140,108,227696,2,0,L|136:48,2,50,10|10|10,0:3|0:3|0:0,0:0:0:0:
180,136,228201,2,8,L|288:132,1,100,10|10,0:3|0:3,0:3:0:0:
328,128,228707,1,8,0:0:0:0:
412,72,229044,2,0,P|428:124|416:180,1,100,10|8,0:3|0:0,0:0:0:0:
372,256,229718,6,0,L|264:252,1,100,2|8,1:2|0:0,0:0:0:0:
184,300,230392,2,0,L|180:360,2,50,10|10|10,0:3|0:3|0:0,0:0:0:0:
148,264,230898,2,8,L|140:160,1,100,10|10,0:3|0:3,0:3:0:0:
136,116,231403,1,8,0:0:0:0:
164,20,231740,2,0,P|232:8|272:20,1,100,10|8,0:3|0:0,0:0:0:0:
340,76,232415,6,0,L|336:192,1,100,6|8,1:2|0:0,0:0:0:0:
368,272,233089,2,0,L|428:264,2,50,10|10|10,0:3|0:3|0:0,0:0:0:0:
332,304,233594,2,8,L|216:292,1,100,10|10,0:3|0:3,0:3:0:0:
184,288,234100,1,8,0:0:0:0:
92,332,234437,2,0,P|84:272|100:228,1,100,10|8,0:3|0:0,0:0:0:0:
152,152,235111,6,0,L|268:156,1,100,2|8,1:2|0:0,0:0:0:0:
316,232,235785,2,0,L|376:228,2,50,10|10|10,0:3|0:3|0:0,0:0:0:0:
276,260,236291,2,8,P|276:316|304:364,1,100,14|10,0:3|0:3,0:3:0:0:
344,368,236797,1,12,0:0:0:0:
444,352,237134,2,0,L|452:240,1,100,10|8,0:3|0:0,0:0:0:0:
472,208,237639,1,8,0:0:0:0:
472,208,237808,6,0,P|416:200|368:160,1,100,6|8,1:2|0:0,0:0:0:0:
340,84,238482,2,0,P|308:92|280:92,1,50,10|10,0:3|0:3,0:0:0:0:
244,80,238819,1,10,0:0:0:0:
244,80,238988,2,8,L|236:200,1,100,10|10,0:3|0:3,0:3:0:0:
232,228,239493,1,8,0:0:0:0:
220,328,239830,2,0,P|156:336|100:320,1,100,10|8,0:3|0:0,0:0:0:0:
56,256,240504,6,0,L|48:144,1,100,2|8,1:2|0:0,0:0:0:0:
100,72,241179,2,0,L|160:68,1,50,10|10,0:3|0:3,0:0:0:0:
196,52,241516,1,10,0:0:0:0:
196,52,241684,2,8,P|204:124|228:164,1,100,10|10,0:3|0:3,0:3:0:0:
260,176,242190,1,8,0:0:0:0:
360,176,242527,6,0,L|352:284,1,100,10|8,0:3|0:0,0:0:0:0:
284,348,243201,2,0,P|228:352|172:320,1,100,6|8,1:2|0:0,0:0:0:0:
128,256,243875,2,0,L|132:188,1,50,10|10,0:3|0:3,0:0:0:0:
120,156,244212,1,10,0:0:0:0:
120,156,244381,2,8,L|224:148,1,100,10|10,0:3|0:3,0:3:0:0:
268,144,244887,1,8,0:0:0:0:
348,208,245224,2,0,P|368:148|360:100,1,100,10|8,0:3|0:0,0:0:0:0:
304,32,245898,6,0,B|184:24,1,100,6|8,1:2|0:0,0:0:0:0:
132,96,246572,2,0,L|72:100,1,50,10|8,0:3|0:3,0:0:0:0:
32,104,246909,1,10,0:0:0:0:
32,104,247078,2,8,P|40:164|36:220,1,100,14|10,0:3|0:3,0:3:0:0:
24,252,247583,1,12,0:0:0:0:
100,316,247920,2,0,L|212:312,1,100,10|8,0:0|0:0,0:0:0:0:
244,288,248426,1,8,0:0:0:0:
244,288,248594,6,0,L|360:292,1,100,14|8,0:3|0:3,0:0:0:0:
388,320,249100,2,0,P|420:264|412:168,1,150,2|10,0:0|0:3,0:0:0:0:
388,84,249943,6,0,L|280:92,1,100,10|8,0:3|0:3,0:0:0:0:
248,120,250448,2,0,L|140:112,1,100,2|2,0:0|0:0,0:0:0:0:
100,108,250954,1,10,0:3:0:0:
24,176,251291,6,0,P|12:236|36:296,1,100,10|8,0:3|0:3,0:0:0:0:
60,304,251797,2,0,B|112:300|112:300|156:320|156:320|224:312,1,150,2|10,0:0|0:3,0:0:0:0:
288,260,252639,2,0,P|352:248|404:268,1,100,10|8,0:3|0:3,0:0:0:0:
432,280,253145,1,2,0:0:0:0:
480,192,253482,5,10,0:0:0:0:
476,140,253651,1,10,0:0:0:0:
452,96,253819,1,10,0:0:0:0:
