osu file format v14

[General]
AudioFilename: audio.mp3
AudioLeadIn: 0
PreviewTime: 62022
Countdown: 0
SampleSet: Soft
StackLeniency: 0.7
Mode: 0
LetterboxInBreaks: 0
WidescreenStoryboard: 0

[Editor]
DistanceSpacing: 1
BeatDivisor: 4
GridSize: 4
TimelineZoom: 2.499999

[Metadata]
Title:Kimagure Stardom
TitleUnicode:気まぐれスターダム
Artist:Nishizawa-sanP x Rib
ArtistUnicode:西沢さんP×りぶ
Creator:arronchu1207
Version:Insane
Source:
Tags:Rib on TOKOTOKO Nishizawa san P zawaso Glaceon Japanese rock jrock j-rock utaite
BeatmapID:2053673
BeatmapSetID:981332

[Difficulty]
HPDrainRate:6
CircleSize:4
OverallDifficulty:8
ApproachRate:9
SliderMultiplier:1.6
SliderTickRate:1

[Events]
//Background and Video events
0,0,"1920.jpg",0,0
//Break Periods
2,84300,91561
2,163851,168415
2,186772,188471
//Storyboard Layer 0 (Background)
//Storyboard Layer 1 (Fail)
//Storyboard Layer 2 (Pass)
//Storyboard Layer 3 (Foreground)
//Storyboard Layer 4 (Overlay)
//Storyboard Sound Samples

[TimingPoints]
505,337.078651685393,4,2,1,50,1,0
1094,-100,4,2,1,70,0,0
23426,-100,4,2,1,60,0,0
24100,-100,4,2,1,70,0,0
24774,-125,4,2,1,50,0,0
35561,-100,4,2,1,60,0,0
46347,-125,4,2,1,60,0,0
57134,-100,4,2,1,60,0,0
61179,-125,4,2,1,70,0,0
61431,-125,4,2,1,5,0,0
61516,-66.6666666666667,4,2,1,70,0,0
61853,-66.6666666666667,4,2,1,5,0,0
62190,-66.6666666666667,4,2,1,70,0,0
62527,-83.3333333333333,4,2,1,80,0,1
81403,-100,4,2,1,70,0,0
102976,-125,4,2,1,50,0,0
108370,-100,4,2,1,60,0,0
124549,-125,4,2,1,60,0,0
135336,-100,4,2,1,70,0,0
140729,-83.3333333333333,4,2,1,80,0,1
159606,-100,4,2,1,70,0,0
160954,-100,4,2,1,60,0,0
162302,-100,4,2,1,50,0,0
163651,-100,4,2,1,40,0,0
169044,-100,4,2,1,70,0,0
170055,-133.333333333333,4,2,1,70,0,0
170308,-100,4,2,1,5,0,0
170392,-100,4,2,1,70,0,0
175785,-100,4,2,1,80,0,0
191375,-100,4,2,1,80,0,0
191965,-83.3333333333333,4,2,1,90,0,1
205448,-166.666666666667,4,2,1,80,0,0
205785,-83.3333333333333,4,2,1,90,0,1
221628,-100,4,2,1,80,0,0
248594,-125,4,2,1,80,0,0

[Colours]
Combo1 : 191,91,0
Combo2 : 255,188,128
Combo3 : 255,155,64
Combo4 : 255,120,0

[HitObjects]
124,32,505,5,4,0:0:0:0:
192,88,842,1,4,0:0:0:0:
112,120,1094,2,0,L|116:148,1,20,8|8,0:0|0:0,0:0:0:0:
136,152,1179,2,0,L|132:200,3,40,12|8|8|8,0:0|0:0|0:3|0:3,0:0:0:0:
108,224,1516,2,0,L|112:272,3,40,10|8|8|8,0:0|0:0|0:3|0:3,0:0:0:0:
140,292,1853,6,0,L|224:288,1,80,6|0,1:2|0:0,0:0:0:0:
260,300,2106,1,2,0:0:0:0:
260,300,2190,2,0,L|256:212,1,80,10|2,0:0|0:0,0:0:0:0:
432,128,2527,1,10,0:3:0:0:
427,239,2696,1,10,0:3:0:0:
308,128,2864,1,10,0:0:0:0:
472,52,3033,6,0,P|420:44|380:56,1,80,10|0,0:3|0:0,0:0:0:0:
308,128,3370,2,0,P|256:136|216:124,1,80,10|8,0:3|0:0,0:0:0:0:
104,52,3707,1,2,0:0:0:0:
104,52,3791,1,10,0:0:0:0:
104,52,3875,2,0,L|101:91,3,40,10|2|10|2,0:3|0:0|0:3|0:0,0:0:0:0:
96,176,4212,2,0,B|104:216|104:216|88:264,1,80,10|0,0:0|0:0,0:0:0:0:
20,348,4549,6,0,L|104:352,1,80,2|0,1:2|0:0,0:0:0:0:
140,340,4802,1,2,0:0:0:0:
140,340,4887,2,0,L|224:336,1,80,10|2,0:0|0:0,0:0:0:0:
384,264,5224,1,10,0:3:0:0:
276,244,5392,1,10,0:3:0:0:
348,160,5561,1,10,0:0:0:0:
496,260,5729,6,0,L|492:348,1,80,14|0,0:3|0:0,0:0:0:0:
456,168,6066,2,0,L|459:88,1,80,10|8,0:3|0:0,0:0:0:0:
340,64,6403,2,0,L|332:16,2,40,2|10|10,0:0|0:0|0:3,0:0:0:0:
276,160,6740,1,10,0:3:0:0:
236,172,6825,1,2,0:0:0:0:
196,168,6909,1,10,0:0:0:0:
112,76,7078,1,8,0:0:0:0:
112,76,7162,1,8,0:0:0:0:
112,76,7246,6,0,L|108:160,1,80,6|0,1:2|0:0,0:0:0:0:
92,192,7499,1,2,0:0:0:0:
92,192,7583,2,0,P|84:240|96:280,1,80,10|2,0:0|0:0,0:0:0:0:
288,252,7920,1,10,0:3:0:0:
172,232,8089,1,10,0:3:0:0:
212,356,8257,1,10,0:0:0:0:
360,292,8426,6,0,P|368:252|344:188,1,80,10|0,0:3|0:0,0:0:0:0:
268,72,8763,2,0,P|260:110|268:149,1,80,10|8,0:3|0:0,0:0:0:0:
360,214,9100,1,2,0:0:0:0:
360,214,9184,1,10,0:0:0:0:
360,214,9269,2,0,L|408:210,3,40,10|2|10|2,0:3|0:0|0:3|0:0,0:0:0:0:
468,260,9606,2,0,B|472:300|472:300|464:344,1,80,10|0,0:0|0:0,0:0:0:0:
348,360,9943,6,0,L|256:344,1,80,2|0,1:2|0:0,0:0:0:0:
228,340,10196,1,2,0:0:0:0:
228,340,10280,2,0,B|188:348|188:348|136:344,1,80,10|2,0:0|0:0,0:0:0:0:
72,236,10617,1,10,0:3:0:0:
144,148,10785,1,10,0:3:0:0:
184,252,10954,1,10,0:0:0:0:
58,218,11122,6,0,L|50:134,1,80,14|0,0:3|0:0,0:0:0:0:
236,96,11460,2,0,L|228:175,1,80,10|12,0:3|0:0,0:0:0:0:
320,248,11797,1,2,0:0:0:0:
320,248,11881,1,2,0:0:0:0:
320,248,11965,2,0,L|376:240,3,40,10|8|10|10,0:0|0:3|0:3|0:3,0:0:0:0:
420,304,12302,2,0,L|476:296,1,40,10|8,0:0|0:0,0:0:0:0:
464,188,12471,2,0,L|424:193,1,40,8|8,0:0|0:0,0:0:0:0:
348,156,12639,6,0,P|340:112|360:60,1,80,6|0,1:2|0:0,0:0:0:0:
356,40,12892,1,2,0:0:0:0:
356,40,12976,2,0,L|260:32,1,80,10|2,0:0|0:0,0:0:0:0:
164,120,13313,1,10,0:3:0:0:
216,216,13482,1,10,0:3:0:0:
272,124,13651,1,10,0:0:0:0:
164,120,13819,6,0,P|128:152|108:204,1,80,10|0,0:3|0:0,0:0:0:0:
219,295,14156,2,0,L|215:215,1,80,10|8,0:3|0:0,0:0:0:0:
272,124,14493,1,2,0:0:0:0:
272,124,14578,1,10,0:0:0:0:
272,124,14662,2,0,L|320:120,3,40,10|2|10|2,0:3|0:0|0:3|0:0,0:0:0:0:
392,100,14999,2,0,L|388:196,1,80,10|0,0:0|0:0,0:0:0:0:
408,360,15336,6,0,P|424:316|420:272,1,80,2|0,1:2|0:0,0:0:0:0:
391,261,15589,1,2,0:0:0:0:
391,261,15673,2,0,L|295:269,1,80,10|2,0:0|0:0,0:0:0:0:
204,276,16010,1,10,0:3:0:0:
129,205,16179,1,10,0:3:0:0:
229,175,16347,1,10,0:0:0:0:
192,292,16516,6,0,L|200:372,1,80,14|0,0:3|0:0,0:0:0:0:
125,217,16853,2,0,L|133:137,1,80,10|8,0:3|0:0,0:0:0:0:
224,44,17190,1,2,0:0:0:0:
224,44,17274,1,10,0:0:0:0:
224,44,17358,1,10,0:3:0:0:
336,120,17527,1,10,0:3:0:0:
336,120,17611,1,2,0:0:0:0:
336,120,17696,2,0,L|432:112,1,80,10|0,0:0|0:0,0:0:0:0:
488,200,18033,6,0,P|496:248|484:296,1,80,6|0,1:2|0:0,0:0:0:0:
468,312,18285,1,2,0:0:0:0:
468,312,18370,2,0,L|372:308,1,80,10|2,0:0|0:0,0:0:0:0:
236,296,18707,1,10,0:3:0:0:
316,232,18875,1,10,0:3:0:0:
312,368,19044,1,10,0:0:0:0:
236,296,19212,6,0,P|220:256|216:208,1,80,10|0,0:3|0:0,0:0:0:0:
336,155,19549,2,0,P|330:194|315:231,1,80,10|8,0:3|0:0,0:0:0:0:
252,108,19887,1,2,0:0:0:0:
252,108,19971,1,10,0:0:0:0:
252,108,20055,2,0,L|244:52,3,40,10|2|10|2,0:3|0:0|0:3|0:0,0:0:0:0:
316,24,20392,2,0,L|412:32,1,80,10|0,0:0|0:0,0:0:0:0:
464,136,20729,6,0,L|460:224,1,80,6|0,1:2|0:0,0:0:0:0:
472,252,20982,1,2,0:0:0:0:
472,252,21066,2,0,P|424:256|392:276,1,80,10|2,0:0|0:0,0:0:0:0:
372,368,21403,1,10,0:3:0:0:
304,296,21572,1,10,0:3:0:0:
460,348,21740,1,10,0:0:0:0:
244,368,21909,6,0,P|220:332|212:284,1,80,14|0,0:3|0:0,0:0:0:0:
292,176,22246,1,10,0:3:0:0:
397,271,22415,1,12,0:0:0:0:
208,208,22583,1,2,0:0:0:0:
208,208,22667,1,10,0:0:0:0:
208,208,22752,2,0,L|120:216,1,80,2|10,0:0|0:3,0:0:0:0:
52,224,23004,1,2,0:0:0:0:
52,224,23089,2,0,L|48:172,1,40,10|8,0:0|0:0,0:0:0:0:
144,116,23257,2,0,L|148:64,1,40,8|8,0:0|0:0,0:0:0:0:
256,24,23426,6,0,P|312:24|372:56,2,120,10|10|10,0:3|0:3|0:3,0:0:0:0:
224,44,24016,1,0,0:0:0:0:
224,44,24100,2,0,L|228:124,1,80,8|8,0:0|0:3,0:0:0:0:
240,260,24437,1,10,0:0:0:0:
240,260,24774,6,0,L|392:252,1,128,14|8,0:3|0:0,0:0:0:0:
464,368,25448,1,10,0:3:0:0:
464,368,25617,2,0,P|476:324|472:296,1,64,10|8,0:3|0:0,0:0:0:0:
448,220,25954,2,0,P|436:176|440:148,1,64,10|0,0:3|0:0,0:0:0:0:
472,48,26291,1,10,0:3:0:0:
380,84,26460,2,0,L|296:80,1,64,8|0,2:0|0:0,2:0:0:0:
296,104,26712,1,8,0:0:0:0:
296,104,26797,2,0,L|212:108,1,64,8|8,0:3|0:3,0:0:0:0:
136,112,27134,1,10,0:0:0:0:
136,112,27471,6,0,L|140:184,1,64,10|0,0:3|0:0,0:0:0:0:
212,232,27808,2,0,L|208:304,1,64,10|0,0:0|0:0,0:0:0:0:
280,356,28145,1,10,0:3:0:0:
396,304,28313,2,0,P|404:264|400:240,1,64,10|8,0:3|0:0,0:0:0:0:
348,164,28651,2,0,P|340:124|344:100,1,64,10|0,0:3|0:0,0:0:0:0:
384,16,28988,5,10,0:3:0:0:
264,28,29156,2,0,L|196:32,1,64,8|0,0:0|0:0,0:0:0:0:
168,32,29409,1,8,0:0:0:0:
168,32,29493,2,0,P|176:84|172:108,1,64,8|8,0:3|0:3,0:0:0:0:
136,204,29830,2,0,P|120:260|132:304,1,96,10|0,0:0|0:0,0:0:0:0:
132,298,30167,6,0,L|204:290,1,64,14|0,0:3|0:0,0:0:0:0:
272,340,30504,2,0,L|335:347,1,64,10|0,0:0|0:0,0:0:0:0:
424,356,30842,1,10,0:3:0:0:
396,244,31010,2,0,P|388:196|392:172,1,64,10|8,0:3|0:0,0:0:0:0:
468,132,31347,2,0,P|476:84|472:60,1,64,10|0,0:3|0:0,0:0:0:0:
412,4,31684,5,10,0:3:0:0:
348,68,31853,2,0,L|268:60,1,64,10|0,0:0|0:0,0:0:0:0:
252,56,32106,1,8,0:0:0:0:
252,56,32190,2,0,P|256:104|256:132,1,64,8|8,0:3|0:3,0:0:0:0:
252,216,32527,1,10,0:0:0:0:
252,216,32864,6,0,L|184:220,1,64,10|0,0:3|0:0,0:0:0:0:
116,164,33201,2,0,L|48:160,1,64,10|0,0:0|0:0,0:0:0:0:
0,232,33538,1,10,0:3:0:0:
28,316,33707,1,10,0:3:0:0:
108,280,33875,1,8,0:0:0:0:
184,364,34044,6,0,P|240:360|328:360,1,128,14|10,0:3|0:3,0:0:0:0:
400,372,34549,1,8,0:0:0:0:
496,316,34718,1,0,0:0:0:0:
496,316,34802,1,8,0:0:0:0:
496,316,34887,2,0,L|488:236,1,64,10|10,0:3|0:3,0:0:0:0:
416,184,35224,1,10,0:0:0:0:
417,168,35308,1,8,0:0:0:0:
419,152,35392,1,8,0:0:0:0:
420,136,35476,1,8,0:0:0:0:
422,120,35561,6,0,L|320:124,1,80,14|0,0:3|0:0,0:0:0:0:
200,196,35898,2,0,L|280:200,1,80,10|0,0:0|0:0,0:0:0:0:
344,272,36235,1,10,0:3:0:0:
176,288,36403,2,0,P|136:264|112:232,1,80,10|8,0:3|0:0,0:0:0:0:
180,48,36740,6,0,B|213:90|213:90|197:218,1,160,10|10,0:3|0:3,0:0:0:0:
116,120,37246,1,10,0:0:0:0:
180,48,37415,1,0,0:0:0:0:
180,48,37499,1,8,0:0:0:0:
180,48,37583,2,8,L|272:52,1,80,8|8,0:3|0:3,0:3:0:0:
396,104,37920,2,0,P|404:148|388:196,1,80,10|0,0:0|0:0,0:0:0:0:
232,148,38257,6,0,L|320:144,1,80,10|0,0:3|0:0,0:0:0:0:
432,272,38594,2,0,L|344:268,1,80,10|0,0:0|0:0,0:0:0:0:
240,268,38931,1,10,0:3:0:0:
308,352,39100,1,10,0:3:0:0:
240,268,39269,1,10,0:0:0:0:
168,360,39437,6,0,P|96:372|24:320,1,160,10|10,0:3|0:3,0:0:0:0:
8,192,39943,1,10,0:0:0:0:
152,168,40111,1,0,0:0:0:0:
152,168,40196,1,8,0:0:0:0:
152,168,40280,2,8,L|244:176,1,80,8|8,0:3|0:3,0:3:0:0:
360,256,40617,2,0,P|368:312|356:352,1,80,10|0,0:0|0:0,0:0:0:0:
196,306,40954,6,0,L|276:296,1,80,10|0,0:3|0:0,0:0:0:0:
408,172,41291,2,0,L|328:161,1,80,10|0,0:0|0:0,0:0:0:0:
240,200,41628,1,10,0:3:0:0:
440,268,41797,2,0,P|480:244|500:204,1,80,10|8,0:3|0:0,0:0:0:0:
412,17,42134,6,0,B|392:65|392:65|408:173,1,160,10|10,0:3|0:3,0:0:0:0:
492,80,42639,1,10,0:0:0:0:
308,124,42808,1,0,0:0:0:0:
308,124,42892,1,8,0:0:0:0:
308,124,42976,2,8,L|216:112,1,80,8|8,0:3|0:3,0:3:0:0:
76,48,43313,2,0,P|132:32|176:44,1,80,10|0,0:0|0:0,0:0:0:0:
280,208,43651,6,0,L|200:197,1,80,14|0,0:3|0:0,0:0:0:0:
148,344,43988,2,0,L|227:333,1,80,10|0,0:0|0:0,0:0:0:0:
392,224,44325,1,10,0:0:0:0:
436,360,44493,1,10,0:3:0:0:
392,224,44662,1,10,0:3:0:0:
227,333,44830,6,0,B|203:273|203:273|223:165,1,160,14|10,0:3|0:3,0:0:0:0:
248,52,45336,1,10,0:0:0:0:
340,132,45504,1,8,0:3:0:0:
340,132,45589,1,8,0:0:0:0:
340,132,45673,1,8,0:3:0:0:
132,96,45842,1,8,0:0:0:0:
132,96,45926,1,8,0:0:0:0:
132,96,46010,2,8,L|40:108,1,80,8|8,0:3|0:3,0:3:0:0:
108,244,46347,5,6,1:2:0:0:
224,148,46516,1,2,0:0:0:0:
108,244,46684,1,10,0:3:0:0:
224,148,46853,2,0,B|268:144|268:144|312:152|312:152|368:148,1,128,10|8,0:0|0:3,0:0:0:0:
484,136,47358,1,8,0:0:0:0:
484,136,47696,5,2,1:2:0:0:
412,232,47864,1,2,0:0:0:0:
412,232,47948,1,10,0:0:0:0:
412,232,48033,1,2,0:0:0:0:
504,328,48201,2,0,P|444:320|368:332,1,128,10|8,0:0|0:3,0:0:0:0:
244,368,48707,1,8,0:0:0:0:
244,368,49044,5,2,1:2:0:0:
272,212,49212,1,2,0:0:0:0:
244,368,49381,1,10,0:3:0:0:
272,212,49549,2,0,B|224:216|224:216|184:204|184:204|136:208,1,128,10|8,0:0|0:3,0:0:0:0:
8,220,50055,1,8,0:0:0:0:
124,112,50224,1,10,0:0:0:0:
128,96,50308,1,10,0:0:0:0:
132,80,50392,5,2,1:2:0:0:
16,136,50561,1,10,0:3:0:0:
146,207,50729,1,10,0:3:0:0:
9,263,50898,2,0,B|16:224|16:224|9:175|9:175|17:127,1,128,10|8,0:0|0:3,0:0:0:0:
136,64,51403,2,0,L|176:60,1,32,8|8,0:0|0:0,0:0:0:0:
240,104,51572,2,0,L|280:108,1,32,8|8,0:0|0:0,0:0:0:0:
352,80,51740,5,6,1:2:0:0:
288,236,51909,1,2,0:0:0:0:
352,80,52078,1,10,0:3:0:0:
288,236,52246,2,0,B|244:232|244:232|200:240|200:240|144:236,1,128,10|8,0:0|0:3,0:0:0:0:
24,220,52752,1,8,0:0:0:0:
24,220,53089,5,2,1:2:0:0:
116,96,53257,1,2,0:0:0:0:
116,96,53342,1,10,0:0:0:0:
116,96,53426,1,2,0:0:0:0:
161,237,53594,2,0,P|153:297|165:373,1,128,10|8,0:0|0:3,0:0:0:0:
304,296,54100,1,8,0:0:0:0:
304,296,54437,5,2,1:2:0:0:
332,140,54606,1,2,0:0:0:0:
304,296,54774,1,10,0:3:0:0:
332,140,54943,2,0,B|284:144|284:144|244:132|244:132|196:136,1,128,14|8,0:0|0:3,0:0:0:0:
36,148,55448,1,8,0:0:0:0:
140,264,55617,1,10,0:0:0:0:
136,280,55701,1,10,0:0:0:0:
132,296,55785,5,2,1:2:0:0:
120,132,55954,1,10,0:3:0:0:
232,216,56122,1,10,0:3:0:0:
29,274,56291,2,0,B|36:235|36:235|29:186|29:186|37:138,1,128,10|8,0:0|0:3,0:0:0:0:
152,32,56797,1,8,0:0:0:0:
188,24,56881,1,8,0:0:0:0:
228,28,56965,1,8,0:0:0:0:
260,48,57049,1,8,0:0:0:0:
284,80,57134,6,0,L|368:76,1,80,14|0,0:3|0:0,0:0:0:0:
460,68,57471,1,8,0:3:0:0:
376,192,57639,2,0,P|372:248|388:288,1,80,10|0,0:0|0:0,0:0:0:0:
472,228,57976,1,8,0:3:0:0:
420,372,58145,1,10,0:0:0:0:
396,368,58229,1,8,0:0:0:0:
372,364,58313,1,8,0:0:0:0:
348,360,58398,1,8,0:0:0:0:
324,356,58482,6,0,L|264:288,1,80,10|0,0:3|0:0,0:0:0:0:
204,228,58819,1,8,0:3:0:0:
387,114,58988,2,0,P|387:162|362:209,1,80,10|0,0:0|0:0,0:0:0:0:
296,140,59325,1,8,0:3:0:0:
456,40,59493,1,10,0:0:0:0:
472,60,59578,1,8,0:0:0:0:
480,84,59662,1,8,0:3:0:0:
375,191,59830,6,0,L|287:183,1,80,14|0,0:0|0:0,0:0:0:0:
168,360,60167,2,0,L|256:352,1,80,10|0,0:0|0:0,0:0:0:0:
108,160,60504,2,0,P|100:200|116:248,1,80,10|0,0:0|0:0,0:0:0:0:
295,183,60842,1,10,0:0:0:0:
292,152,60926,1,8,0:0:0:0:
288,120,61010,1,8,0:0:0:0:
285,89,61094,1,8,0:0:0:0:
281,57,61179,6,0,L|388:48,1,96,10|0,0:0|0:0,0:0:0:0:
456,72,61516,6,0,B|500:120|480:184|480:184|496:236|496:236|480:300,1,240.000009155274,10|0,0:0|0:0,0:0:0:0:
480,299,62190,5,2,0:0:0:0:
168,256,62527,6,0,B|268:248,1,95.9999970703126,14|0,0:3|0:0,0:0:0:0:
224,368,62864,2,0,B|124:360,1,95.9999970703126,8|0,0:0|0:0,0:0:0:0:
24,256,63201,1,8,0:3:0:0:
168,256,63370,1,8,0:3:0:0:
36,344,63538,1,10,0:0:0:0:
112,176,63707,6,0,B|184:168|184:168|224:188|224:188|304:180,1,191.999994140625,10|10,0:3|0:3,0:0:0:0:
460,228,64212,1,8,0:0:0:0:
352,104,64381,1,2,0:0:0:0:
352,104,64465,1,8,0:0:0:0:
352,104,64549,2,0,L|348:8,1,95.9999970703126,8|10,0:3|0:3,0:0:0:0:
463,132,64887,2,0,L|459:228,1,95.9999970703126,8|2,0:0|0:0,0:0:0:0:
328,320,65224,6,0,B|256:324|256:324|208:304|208:304|136:308,2,191.999994140625,10|10|10,0:3|0:0|0:3,0:0:0:0:
356,152,66066,2,0,P|308:176|280:216,1,95.9999970703126,10|8,0:3|0:0,0:0:0:0:
460,224,66403,6,0,B|484:164|484:164|456:40,1,191.999994140625,10|8,0:3|0:3,0:0:0:0:
344,12,66909,1,8,0:0:0:0:
256,84,67078,1,0,0:0:0:0:
256,84,67162,1,8,0:0:0:0:
256,84,67246,2,8,L|152:76,1,95.9999970703126,8|8,0:3|0:3,0:3:0:0:
24,68,67583,2,0,B|-3:120|44:152|8:216,1,143.999995605469,10|0,0:0|0:0,0:0:0:0:
11,208,67920,6,0,P|67:192|119:200,1,95.9999970703126,14|0,0:3|0:0,0:0:0:0:
232,312,68257,2,0,L|136:324,1,95.9999970703126,8|0,0:0|0:0,0:0:0:0:
364,272,68594,2,8,L|380:376,1,95.9999970703126,10|8,0:3|0:3,0:3:0:0:
440,192,68931,1,8,0:0:0:0:
280,236,69100,6,8,P|224:200|228:84,1,191.999994140625,10|8,0:3|0:3,0:3:0:0:
312,12,69606,1,10,0:0:0:0:
383,111,69774,1,0,0:0:0:0:
383,111,69858,1,8,0:0:0:0:
383,111,69943,1,10,0:3:0:0:
280,236,70111,1,10,0:3:0:0:
227,84,70280,1,8,0:0:0:0:
412,216,70448,5,2,0:0:0:0:
208,168,70617,2,0,P|140:172|88:192,1,95.9999970703126,10|0,0:3|0:0,0:0:0:0:
248,348,70954,2,0,P|316:344|368:324,1,95.9999970703126,10|0,0:0|0:0,0:0:0:0:
412,216,71291,1,10,0:3:0:0:
280,236,71460,1,10,0:3:0:0:
412,216,71628,1,8,0:0:0:0:
196,288,71797,6,8,P|184:212|272:136,1,191.999994140625,14|10,0:3|0:3,0:3:0:0:
412,216,72302,1,12,0:0:0:0:
196,288,72471,2,0,L|128:284,1,47.9999985351563,8|8,0:0|0:0,0:0:0:0:
68,352,72639,2,0,L|0:356,2,47.9999985351563,8|8|8,0:0|0:0|0:0,0:0:0:0:
268,364,72976,1,10,0:0:0:0:
287,333,73061,1,8,0:0:0:0:
296,299,73145,1,8,0:0:0:0:
294,263,73229,1,8,0:0:0:0:
281,230,73313,6,0,B|272:136|272:136|288:72,1,143.999995605469,14|0,0:3|0:0,0:0:0:0:
372,144,73651,2,0,L|380:240,1,95.9999970703126,12|0,0:0|0:0,0:0:0:0:
268,364,73988,1,8,0:3:0:0:
192,216,74156,1,8,0:3:0:0:
368,320,74325,1,10,0:0:0:0:
180,312,74493,6,8,P|140:296|116:160,1,191.999994140625,10|10,0:3|0:3,0:3:0:0:
256,72,74999,1,8,0:0:0:0:
192,216,75167,1,2,0:0:0:0:
192,216,75252,1,8,0:0:0:0:
192,216,75336,5,8,0:3:0:0:
160,40,75504,1,10,0:3:0:0:
316,260,75673,1,8,0:0:0:0:
348,84,75842,1,2,0:0:0:0:
156,132,76010,6,0,P|108:132|56:116,1,95.9999970703126,10|0,0:3|0:0,0:0:0:0:
288,16,76347,2,0,P|334:2|381:2,1,95.9999970703126,10|0,0:0|0:0,0:0:0:0:
484,144,76684,1,10,0:3:0:0:
268,208,76853,2,0,L|272:112,1,95.9999970703126,10|8,0:3|0:0,0:0:0:0:
312,328,77190,6,0,B|256:332|256:332|188:312|188:312|108:320,1,191.999994140625,14|8,0:3|0:3,0:0:0:0:
8,332,77696,1,8,0:0:0:0:
120,204,77864,1,0,0:0:0:0:
120,204,77948,1,8,0:0:0:0:
120,204,78033,2,8,L|128:96,1,95.9999970703126,8|8,0:3|0:3,0:3:0:0:
256,40,78370,1,10,0:0:0:0:
392,204,78538,5,8,0:0:0:0:
392,204,78622,1,8,0:0:0:0:
392,204,78707,2,0,L|384:96,1,95.9999970703126,14|0,0:3|0:0,0:0:0:0:
256,280,79044,1,8,0:0:0:0:
384,364,79212,5,8,0:0:0:0:
384,364,79297,1,8,0:0:0:0:
384,364,79381,2,8,L|492:356,1,95.9999970703126,10|8,0:3|0:3,0:3:0:0:
392,204,79718,1,10,0:0:0:0:
256,280,79887,5,8,0:0:0:0:
256,280,79971,1,8,0:0:0:0:
256,280,80055,2,0,L|148:272,1,95.9999970703126,14|0,0:3|0:0,0:0:0:0:
32,148,80392,1,8,0:0:0:0:
68,328,80561,1,2,0:0:0:0:
168,112,80729,6,8,L|224:116,3,47.9999985351563,8|8|8|8,0:0|0:3|0:3|0:3,0:3:0:0:
284,192,81066,6,8,L|340:188,1,47.9999985351563,10|8,0:0|0:0,0:0:0:0:
388,76,81235,2,8,L|340:72,1,47.9999985351563,10|8,0:0|0:0,0:0:0:0:
444,224,81403,1,14,0:3:0:0:
256,192,81488,12,0,84100,0:0:0:0:
100,148,92190,6,0,L|204:144,1,80,6|0,1:2|0:0,0:0:0:0:
216,112,92443,1,2,0:0:0:0:
216,112,92527,2,0,L|320:116,1,80,10|2,0:0|0:0,0:0:0:0:
400,192,92864,1,10,0:3:0:0:
352,304,93033,1,10,0:3:0:0:
280,208,93201,1,10,0:0:0:0:
472,148,93370,6,0,P|484:200|472:240,1,80,10|0,0:3|0:0,0:0:0:0:
352,304,93707,2,0,P|340:252|352:212,1,80,10|8,0:3|0:0,0:0:0:0:
404,88,94044,1,2,0:0:0:0:
404,88,94128,1,10,0:0:0:0:
404,88,94212,2,2,L|360:84,3,40,10|2|10|2,0:3|0:0|0:3|0:0,0:0:0:0:
304,24,94549,2,0,L|212:28,1,80,10|0,0:0|0:0,0:0:0:0:
128,136,94887,6,0,P|120:184|132:220,1,80,2|0,1:2|0:0,0:0:0:0:
168,244,95139,1,2,0:0:0:0:
168,244,95224,2,0,L|160:328,1,80,10|2,0:0|0:0,0:0:0:0:
280,372,95561,1,10,0:3:0:0:
360,276,95729,1,10,0:3:0:0:
256,204,95898,1,10,0:0:0:0:
360,276,96066,6,0,L|456:268,1,80,14|0,0:3|0:0,0:0:0:0:
392,132,96403,2,0,L|296:124,1,80,10|8,0:3|0:0,0:0:0:0:
188,216,96740,1,10,0:0:0:0:
188,216,96825,1,10,0:0:0:0:
188,216,96909,1,10,0:3:0:0:
148,64,97078,1,10,0:3:0:0:
148,64,97162,1,2,0:0:0:0:
148,64,97246,2,0,P|88:56|44:64,1,80,10|0,0:0|0:0,0:0:0:0:
16,184,97583,6,0,L|104:192,1,80,6|0,1:2|0:0,0:0:0:0:
144,196,97836,1,2,0:0:0:0:
144,196,97920,2,0,B|152:236|152:236|140:296,1,80,10|2,0:0|0:0,0:0:0:0:
4,272,98257,1,10,0:3:0:0:
84,112,98426,1,10,0:3:0:0:
232,196,98594,1,10,0:0:0:0:
140,354,98763,6,0,L|144:266,1,80,10|0,0:3|0:0,0:0:0:0:
228,116,99100,2,0,L|231:195,1,80,10|8,0:3|0:0,0:0:0:0:
340,292,99437,1,2,0:0:0:0:
340,292,99521,1,10,0:0:0:0:
340,292,99606,2,2,L|392:284,3,40,10|2|10|2,0:3|0:0|0:3|0:0,0:0:0:0:
456,256,99943,2,0,P|472:212|464:168,1,80,10|0,0:0|0:0,0:0:0:0:
368,32,100280,6,0,L|280:40,1,80,6|0,1:2|0:0,0:0:0:0:
252,68,100533,1,2,0:0:0:0:
252,68,100617,2,0,B|244:108|244:108|256:168,1,80,10|2,0:0|0:0,0:0:0:0:
340,292,100954,1,10,0:3:0:0:
336,108,101122,1,10,0:3:0:0:
232,248,101291,1,10,0:0:0:0:
408,192,101460,6,0,P|436:152|444:120,1,80,14|0,0:3|0:0,0:0:0:0:
300,38,101797,2,0,P|311:76|335:107,1,80,10|12,0:3|0:0,0:0:0:0:
443,122,102134,2,2,L|491:114,2,40,2|10|10,0:0|0:0|0:3,0:0:0:0:
296,196,102471,1,10,0:0:0:0:
296,196,102555,1,10,0:0:0:0:
296,196,102639,1,10,0:3:0:0:
376,248,102808,1,0,0:0:0:0:
256,304,102976,6,0,B|216:304|216:304|176:292|176:292|124:292,2,128,14|8|8,2:3|2:3|2:3,2:3:0:0:
344,364,103819,1,8,2:3:0:0:
344,364,103903,1,8,2:3:0:0:
344,364,103988,2,0,L|428:356,1,64,8|0,2:3|2:3,2:3:0:0:
484,288,104325,6,0,P|504:240|496:152,2,128,10|8|8,2:3|2:3|2:3,2:3:0:0:
412,120,105336,1,8,2:3:0:0:
256,232,105673,2,0,L|124:216,1,128,10|8,2:3|2:3,2:3:0:0:
32,264,106179,1,8,2:3:0:0:
32,264,106263,1,8,2:3:0:0:
32,264,106347,2,0,L|40:336,1,64,8|0,2:3|2:3,2:3:0:0:
128,216,106684,2,0,L|135:152,1,64,8|0,2:3|2:3,2:3:0:0:
100,44,107021,6,0,P|168:72|244:48,2,128,10|8|8,2:3|2:3|2:3,2:3:0:0:
16,100,107864,1,2,2:3:0:0:
68,184,108033,2,0,L|60:256,1,64,8|0,2:3|2:3,2:3:0:0:
48,352,108370,6,0,P|108:332|192:340,1,120,2|8,0:0|0:3,0:0:0:0:
212,344,108707,2,0,L|204:256,1,80,10|0,0:3|0:0,0:0:0:0:
272,140,109044,1,2,0:0:0:0:
352,260,109212,1,8,0:3:0:0:
352,260,109381,2,0,L|440:252,1,80,10|0,0:3|0:0,0:0:0:0:
272,140,109718,6,0,P|216:124|184:132,1,80,10|0,0:3|0:0,0:0:0:0:
108,200,110055,1,10,0:3:0:0:
204,280,110224,1,0,0:0:0:0:
204,280,110308,1,8,0:0:0:0:
204,280,110392,2,0,L|200:368,1,80,10|0,0:3|0:0,0:0:0:0:
56,372,110729,2,0,L|52:292,1,80,10|0,0:0|0:0,0:0:0:0:
83,132,111066,6,0,P|131:112|211:140,1,120,10|0,0:3|0:0,0:0:0:0:
228,164,111403,2,0,L|320:152,1,80,10|0,0:0|0:0,0:0:0:0:
364,296,111740,2,0,L|284:286,1,80,10|0,0:3|0:0,0:0:0:0:
208,352,112078,1,10,0:0:0:0:
412,372,112246,6,0,P|392:328|416:212,1,160,14|8,0:3|0:3,0:0:0:0:
484,160,112752,1,8,0:0:0:0:
344,108,112920,1,8,0:0:0:0:
484,48,113089,5,12,0:0:0:0:
409,221,113257,1,8,0:0:0:0:
272,56,113426,2,0,L|216:64,1,40,10|8,0:0|0:0,0:0:0:0:
176,128,113594,2,0,L|120:120,1,40,8|8,0:0|0:0,0:0:0:0:
56,96,113763,6,0,L|64:192,1,80,14|0,0:3|0:0,0:0:0:0:
204,284,114100,2,0,L|210:204,1,80,10|0,0:0|0:0,0:0:0:0:
72,276,114437,1,10,0:3:0:0:
192,376,114606,2,0,P|252:360|280:364,1,80,10|8,0:3|0:0,0:0:0:0:
424,380,114943,6,0,B|408:328|408:328|424:220,1,160,10|10,0:3|0:3,0:0:0:0:
440,104,115448,1,10,0:0:0:0:
312,168,115617,1,0,0:0:0:0:
312,168,115701,1,8,0:0:0:0:
312,168,115785,2,8,L|224:160,1,80,8|8,0:3|0:3,0:3:0:0:
88,188,116122,2,0,B|84:148|84:148|96:100,1,80,10|0,0:0|0:0,0:0:0:0:
239,81,116460,6,0,L|231:165,1,80,10|0,0:3|0:0,0:0:0:0:
95,267,116797,2,0,L|87:187,1,80,10|0,0:0|0:0,0:0:0:0:
228,256,117134,1,10,0:3:0:0:
144,360,117302,1,10,0:3:0:0:
228,256,117471,1,10,0:0:0:0:
336,352,117639,6,0,P|384:360|476:304,1,160,10|10,0:3|0:3,0:0:0:0:
488,164,118145,1,10,0:0:0:0:
352,196,118313,1,0,0:0:0:0:
352,196,118398,1,8,0:0:0:0:
352,196,118482,2,8,P|296:200|248:188,1,80,8|8,0:3|0:3,0:3:0:0:
96,72,118819,2,0,L|196:64,1,80,10|0,0:0|0:0,0:0:0:0:
152,248,119156,6,0,P|140:204|144:160,1,80,14|0,0:3|0:0,0:0:0:0:
284,40,119493,2,0,P|285:79|273:118,1,80,10|0,0:0|0:0,0:0:0:0:
141,169,119830,1,10,0:3:0:0:
175,65,119999,1,10,0:3:0:0:
273,118,120167,1,10,0:0:0:0:
68,240,120336,6,0,B|48:176|48:176|56:72,1,160,10|10,0:3|0:3,0:0:0:0:
184,36,120842,1,10,0:0:0:0:
220,172,121010,1,0,0:0:0:0:
220,172,121094,1,8,0:0:0:0:
220,172,121179,2,8,L|128:168,1,80,8|8,0:3|0:3,0:3:0:0:
116,324,121516,2,0,L|208:320,1,80,10|0,0:0|0:0,0:0:0:0:
304,224,121853,6,0,P|316:172|308:132,1,80,14|0,0:3|0:0,0:0:0:0:
131,90,122190,2,0,P|128:129|139:167,1,80,10|0,0:0|0:0,0:0:0:0:
195,320,122527,1,10,0:0:0:0:
304,224,122696,1,10,0:3:0:0:
139,167,122864,1,10,0:3:0:0:
364,296,123033,6,0,B|388:240|388:240|376:140,1,160,14|10,0:3|0:3,0:0:0:0:
224,48,123538,1,10,0:0:0:0:
224,233,123707,1,8,0:3:0:0:
224,233,123791,1,8,0:0:0:0:
224,233,123875,1,8,0:3:0:0:
332,72,124044,2,0,L|328:16,2,40,8|8|8,0:0|0:0|0:3,0:0:0:0:
392,248,124381,1,8,0:3:0:0:
244,132,124549,5,6,1:2:0:0:
392,144,124718,1,2,0:0:0:0:
244,132,124887,1,10,0:3:0:0:
392,144,125055,2,0,P|392:212|384:280,1,128,10|8,0:0|0:3,0:0:0:0:
184,200,125561,1,8,0:0:0:0:
184,200,125898,5,2,1:2:0:0:
140,344,126066,1,2,0:0:0:0:
140,344,126151,1,2,0:0:0:0:
140,344,126235,1,2,0:0:0:0:
64,208,126403,2,0,P|56:148|88:68,1,128,10|8,0:0|0:3,0:0:0:0:
272,96,126909,1,8,0:0:0:0:
272,96,127246,5,2,1:2:0:0:
352,220,127415,1,2,0:0:0:0:
272,96,127583,1,10,0:3:0:0:
352,220,127752,2,0,P|420:212|488:224,1,128,10|8,0:0|0:3,0:0:0:0:
504,332,128257,1,8,0:0:0:0:
384,360,128426,1,10,0:0:0:0:
384,360,128510,1,10,0:0:0:0:
384,360,128594,5,2,1:2:0:0:
352,220,128763,1,10,0:3:0:0:
268,316,128931,1,10,0:3:0:0:
233,193,129100,2,0,P|309:193|361:229,1,128,10|8,0:0|0:3,0:0:0:0:
184,280,129606,2,8,L|132:272,1,32
88,212,129774,2,8,L|36:220,1,32
8,292,129943,5,6,1:2:0:0:
24,136,130111,1,2,0:0:0:0:
8,292,130280,1,10,0:3:0:0:
24,136,130448,2,0,B|72:128|72:128|100:136|100:136|152:128,1,128,10|8,0:0|0:3,0:0:0:0:
304,100,130954,1,8,0:0:0:0:
304,100,131291,5,2,1:2:0:0:
256,208,131460,1,2,0:0:0:0:
256,208,131544,1,2,0:0:0:0:
256,208,131628,1,2,0:0:0:0:
400,244,131797,2,0,P|396:184|404:108,1,128,10|8,0:0|0:3,0:0:0:0:
484,20,132302,1,8,0:0:0:0:
484,20,132639,5,2,1:2:0:0:
312,64,132808,1,2,0:0:0:0:
484,20,132976,1,10,0:3:0:0:
312,64,133145,2,0,B|272:68|272:68|228:56|228:56|184:60,1,128,14|8,0:0|0:3,0:0:0:0:
68,156,133651,1,8,0:0:0:0:
224,152,133819,1,10,0:0:0:0:
224,152,133903,1,10,0:0:0:0:
224,152,133988,5,2,1:2:0:0:
60,48,134156,1,10,0:3:0:0:
104,240,134325,1,10,0:3:0:0:
185,59,134493,2,0,B|232:56|232:56|265:67|265:67|320:64,1,128,10|8,0:0|0:3,0:0:0:0:
432,108,134999,1,10,0:0:0:0:
444,144,135083,1,8,0:0:0:0:
444,184,135167,1,8,0:0:0:0:
428,220,135252,1,8,0:0:0:0:
400,248,135336,6,0,L|316:236,1,80,14|0,0:3|0:0,0:0:0:0:
224,220,135673,1,8,0:3:0:0:
204,368,135842,2,0,L|288:356,1,80,10|0,0:0|0:0,0:0:0:0:
380,340,136179,1,8,0:3:0:0:
224,220,136347,1,10,0:0:0:0:
194,220,136431,1,8,0:0:0:0:
164,227,136516,1,8,0:0:0:0:
137,239,136600,1,8,0:0:0:0:
112,256,136684,6,0,L|120:168,1,80,10|0,0:3|0:0,0:0:0:0:
128,80,137021,1,8,0:3:0:0:
312,224,137190,2,0,L|304:135,1,80,10|0,0:0|0:0,0:0:0:0:
296,47,137527,1,8,0:3:0:0:
456,152,137696,1,10,0:0:0:0:
456,152,137780,1,8,0:0:0:0:
456,152,137864,1,8,0:3:0:0:
312,224,138033,6,0,P|252:220|228:208,1,80,14|0,0:0|0:0,0:0:0:0:
60,148,138370,2,0,L|160:140,1,80,10|0,0:0|0:0,0:0:0:0:
360,40,138707,2,0,L|272:32,1,80,10|0,0:0|0:0,0:0:0:0:
32,16,139044,2,8,L|24:72,1,40,10|8,0:0|0:0,0:0:0:0:
139,141,139212,2,8,L|133:101,1,40
36,152,139381,6,0,P|20:208|32:260,1,80,14|0,0:0|0:0,0:0:0:0:
36,276,139634,1,8,0:0:0:0:
36,276,139718,1,8,0:0:0:0:
248,248,139887,2,0,L|152:252,1,80,12|0,0:0|0:0,0:0:0:0:
144,292,140139,1,8,0:0:0:0:
144,292,140224,1,8,0:0:0:0:
316,360,140392,6,8,L|320:332,5,26.6666666666667,10|8|8|8|8|8,0:0|0:0|0:0|0:0|0:0|0:0,0:0:0:0:
348,308,140729,6,0,L|340:200,1,95.9999970703126,14|0,0:3|0:0,0:0:0:0:
472,100,141066,2,0,L|464:195,1,95.9999970703126,10|0,0:0|0:0,0:0:0:0:
348,308,141403,1,8,0:3:0:0:
220,184,141572,1,8,0:3:0:0:
376,128,141740,1,10,0:0:0:0:
240,268,141909,6,0,B|176:272|176:272|116:252|116:252|40:256,1,191.999994140625,10|10,0:3|0:3,0:0:0:0:
96,372,142415,1,8,0:0:0:0:
188,180,142583,1,2,0:0:0:0:
188,180,142667,1,8,0:0:0:0:
188,180,142752,2,8,L|184:84,1,95.9999970703126,8|10,0:3|0:3,0:3:0:0:
352,240,143089,2,0,L|348:336,1,95.9999970703126,8|2,0:0|0:0,0:0:0:0:
292,156,143426,6,0,B|340:132|380:136|416:160|416:160|416:124|440:100,2,191.999994140625,10|10|10,0:3|0:0|0:3,0:0:0:0:
156,280,144269,2,0,L|256:288,1,95.9999970703126,10|8,0:3|0:0,0:0:0:0:
76,140,144606,6,8,B|80:204|80:204|52:252|52:252|56:332,1,191.999994140625,10|8,0:3|0:3,0:3:0:0:
168,368,145111,1,8,0:0:0:0:
212,176,145280,1,0,0:0:0:0:
212,176,145364,1,8,0:0:0:0:
212,176,145448,2,8,P|216:124|204:80,1,95.9999970703126,8|8,0:3|0:3,0:3:0:0:
31,262,145785,2,0,L|187:270,1,143.999995605469,10|0,0:0|0:0,0:0:0:0:
174,269,146122,6,0,B|180:317|180:317|166:373,1,95.9999970703126,14|0,0:3|0:0,0:0:0:0:
360,268,146460,2,0,B|352:215|352:215|360:168,1,95.9999970703126,8|0,0:0|0:0,0:0:0:0:
480,68,146797,2,8,L|384:71,1,95.9999970703126,10|8,0:3|0:3,0:3:0:0:
256,16,147134,1,8,0:0:0:0:
140,208,147302,6,8,P|140:304|220:368,1,191.999994140625,10|8,0:3|0:3,0:3:0:0:
384,340,147808,1,10,0:0:0:0:
264,164,147976,1,0,0:0:0:0:
264,164,148061,1,8,0:0:0:0:
264,164,148145,1,10,0:3:0:0:
207,364,148313,1,10,0:3:0:0:
344,204,148482,1,8,0:0:0:0:
152,168,148651,1,2,0:0:0:0:
376,284,148819,6,0,P|420:240|428:188,1,95.9999970703126,10|0,0:3|0:0,0:0:0:0:
308,16,149156,2,0,L|316:112,1,95.9999970703126,10|0,0:0|0:0,0:0:0:0:
268,276,149493,1,10,0:3:0:0:
124,196,149662,1,10,0:3:0:0:
268,276,149830,1,8,0:0:0:0:
52,268,149999,6,8,P|24:212|88:100,1,191.999994140625,14|10,0:3|0:3,0:3:0:0:
224,84,150504,1,12,0:0:0:0:
168,224,150673,2,8,L|160:288,1,47.9999985351563,8|8,0:0|0:0,0:0:0:0:
268,276,150842,2,8,L|273:323,2,47.9999985351563,8|8|8,0:0|0:0|0:0,0:0:0:0:
384,136,151179,1,10,0:0:0:0:
378,90,151263,1,8,0:0:0:0:
413,60,151347,1,8,0:0:0:0:
458,72,151431,1,8,0:0:0:0:
472,116,151516,6,0,L|448:264,1,143.999995605469,14|0,0:0|0:0,0:0:0:0:
384,316,151853,2,0,B|364:268|364:268|376:212,1,95.9999970703126,12|0,0:0|0:0,0:0:0:0:
460,372,152190,1,8,0:3:0:0:
260,276,152358,1,8,0:3:0:0:
448,258,152527,1,10,0:0:0:0:
268,368,152696,6,0,B|200:372|200:372|152:340|152:340|80:344,1,191.999994140625,10|10,0:3|0:3,0:0:0:0:
12,248,153201,1,8,0:0:0:0:
140,176,153370,1,2,0:0:0:0:
140,176,153454,1,8,0:0:0:0:
140,176,153538,5,8,0:3:0:0:
85,343,153707,1,10,0:3:0:0:
32,152,153875,1,8,0:0:0:0:
240,196,154044,1,2,0:0:0:0:
85,343,154212,6,0,L|76:240,1,95.9999970703126,10|0,0:3|0:0,0:0:0:0:
296,372,154549,2,0,L|305:269,1,95.9999970703126,10|0,0:0|0:0,0:0:0:0:
256,68,154887,1,10,0:3:0:0:
400,208,155055,2,0,P|456:212|496:200,1,95.9999970703126,10|8,0:3|0:0,0:0:0:0:
336,120,155392,6,0,B|288:152|288:152|148:136,1,191.999994140625,14|8,0:3|0:3,0:0:0:0:
48,56,155898,1,8,0:0:0:0:
20,204,156066,1,0,0:0:0:0:
20,204,156151,1,8,0:0:0:0:
20,204,156235,6,8,L|32:312,1,95.9999970703126,8|8,0:3|0:3,0:3:0:0:
152,368,156572,1,10,0:0:0:0:
296,224,156740,1,8,0:0:0:0:
296,224,156825,1,8,0:0:0:0:
296,224,156909,6,0,P|240:212|184:224,1,95.9999970703126,14|0,0:3|0:0,0:0:0:0:
112,296,157246,1,8,0:0:0:0:
392,304,157415,1,8,0:0:0:0:
392,304,157499,1,8,0:0:0:0:
392,304,157583,6,8,L|400:196,1,95.9999970703126,10|8,0:3|0:3,0:3:0:0:
368,64,157920,1,10,0:0:0:0:
202,217,158089,1,8,0:0:0:0:
202,217,158173,1,8,0:0:0:0:
202,217,158257,6,0,L|210:329,1,95.9999970703126,6|0,0:0|0:0,0:0:0:0:
399,208,158594,2,0,L|405:112,1,95.9999970703126,8|2,0:0|0:0,0:0:0:0:
141,151,158931,1,8,0:3:0:0:
162,193,159016,1,8,0:3:0:0:
202,217,159100,1,8,0:3:0:0:
250,214,159184,1,8,0:3:0:0:
288,186,159269,5,10,0:0:0:0:
304,142,159353,1,8,0:0:0:0:
293,96,159437,1,10,0:0:0:0:
259,63,159521,1,8,0:0:0:0:
212,55,159606,1,14,0:3:0:0:
256,192,159690,12,0,163651,0:0:0:0:
264,240,169044,6,0,L|372:236,1,80,14|8,0:3|0:3,0:0:0:0:
436,160,169381,1,8,0:0:0:0:
336,96,169549,1,8,0:3:0:0:
444,248,169718,5,8,0:3:0:0:
432,72,169887,1,8,0:3:0:0:
264,156,170055,1,12,0:0:0:0:
264,156,170392,6,0,B|256:196|256:196|264:244,1,80,14|0,0:3|0:0,0:0:0:0:
432,200,170729,2,0,B|392:192|392:192|344:200,1,80,10|0,0:0|0:0,0:0:0:0:
392,364,171066,2,8,B|400:324|400:324|392:276,1,80,10|8,0:3|0:3,0:3:0:0:
224,320,171403,2,0,B|264:328|264:328|312:320,1,80,10|0,0:0|0:0,0:0:0:0:
109,248,171740,6,0,L|17:256,1,80,10|0,0:3|0:0,0:0:0:0:
97,144,172078,2,0,L|89:52,1,80,10|0,0:0|0:0,0:0:0:0:
205,136,172415,2,8,L|297:128,1,80,10|8,0:3|0:3,0:3:0:0:
217,240,172752,2,0,L|225:332,1,80,10|0,0:0|0:0,0:0:0:0:
400,356,173089,6,0,P|404:300|396:268,1,80,10|0,0:3|0:0,0:0:0:0:
223,319,173426,2,0,P|279:323|311:315,1,80,10|0,0:0|0:0,0:0:0:0:
260,136,173763,2,8,P|256:192|264:224,1,80,10|8,0:3|0:3,0:3:0:0:
437,173,174100,2,0,P|381:169|349:177,1,80,10|0,0:0|0:0,0:0:0:0:
223,319,174437,6,0,L|143:307,1,80,10|0,0:3|0:0,0:0:0:0:
16,220,174774,2,0,L|96:208,1,80,10|0,0:0|0:0,0:0:0:0:
260,214,175111,1,10,0:3:0:0:
143,307,175280,1,8,0:3:0:0:
156,132,175448,1,10,0:0:0:0:
320,288,175617,1,2,0:0:0:0:
320,288,175701,1,2,0:0:0:0:
320,288,175785,6,0,L|408:280,1,80,14|0,0:3|0:0,0:0:0:0:
452,128,176122,2,0,L|364:120,1,80,10|0,0:0|0:0,0:0:0:0:
184,144,176460,5,10,0:3:0:0:
332,200,176628,1,8,0:3:0:0:
244,40,176797,1,10,0:0:0:0:
236,224,176965,1,0,0:0:0:0:
88,132,177134,6,0,P|152:128|180:132,1,80,10|0,0:3|0:0,0:0:0:0:
280,312,177471,2,0,P|216:316|188:312,1,80,10|0,0:0|0:0,0:0:0:0:
48,224,177808,5,10,0:3:0:0:
236,224,177976,1,8,0:3:0:0:
80,324,178145,1,10,0:0:0:0:
88,132,178313,1,0,0:0:0:0:
220,308,178482,5,14,0:0:0:0:
48,224,178651,1,8,0:3:0:0:
208,120,178819,1,12,0:0:0:0:
80,324,178988,5,8,0:0:0:0:
80,324,179072,1,8,0:0:0:0:
80,324,179156,1,10,0:0:0:0:
104,88,179325,1,8,0:0:0:0:
104,88,179409,1,8,0:0:0:0:
104,88,179493,1,8,0:0:0:0:
288,220,179662,1,8,0:3:0:0:
48,224,179830,6,0,L|164:212,2,106.666666666667,12|8|8,0:0|0:0|0:0,0:0:0:0:
288,220,180504,2,0,B|292:264|292:264|284:292|284:292|288:340,2,106.666666666667,12|8|8,0:0|0:0|0:0,0:0:0:0:
332,96,181179,6,0,L|244:100,1,80,14|0,0:3|0:0,0:0:0:0:
152,104,181516,1,8,0:3:0:0:
212,276,181684,2,0,L|208:188,1,80,10|0,0:0|0:0,0:0:0:0:
116,240,182021,1,8,0:3:0:0:
232,368,182190,1,10,0:0:0:0:
257,352,182274,1,8,0:0:0:0:
285,342,182358,1,8,0:0:0:0:
315,336,182443,1,8,0:0:0:0:
345,336,182527,6,0,L|432:348,1,80,10|0,0:3|0:0,0:0:0:0:
400,240,182864,1,8,0:3:0:0:
212,276,183033,2,0,L|125:287,1,80,10|0,0:0|0:0,0:0:0:0:
158,180,183370,1,8,0:3:0:0:
308,232,183538,1,10,0:0:0:0:
316,268,183622,1,8,0:0:0:0:
312,304,183707,1,8,0:0:0:0:
256,136,183875,6,0,L|268:44,1,80,14|0,0:0|0:0,0:0:0:0:
389,160,184212,2,0,L|400:240,1,80,10|0,0:0|0:0,0:0:0:0:
168,192,184549,2,0,P|152:144|156:104,1,80,10|0,0:0|0:0,0:0:0:0:
308,232,184887,1,10,0:0:0:0:
313,261,184971,1,8,0:0:0:0:
310,291,185055,1,8,0:0:0:0:
300,319,185139,1,8,0:0:0:0:
283,344,185224,6,10,L|420:332,2,120,14|10|10,0:3|0:0|0:0,0:0:0:0:
136,360,185898,1,10,0:0:0:0:
256,224,186066,1,8,0:3:0:0:
256,224,186151,1,8,0:0:0:0:
256,224,186235,1,8,0:0:0:0:
72,168,186403,1,8,0:0:0:0:
72,168,186488,1,8,0:0:0:0:
72,168,186572,5,14,0:3:0:0:
72,168,189100,6,8,L|76:112,1,40,10|8,0:0|0:0,0:0:0:0:
144,48,189269,2,0,P|200:32|276:68,1,120,14|0,0:0|0:0,0:0:0:0:
200,176,189606,2,0,L|196:124,1,40,10|8,0:0|0:3,0:0:0:0:
356,100,189774,2,0,L|352:139,1,40,8|8,0:0|0:3,0:0:0:0:
312,276,189943,2,0,L|272:272,1,40,10|8,0:0|0:3,0:0:0:0:
400,220,190111,1,10,0:0:0:0:
400,220,190448,6,0,P|412:264|356:372,1,160,14|0,0:3|0:0,0:0:0:0:
280,340,190870,1,8,0:0:0:0:
280,340,190954,2,8,L|216:332,1,40
124,264,191122,2,0,L|188:256,1,40,8|8,0:3|0:3,0:3:0:0:
268,192,191291,5,12,0:3:0:0:
289,164,191375,1,8,0:0:0:0:
295,130,191460,1,8,0:0:0:0:
287,96,191544,1,8,0:0:0:0:
264,70,191628,5,10,0:0:0:0:
232,57,191712,1,8,0:0:0:0:
197,59,191797,1,8,0:0:0:0:
167,76,191881,1,8,0:0:0:0:
148,105,191965,6,0,L|52:96,1,95.9999970703126,14|0,0:3|0:0,0:0:0:0:
112,280,192302,2,0,L|208:271,1,95.9999970703126,8|0,0:0|0:0,0:0:0:0:
392,172,192639,2,8,P|404:120|388:60,1,95.9999970703126,10|8,0:3|0:3,0:3:0:0:
252,24,192976,1,8,0:0:0:0:
304,228,193145,6,8,B|440:216|440:216|496:244,1,191.999994140625,10|8,0:3|0:3,0:3:0:0:
320,372,193651,1,10,0:0:0:0:
224,184,193819,1,0,0:0:0:0:
224,184,193903,1,8,0:0:0:0:
224,184,193988,5,10,0:3:0:0:
396,312,194156,1,10,0:3:0:0:
200,324,194325,1,8,0:0:0:0:
332,168,194493,1,2,0:0:0:0:
320,372,194662,6,0,L|304:260,1,95.9999970703126,10|0,0:3|0:0,0:0:0:0:
237,88,194999,2,0,L|223:183,1,95.9999970703126,10|0,0:0|0:0,0:0:0:0:
200,324,195336,1,10,0:3:0:0:
64,236,195504,1,10,0:3:0:0:
200,324,195673,1,8,0:0:0:0:
20,332,195842,6,0,B|16:276|16:276|48:208|48:208|44:144,1,191.999994140625,14|10,0:3|0:3,0:0:0:0:
128,20,196347,1,14,0:0:0:0:
260,156,196516,2,8,L|312:148,1,47.9999985351563
384,64,196684,2,8,L|431:71,2,47.9999985351563
231,239,197021,1,10,0:0:0:0:
234,284,197106,1,8,0:0:0:0:
274,307,197190,1,8,0:0:0:0:
316,287,197274,1,8,0:0:0:0:
323,242,197358,6,0,L|303:147,1,95.9999970703126,14|0,0:3|0:0,0:0:0:0:
176,20,197696,2,0,L|156:113,1,95.9999970703126,12|0,0:0|0:0,0:0:0:0:
68,264,198033,1,8,0:3:0:0:
220,180,198201,1,0,0:0:0:0:
44,152,198370,1,10,0:0:0:0:
168,288,198538,6,0,B|232:300|232:300|296:288|296:288|360:300,1,191.999994140625,10|10,0:3|0:3,0:0:0:0:
500,328,199044,1,8,0:0:0:0:
408,192,199212,1,2,0:0:0:0:
408,192,199297,1,8,0:0:0:0:
408,192,199381,5,8,0:3:0:0:
416,368,199549,1,10,0:3:0:0:
268,264,199718,5,8,0:0:0:0:
496,232,199887,1,2,0:0:0:0:
308,368,200055,2,0,L|208:356,1,95.9999970703126,10|0,0:3|0:0,0:0:0:0:
128,176,200392,2,0,L|228:164,1,95.9999970703126,10|0,0:0|0:0,0:0:0:0:
324,248,200729,1,10,0:3:0:0:
128,280,200898,2,0,P|84:272|40:232,1,95.9999970703126,10|8,0:3|0:0,0:0:0:0:
90,5,201235,6,0,B|138:50|138:50|127:185,1,191.999994140625,14|8,0:3|0:3,0:0:0:0:
204,352,201740,1,8,0:0:0:0:
324,248,201909,1,0,0:0:0:0:
324,248,201993,1,8,0:0:0:0:
324,248,202078,2,8,L|220:260,1,95.9999970703126,8|8,0:3|0:3,0:3:0:0:
404,332,202415,5,10,0:0:0:0:
429,291,202499,1,8,0:0:0:0:
437,244,202583,1,8,0:0:0:0:
427,198,202667,1,8,0:0:0:0:
399,159,202752,6,0,B|288:172|288:172|252:156,1,143.999995605469,14|0,0:3|0:0,0:0:0:0:
300,92,203089,2,0,L|404:80,1,95.9999970703126,10|0,0:0|0:0,0:0:0:0:
268,272,203426,1,14,0:0:0:0:
268,272,203510,1,8,0:0:0:0:
268,272,203594,1,8,0:0:0:0:
200,52,203763,1,10,0:0:0:0:
399,159,203931,1,8,0:0:0:0:
164,156,204100,6,0,L|56:152,1,95.9999970703126,14|0,0:3|0:0,0:0:0:0:
12,220,204353,1,8,0:0:0:0:
12,220,204437,2,0,B|8:268|8:268|32:320,1,95.9999970703126,8|8,0:3|0:3,0:0:0:0:
180,376,204774,1,14,0:0:0:0:
256,232,204943,6,8,P|220:232|184:212,1,47.9999985351563,8|8,0:3|0:3,0:3:0:0:
164,156,205111,1,10,0:0:0:0:
171,109,205196,1,8,0:0:0:0:
204,75,205280,1,8,0:0:0:0:
250,66,205364,1,8,0:0:0:0:
296,88,205448,6,0,B|324:88|324:88|340:84|340:84|368:84,1,71.9999978027344,10|0,0:3|0:0,0:0:0:0:
444,112,205785,6,0,P|476:168|456:248,1,143.999995605469,14|8,0:0|0:3,0:0:0:0:
372,288,206122,2,8,L|316:276,1,47.9999985351563,8|8,0:3|0:3,0:3:0:0:
252,176,206291,2,8,L|308:164,1,47.9999985351563,8|8,0:3|0:3,0:3:0:0:
360,300,206460,2,8,L|313:289,1,47.9999985351563,10|8,0:3|0:3,0:3:0:0:
164,232,206628,6,0,B|148:184|148:184|160:80,1,143.999995605469,14|0,0:0|0:0,0:0:0:0:
172,12,206965,1,10,0:3:0:0:
252,176,207134,5,8,0:0:0:0:
64,80,207302,1,10,0:0:0:0:
84,268,207471,5,12,0:0:0:0:
158,91,207639,1,10,0:0:0:0:
295,227,207808,1,8,0:0:0:0:
260,260,207892,1,8,0:0:0:0:
252,308,207976,1,8,0:0:0:0:
276,348,208061,1,8,0:0:0:0:
320,368,208145,6,0,L|416:364,1,95.9999970703126,14|0,0:3|0:0,0:0:0:0:
295,227,208482,2,0,L|199:219,1,95.9999970703126,10|0,0:0|0:0,0:0:0:0:
196,372,208819,1,10,0:3:0:0:
392,256,208988,2,0,P|392:208|368:156,1,95.9999970703126,10|8,0:3|0:0,0:0:0:0:
113,215,209325,6,8,B|173:247|173:247|321:223,1,191.999994140625,14|8,0:3|0:3,0:3:0:0:
408,72,209830,1,8,0:0:0:0:
196,52,209999,1,0,0:0:0:0:
196,52,210083,1,8,0:0:0:0:
196,52,210167,2,8,L|188:160,1,95.9999970703126,8|8,0:3|0:3,0:3:0:0:
299,335,210504,2,0,B|281:237|281:237|285:181,1,143.999995605469,10|0,0:0|0:0,0:0:0:0:
284,192,210842,6,0,P|352:184|384:192,1,95.9999970703126,14|0,0:3|0:0,0:0:0:0:
190,241,211179,2,0,P|182:173|190:141,1,95.9999970703126,8|0,0:0|0:0,0:0:0:0:
316,8,211516,1,10,0:3:0:0:
284,192,211684,1,8,0:3:0:0:
172,48,211853,1,8,0:0:0:0:
408,72,212021,6,0,B|436:124|436:124|420:260,1,191.999994140625,10|8,0:3|0:3,0:0:0:0:
292,348,212527,1,10,0:0:0:0:
288,192,212696,1,0,0:0:0:0:
288,192,212780,1,8,0:0:0:0:
288,192,212864,5,10,0:3:0:0:
392,344,213033,1,10,0:3:0:0:
232,272,213201,1,8,0:0:0:0:
420,256,213370,1,2,0:0:0:0:
272,360,213538,6,0,P|216:368|176:352,1,95.9999970703126,10|0,0:3|0:0,0:0:0:0:
168,104,213875,2,0,L|172:200,1,95.9999970703126,10|0,0:0|0:0,0:0:0:0:
36,336,214212,1,10,0:3:0:0:
68,156,214381,1,10,0:3:0:0:
232,272,214549,1,8,0:0:0:0:
24,244,214718,6,0,B|20:184|20:184|44:124|44:124|40:40,1,191.999994140625,14|10,0:3|0:3,0:0:0:0:
184,20,215224,1,10,0:0:0:0:
268,172,215392,2,8,L|328:164,1,47.9999985351563
368,84,215561,2,8,L|428:92,2,47.9999985351563
238,296,215898,1,10,0:0:0:0:
263,335,215982,1,8,0:0:0:0:
309,336,216066,1,8,0:0:0:0:
336,299,216151,1,8,0:0:0:0:
321,256,216235,6,0,B|418:268|418:268|466:252,1,143.999995605469,14|0,0:3|0:0,0:0:0:0:
410,176,216572,2,0,L|302:164,1,95.9999970703126,12|0,0:0|0:0,0:0:0:0:
148,224,216909,1,8,0:3:0:0:
321,256,217078,1,8,0:3:0:0:
208,88,217246,1,10,0:0:0:0:
192,312,217415,6,8,B|56:332|56:332|4:304,1,191.999994140625,10|10,0:3|0:3,0:3:0:0:
8,144,217920,1,8,0:0:0:0:
148,224,218089,1,2,0:0:0:0:
148,224,218173,1,8,0:0:0:0:
148,224,218257,5,8,0:3:0:0:
132,36,218426,1,10,0:3:0:0:
288,248,218594,5,8,0:0:0:0:
304,60,218763,1,2,0:0:0:0:
102,142,218931,2,0,P|50:150|2:142,1,95.9999970703126,10|0,0:3|0:0,0:0:0:0:
209,61,219269,2,0,P|261:53|309:61,1,95.9999970703126,10|0,0:0|0:0,0:0:0:0:
432,204,219606,1,10,0:3:0:0:
252,264,219774,2,0,L|256:160,1,95.9999970703126,10|8,0:3|0:0,0:0:0:0:
460,124,220111,6,8,B|472:256|472:256|436:312,1,191.999994140625,14|8,0:3|0:3,0:3:0:0:
308,368,220617,1,8,0:0:0:0:
280,224,220785,1,0,0:0:0:0:
280,224,220870,1,8,0:0:0:0:
280,224,220954,2,0,L|384:228,1,95.9999970703126,8|8,0:0|0:0,0:0:0:0:
196,320,221291,5,10,0:3:0:0:
232,132,221460,1,8,0:3:0:0:
350,332,221628,6,0,B|298:336|298:336|254:315|254:315|182:320,1,160,14|8,0:3|0:3,0:0:0:0:
32,272,222302,2,0,P|8:224|32:124,1,160,10|2,0:0|0:0,0:0:0:0:
128,60,222808,1,8,0:0:0:0:
224,160,222976,6,0,L|388:144,1,160,10|8,0:3|0:3,0:0:0:0:
348,316,223651,1,10,0:0:0:0:
348,316,223988,2,0,L|260:308,1,80,2|8,0:0|0:0,0:0:0:0:
131,350,224325,6,0,B|231:355|231:355|279:294,1,160,14|10,0:3|0:3,0:0:0:0:
60,288,224999,2,0,P|40:328|40:368,1,80,10|8,0:0|0:3,0:0:0:0:
168,232,225336,2,0,L|160:144,1,80,10|8,0:0|0:3,0:0:0:0:
88,44,225673,5,14,0:3:0:0:
88,44,226010,5,8,0:0:0:0:
256,96,226179,1,8,0:0:0:0:
76,140,226347,5,8,0:0:0:0:
200,16,226516,1,8,0:3:0:0:
188,204,226684,2,8,L|196:248,3,40
256,304,227021,6,0,L|344:288,1,80,6|0,1:2|0:0,0:0:0:0:
376,268,227274,1,2,0:0:0:0:
376,268,227358,2,0,P|424:288|456:288,1,80,10|2,0:0|0:0,0:0:0:0:
440,172,227696,1,10,0:3:0:0:
372,76,227864,1,10,0:3:0:0:
320,180,228033,1,10,0:0:0:0:
440,172,228201,6,0,P|480:120|488:88,1,80,10|0,0:3|0:0,0:0:0:0:
320,180,228538,2,0,L|328:264,1,80,10|8,0:3|0:0,0:0:0:0:
256,360,228875,1,2,0:0:0:0:
256,360,228960,1,10,0:0:0:0:
256,360,229044,2,2,L|204:348,3,40,10|2|10|2,0:3|0:0|0:3|0:0,0:0:0:0:
144,308,229381,2,0,B|140:268|140:268|148:224,1,80,10|0,0:0|0:0,0:0:0:0:
224,68,229718,6,0,L|232:156,1,80,2|0,1:2|0:0,0:0:0:0:
260,188,229971,1,2,0:0:0:0:
260,188,230055,2,0,P|308:200|352:192,1,80,10|2,0:0|0:0,0:0:0:0:
476,144,230392,1,10,0:3:0:0:
424,260,230561,1,10,0:3:0:0:
380,116,230729,1,10,0:0:0:0:
503,256,230898,6,0,L|415:260,1,80,10|0,0:3|0:0,0:0:0:0:
316,364,231235,2,0,L|404:368,1,80,10|8,0:3|0:0,0:0:0:0:
256,264,231572,5,10,0:3:0:0:
256,264,231656,1,10,0:0:0:0:
256,264,231740,1,10,0:3:0:0:
140,360,231909,1,10,0:3:0:0:
136,328,231993,1,10,0:3:0:0:
132,296,232078,1,10,0:0:0:0:
220,152,232246,5,0,0:0:0:0:
220,152,232330,1,8,0:0:0:0:
220,152,232415,2,0,L|312:148,1,80,6|0,1:2|0:0,0:0:0:0:
336,116,232667,1,2,0:0:0:0:
336,116,232752,2,0,L|420:120,1,80,10|2,0:0|0:0,0:0:0:0:
488,216,233089,1,10,0:3:0:0:
408,336,233257,1,10,0:3:0:0:
312,232,233426,1,10,0:0:0:0:
488,216,233594,6,0,P|496:264|480:304,1,80,10|0,0:3|0:0,0:0:0:0:
312,232,233931,2,0,P|304:184|320:144,1,80,10|8,0:3|0:0,0:0:0:0:
420,60,234269,1,2,0:0:0:0:
420,60,234353,1,10,0:0:0:0:
420,60,234437,2,0,L|476:56,3,40,10|2|10|2,0:3|0:0|0:3|0:0,0:0:0:0:
495,136,234774,2,0,L|487:220,1,80,10|0,0:0|0:0,0:0:0:0:
380,328,235111,6,0,B|340:332|340:332|296:324,1,80,2|0,1:2|0:0,0:0:0:0:
256,308,235364,1,2,0:0:0:0:
256,308,235448,2,0,L|160:324,1,80,10|2,0:0|0:0,0:0:0:0:
48,360,235785,1,10,0:3:0:0:
28,196,235954,1,10,0:3:0:0:
164,236,236122,1,10,0:0:0:0:
48,360,236291,6,0,L|56:276,1,80,14|0,0:3|0:0,0:0:0:0:
156,156,236628,2,0,L|163:235,1,80,10|8,0:3|0:0,0:0:0:0:
272,320,236965,1,2,0:0:0:0:
272,320,237049,1,10,0:0:0:0:
272,320,237134,2,8,L|328:316,3,40,10|8|8|8,0:3|0:3|0:3|0:3,0:3:0:0:
396,268,237471,2,8,L|388:216,1,40,10|8,0:0|0:0,0:0:0:0:
460,164,237639,2,8,L|468:112,1,40
480,32,237808,6,0,L|388:36,1,80,6|0,1:2|0:0,0:0:0:0:
364,68,238061,1,2,0:0:0:0:
364,68,238145,2,0,L|284:64,1,80,14|2,0:0|0:0,0:0:0:0:
160,40,238482,1,10,0:3:0:0:
184,204,238651,1,10,0:3:0:0:
284,64,238819,1,10,0:0:0:0:
116,148,238988,6,0,P|96:200|100:232,1,80,10|0,0:3|0:0,0:0:0:0:
252,260,239325,2,0,P|272:208|268:176,1,80,10|8,0:3|0:0,0:0:0:0:
140,312,239662,1,2,0:0:0:0:
140,312,239746,1,10,0:0:0:0:
140,312,239830,2,0,L|144:360,3,40,10|2|10|2,0:3|0:0|0:3|0:0,0:0:0:0:
228,372,240167,2,0,L|312:364,1,80,10|0,0:0|0:0,0:0:0:0:
432,312,240504,6,0,B|440:272|440:272|428:232,1,80,2|0,1:2|0:0,0:0:0:0:
408,192,240757,1,2,0:0:0:0:
408,192,240842,2,0,L|416:112,1,80,10|2,0:0|0:0,0:0:0:0:
260,24,241179,1,10,0:3:0:0:
320,156,241347,1,10,0:3:0:0:
412,24,241516,1,10,0:0:0:0:
236,124,241684,2,0,P|232:168|244:208,1,80,10|0,0:3|0:0,0:0:0:0:
332,328,242021,2,0,P|341:289|337:249,1,80,10|8,0:3|0:0,0:0:0:0:
216,352,242358,5,10,0:0:0:0:
216,352,242443,1,10,0:0:0:0:
216,352,242527,1,10,0:3:0:0:
100,240,242696,1,10,0:3:0:0:
92,208,242780,1,2,0:0:0:0:
84,176,242864,2,0,L|92:96,1,80,10|0,0:0|0:0,0:0:0:0:
216,32,243201,6,0,L|296:40,1,80,6|0,1:2|0:0,0:0:0:0:
336,64,243454,1,2,0:0:0:0:
336,64,243538,2,0,P|352:116|348:152,1,80,10|2,0:0|0:0,0:0:0:0:
240,288,243875,1,10,0:3:0:0:
256,120,244044,1,10,0:3:0:0:
336,272,244212,1,10,0:0:0:0:
180,188,244381,6,0,L|96:192,1,80,10|0,0:3|0:0,0:0:0:0:
68,336,244718,2,0,L|152:340,1,80,10|8,0:3|0:0,0:0:0:0:
336,272,245055,1,2,0:0:0:0:
336,272,245139,1,10,0:0:0:0:
336,272,245224,2,0,L|392:264,3,40,10|2|10|2,0:3|0:0|0:3|0:0,0:0:0:0:
448,220,245561,2,0,P|452:176|444:136,1,80,10|0,0:0|0:0,0:0:0:0:
296,32,245898,6,0,P|292:76|300:116,1,80,6|0,1:2|0:0,0:0:0:0:
320,156,246151,1,2,0:0:0:0:
320,156,246235,2,0,L|228:164,1,80,10|2,0:0|0:0,0:0:0:0:
56,216,246572,1,10,0:3:0:0:
232,256,246740,1,10,0:3:0:0:
112,112,246909,1,10,0:0:0:0:
136,296,247078,6,0,L|132:376,1,80,14|0,0:3|0:0,0:0:0:0:
232,256,247415,2,0,L|228:176,1,80,10|12,0:3|0:0,0:0:0:0:
308,60,247752,1,2,0:0:0:0:
308,60,247836,1,10,0:3:0:0:
308,60,247920,1,10,0:0:0:0:
424,144,248089,1,10,0:3:0:0:
440,188,248173,1,2,0:0:0:0:
428,236,248257,6,8,L|432:292,1,40,10|8,0:0|0:0,0:0:0:0:
304,364,248426,2,8,L|306:324,1,40
236,168,248594,6,0,L|108:172,1,128,14|8,0:3|0:3,0:0:0:0:
236,252,249100,2,0,P|292:232|320:160,1,128,2|0,0:0|0:0,0:0:0:0:
268,32,249606,1,10,0:3:0:0:
180,84,249774,1,8,0:0:0:0:
180,84,249858,1,8,0:0:0:0:
180,84,249943,6,0,L|96:76,1,64,10|0,0:3|0:0,0:0:0:0:
40,148,250280,1,8,0:3:0:0:
128,244,250448,2,0,L|136:160,1,64,2|8,0:0|0:3,0:0:0:0:
260,136,250785,2,0,L|308:140,2,32,2|2|10,0:0|0:0|0:3,0:0:0:0:
288,244,251122,1,8,0:0:0:0:
288,244,251207,1,8,0:0:0:0:
288,244,251291,6,0,P|348:236|428:232,1,128,10|8,0:3|0:3,0:0:0:0:
312,360,251797,2,0,P|252:352|172:348,1,128,2|0,0:0|0:0,0:0:0:0:
56,360,252302,1,10,0:3:0:0:
132,264,252471,1,8,0:0:0:0:
132,264,252555,1,8,0:0:0:0:
132,264,252639,6,0,L|128:188,1,64,10|0,0:3|0:0,0:0:0:0:
124,104,252976,1,8,0:3:0:0:
256,168,253145,2,0,L|332:160,1,64,2|0,0:0|0:3,0:0:0:0:
512,176,253482,5,10,0:0:0:0:
496,368,253651,1,10,0:0:0:0:
316,344,253819,1,10,0:0:0:0:
