osu file format v14

[General]
AudioFilename: audio.mp3
AudioLeadIn: 0
PreviewTime: 51250
Countdown: 0
SampleSet: Soft
StackLeniency: 0.4
Mode: 0
LetterboxInBreaks: 0
WidescreenStoryboard: 1

[Editor]
Bookmarks: 9476,10202
DistanceSpacing: 1.4
BeatDivisor: 4
GridSize: 32
TimelineZoom: 4.099998

[Metadata]
Title:Light and Shadow (Cut Ver.)
TitleUnicode:Light and Shadow (Cut Ver.)
Artist:Nishizawa Shiena
ArtistUnicode:西沢幸奏
Creator:-Doodle
Version:Collab Insane
Source:
Tags:Dudamesh Oliri GodlyStatus japanese break your fate rock jrock cut version EXiNA
BeatmapID:2468114
BeatmapSetID:1183865

[Difficulty]
HPDrainRate:5
CircleSize:4
OverallDifficulty:7
ApproachRate:9
SliderMultiplier:1.2
SliderTickRate:1

[Events]
//Background and Video events
0,0,"bg.jpg",0,0
//Break Periods
//Storyboard Layer 0 (Background)
//Storyboard Layer 1 (Fail)
//Storyboard Layer 2 (Pass)
//Storyboard Layer 3 (Foreground)
//Storyboard Layer 4 (Overlay)
//Storyboard Sound Samples

[TimingPoints]
686,322.58064516129,4,2,1,40,1,0
686,-133.333333333333,4,2,3,40,0,0
5202,-133.333333333333,4,2,3,20,0,0
5847,-133.333333333333,4,2,3,40,0,0
7782,-133.333333333333,4,2,3,30,0,0
8427,-133.333333333333,4,2,3,40,0,0
9234,-133.333333333333,4,2,1,20,0,0
9315,-133.333333333333,4,2,1,40,0,0
9395,-133.333333333333,4,2,1,60,0,0
10202,-133.333333333333,4,2,2,60,0,0
10363,-133.333333333333,4,2,1,60,0,0
11008,-80,4,2,2,70,0,0
11331,-80,4,2,1,70,0,0
11976,-80,4,2,2,70,0,0
12298,-80,4,2,1,70,0,0
12944,-80,4,2,2,70,0,0
13105,-80,4,2,1,70,0,0
13589,-80,4,2,2,70,0,0
13911,-80,4,2,1,70,0,0
14556,-80,4,2,2,70,0,0
14879,-80,4,2,1,70,0,0
15524,-80,4,2,2,70,0,0
15685,-80,4,2,1,70,0,0
16169,-80,4,2,2,70,0,0
16492,-80,4,2,1,70,0,0
17137,-80,4,2,2,70,0,0
17460,-80,4,2,1,70,0,0
18105,-80,4,2,2,70,0,0
18266,-80,4,2,1,70,0,0
18750,-80,4,2,2,70,0,0
19073,-80,4,2,1,70,0,0
19718,-80,4,2,2,70,0,0
20040,-80,4,2,1,70,0,0
20363,-80,4,2,2,70,0,0
20556,-80,4,2,1,40,0,0
20621,-80,4,2,1,60,0,0
20685,-80,4,2,1,80,0,0
20847,-80,4,2,1,70,0,0
21250,-144.927536231884,4,2,69,5,0,0
21331,-200,4,2,1,30,0,0
22621,-200,4,2,1,5,0,0
23911,-148.148148148148,4,2,1,30,0,0
25202,-133.333333333333,4,2,1,30,0,0
27782,-133.333333333333,4,2,1,5,0,0
29073,-133.333333333333,4,2,1,30,0,0
31492,-133.333333333333,4,2,2,40,0,0
31653,-100,4,2,3,70,0,0
31895,-144.927536231884,4,2,69,5,0,0
31976,-100,4,2,1,50,0,0
34073,-100,4,2,2,40,0,0
34234,-100,4,2,3,60,0,0
34476,-144.927536231884,4,2,69,5,0,0
34556,-100,4,2,1,50,0,0
36653,-100,4,2,1,40,0,0
36815,-100,4,2,3,50,0,0
37056,-144.927536231884,4,2,69,5,0,0
37137,-100,4,2,1,50,0,0
40927,-144.927536231884,4,2,69,5,0,0
41008,-100,4,2,1,50,0,0
41169,-100,4,2,1,20,0,0
41250,-100,4,2,1,40,0,0
41331,-100,4,2,1,60,0,0
41492,-100,4,2,1,50,0,0
42782,-100,4,2,2,40,0,0
42944,-100,4,2,1,50,0,0
44395,-100,4,2,2,40,0,0
44556,-100,4,2,1,50,0,0
45363,-100,4,2,2,40,0,0
45524,-100,4,2,1,50,0,0
45766,-144.927536231884,4,2,69,5,0,0
45847,-100,4,2,1,50,0,0
47137,-80,4,2,1,50,0,0
47944,-80,4,2,2,40,0,0
48105,-100,4,2,1,50,0,0
48508,-144.927536231884,4,2,69,5,0,0
48589,-100,4,2,1,50,0,0
48992,-144.927536231884,4,2,69,5,0,0
49073,-80,4,2,1,50,0,0
49637,-144.927536231884,4,2,69,5,0,0
49718,-80,4,2,1,70,0,0
50685,-80,4,2,1,80,0,0
51008,-80,4,2,1,60,0,0
51089,-144.927536231884,4,2,69,5,0,0
51169,-80,4,2,1,60,0,0
51250,-144.927536231884,4,2,69,5,0,0
51331,-80,4,2,1,60,0,0
51411,-144.927536231884,4,2,69,5,0,0
51524,-80,4,2,1,40,0,0
51589,-80,4,2,1,60,0,0
51653,-80,4,2,1,80,0,0
52218,-144.927536231884,4,2,69,5,0,0
52298,-80,4,2,1,80,0,1
53266,-80,4,2,2,80,0,1
53427,-80,4,2,1,80,0,1
54153,-144.927536231884,4,2,69,5,0,1
54234,-80,4,2,2,80,0,1
54395,-80,4,2,1,80,0,1
54879,-80,4,2,2,80,0,1
55202,-80,4,2,1,80,0,1
55847,-80,4,2,2,80,0,1
56169,-80,4,2,1,80,0,1
56815,-80,4,2,2,80,0,1
57056,-144.927536231884,4,2,69,5,0,1
57137,-80,4,2,1,80,0,1
57379,-144.927536231884,4,2,69,5,0,1
57460,-66.6666666666667,4,2,2,80,0,1
57782,-66.6666666666667,4,2,1,80,0,1
58427,-66.6666666666667,4,2,2,80,0,1
58589,-80,4,2,1,80,0,1
59315,-144.927536231884,4,2,69,5,0,1
59395,-80,4,2,2,80,0,1
59556,-80,4,2,1,80,0,1
60040,-66.6666666666667,4,2,2,80,0,1
60363,-66.6666666666667,4,2,1,80,0,1
60766,-144.927536231884,4,2,69,5,0,1
60847,-66.6666666666667,4,2,1,80,0,1
61250,-144.927536231884,4,2,69,5,0,1
61331,-66.6666666666667,4,2,2,80,0,1
61492,-80,4,2,1,80,0,1
61653,-80,4,2,2,80,0,1
61815,-80,4,2,1,80,0,1
62621,-66.6666666666667,4,2,2,80,0,0
62863,-144.927536231884,4,2,69,5,0,0
62944,-66.6666666666667,4,2,1,80,0,0
63589,-66.6666666666667,4,2,2,80,0,0
63750,-80,4,2,1,80,0,0
64556,-80,4,2,2,80,0,0
64718,-80,4,2,1,80,0,0
65040,-80,4,2,2,60,0,0
65202,-80,4,2,2,80,0,0
65524,-80,4,2,1,80,0,0
66169,-80,4,2,2,80,0,0
66331,-80,4,2,1,80,0,0
67782,-80,4,2,2,80,0,0
68105,-80,4,2,1,80,0,0
68750,-80,4,2,2,80,0,0
68911,-80,4,2,1,80,0,0
69153,-144.927536231884,4,2,69,5,0,0
69234,-80,4,2,1,80,0,0
70363,-80,4,2,1,60,0,0
71653,-80,4,2,1,70,0,0
72137,-80,4,2,1,50,0,0
72298,-80,4,2,1,60,0,0
72944,-80,4,2,2,70,0,0
73266,-80,4,2,1,70,0,0
73911,-80,4,2,2,70,0,0
74234,-80,4,2,1,70,0,0
74879,-80,4,2,2,70,0,0
75040,-80,4,2,1,70,0,0
75524,-80,4,2,2,70,0,0
75847,-80,4,2,1,70,0,0
76492,-80,4,2,2,70,0,0
76653,-80,4,2,1,70,0,0
76895,-144.927536231884,4,2,69,5,0,0
76976,-80,4,2,1,70,0,0
77460,-80,4,2,2,70,0,0
77621,-80,4,2,1,70,0,0
78024,-144.927536231884,4,2,69,5,0,0
78105,-80,4,2,2,70,0,0
78427,-80,4,2,1,70,0,0
79073,-80,4,2,2,70,0,0
79315,-144.927536231884,4,2,69,5,0,0
79395,-80,4,2,1,70,0,0
80040,-80,4,2,2,70,0,0
80202,-80,4,2,1,70,0,0
80685,-80,4,2,2,70,0,0
81008,-80,4,2,1,70,0,0
81492,-80,4,2,2,50,0,0
81653,-80,4,2,2,70,0,0
81976,-80,4,2,1,70,0,0
82298,-80,4,2,2,70,0,0
82492,-80,4,2,1,40,0,0
82556,-80,4,2,1,60,0,0
82621,-80,4,2,1,80,0,0
82782,-80,4,2,1,70,0,0
83185,-144.927536231884,4,2,69,5,0,0
83266,-80,4,2,3,60,0,0
84315,-80,4,2,3,5,0,0

[Colours]
Combo1 : 92,58,74
Combo2 : 215,134,100
Combo3 : 162,102,181
Combo4 : 145,145,145

[HitObjects]
16,115,686,6,0,P|60:85|112:95,1,90.0000034332277,2|0,0:0|0:0,0:0:0:0:
147,153,1169,2,0,L|163:253,1,90.0000034332277,2|0,0:0|0:0,0:0:0:0:
176,325,1653,1,2,0:0:0:0:
240,271,1976,1,6,0:0:0:0:
240,271,3266,6,0,P|284:241|336:251,1,90.0000034332277,2|0,0:0|0:0,0:0:0:0:
406,297,3750,2,0,L|417:204,1,90.0000034332277,2|0,0:0|0:0,0:0:0:0:
425,126,4233,1,2,0:0:0:0:
352,160,4556,1,6,0:0:0:0:
115,270,5202,6,0,L|105:227,3,45.0000017166138,0|0|0|0,3:0|3:0|3:0|3:0,0:0:0:0:
102,284,5847,6,0,P|139:307|182:301,1,90.0000034332277,2|0,0:0|0:0,0:0:0:0:
239,233,6331,2,0,L|253:135,1,90.0000034332277,2|0,0:0|0:0,0:0:0:0:
265,62,6815,1,2,0:0:0:0:
330,115,7137,1,6,0:0:0:0:
421,235,7782,6,0,L|413:285,3,45.0000017166138,0|0|0|0,3:0|3:0|3:0|3:0,0:0:0:0:
436,219,8427,6,0,P|392:212|354:235,1,90.0000034332277,2|0,0:0|0:0,0:0:0:0:
278,296,8911,2,0,L|258:209,1,90.0000034332277,2|0,0:0|3:0,0:0:0:0:
256,192,9315,1,0,3:0:0:0:
256,192,9395,1,6,3:2:0:0:
256,192,9476,12,4,10040,3:2:0:0:
99,84,10202,5,8,0:0:0:0:
99,84,10283,1,8,0:0:0:0:
99,84,10363,2,0,P|96:112|87:144,1,45.0000017166138,8|8,0:0|0:3,0:0:0:0:
153,190,10685,2,0,P|156:212|165:250,1,45.0000017166138,4|4,0:3|0:3,0:0:0:0:
44,297,11008,6,0,B|127:271|99:348|185:320,1,150,6|0,1:0|3:0,0:0:0:0:
264,361,11492,2,0,P|283:338|350:329,1,75,8|0,0:0|3:0,0:0:0:0:
427,358,11815,1,0,0:0:0:0:
398,260,11976,6,0,P|398:186|419:114,1,150,2|0,1:0|3:0,0:0:0:0:
280,45,12460,2,0,P|295:84|294:138,1,75,8|0,0:0|3:0,0:0:0:0:
226,184,12782,1,0,0:0:0:0:
125,71,12944,5,0,1:0:0:0:
98,151,13105,1,0,0:0:0:0:
43,90,13266,1,8,3:2:0:0:
43,90,13589,6,0,P|90:155|75:224,1,150,2|0,1:0|3:0,0:0:0:0:
137,293,14073,2,0,P|188:263|212:265,1,75,8|0,0:0|3:0,0:0:0:0:
241,191,14395,1,0,0:0:0:0:
198,122,14556,6,0,P|286:156|349:143,1,150,2|0,1:0|3:0,0:0:0:0:
387,72,15040,2,0,P|375:37|371:0,1,75,8|0,0:0|3:0,0:0:0:0:
325,133,15363,1,0,0:0:0:0:
480,151,15524,5,0,1:0:0:0:
402,208,15685,1,0,0:0:0:0:
433,300,15847,1,8,3:2:0:0:
433,300,16169,6,0,B|353:276|381:346|287:327,1,150,6|0,1:2|3:0,0:0:0:0:
235,251,16653,2,0,P|205:227|167:227,1,75,8|0,0:0|3:0,0:0:0:0:
92,276,16976,1,0,0:0:0:0:
38,203,17137,6,0,P|46:148|126:116,1,150,2|0,1:0|3:0,0:0:0:0:
190,57,17621,2,0,P|219:79|256:84,1,75,8|0,0:0|3:0,0:0:0:0:
325,28,17944,1,0,0:0:0:0:
411,194,18105,5,0,1:0:0:0:
432,113,18266,1,0,0:0:0:0:
494,171,18427,1,8,3:2:0:0:
494,171,18750,6,0,P|435:184|427:277,1,150,6|0,1:2|3:0,0:0:0:0:
397,355,19234,2,0,P|358:377|312:367,1,75,8|0,0:0|3:0,0:0:0:0:
256,324,19556,1,0,0:0:0:0:
170,354,19718,6,0,P|189:279|189:197,1,150,2|0,1:0|3:0,0:0:0:0:
114,156,20202,2,0,P|100:121|96:83,1,75,8|0,0:0|1:0,0:0:0:0:
171,29,20556,2,0,L|177:-10,2,30,8|8|8,1:2|0:0|0:0,0:0:0:0:
242,75,20847,1,8,0:3:0:0:
329,36,21008,2,0,L|308:159,1,112.5,4|0,3:0|0:0,0:0:0:0:
296,224,21331,5,6,1:2:0:0:
370,274,21815,1,2,0:0:0:0:
440,216,22298,2,0,P|468:204|505:199,1,60,2|0,0:0|0:0,0:0:0:0:
287,339,23911,5,2,0:0:0:0:
201,320,24395,1,2,0:0:0:0:
115,298,24879,2,0,P|122:280|125:252,1,40.5000001544952,2|0,0:0|0:0,0:0:0:0:
178,194,25202,6,0,P|167:157|163:103,1,90.0000034332277,2|2,3:0|0:0,0:0:0:0:
234,59,25685,2,0,P|262:85|325:82,1,90.0000034332277,2|2,3:0|0:0,0:0:0:0:
376,30,26169,2,0,P|387:21|435:13,1,45.0000017166138,2|0,3:0|0:0,0:0:0:0:
455,92,26492,6,0,P|436:136|430:198,1,90.0000034332277,2|0,3:0|3:0,0:0:0:0:
345,222,26976,2,0,P|364:266|370:328,1,90.0000034332277,2|0,3:0|0:0,0:0:0:0:
441,367,27460,2,0,P|459:364|490:346,2,45.0000017166138,2|0|0,3:0|3:0|0:0,0:0:0:0:
345,269,29073,6,0,P|300:272|268:303,1,90.0000034332277,2|0,3:0|0:0,0:0:0:0:
214,373,29556,2,0,P|169:369|137:338,1,90.0000034332277,2|0,3:0|0:0,0:0:0:0:
70,285,30040,2,0,P|80:264|84:242,1,45.0000017166138,2|0,3:0|0:0,0:0:0:0:
170,208,30363,6,0,P|154:164|149:110,1,90.0000034332277,2|2,3:0|0:0,0:0:0:0:
216,67,30847,2,0,P|252:95|294:97,1,90.0000034332277,2|2,3:0|0:0,0:0:0:0:
358,42,31331,2,0,P|382:31|403:30,1,45.0000017166138,2|8,3:0|3:2,0:0:0:0:
411,35,31573,1,8,0:0:0:0:
419,44,31653,2,0,P|428:89|453:143,1,90,6|0,1:2|0:0,0:0:0:0:
456,144,31976,5,0,0:0:0:0:
399,199,32137,1,10,0:1:0:0:
413,277,32298,2,0,P|402:309|401:342,1,60
314,262,32621,2,0,P|311:232|301:204,1,60,2|0,3:0|0:0,0:0:0:0:
227,176,32944,1,2,0:0:0:0:
165,226,33105,1,0,0:0:0:0:
193,298,33266,1,8,3:1:0:0:
150,212,33427,6,0,P|111:221|86:242,1,60
2,322,33750,1,8,0:1:0:0:
2,322,33911,2,0,P|13:283|8:251,1,60,6|8,0:3|0:0,0:0:0:0:
19,252,34153,1,8,0:0:0:0:
27,242,34234,2,0,P|11:194|11:133,1,90,6|0,1:2|0:0,0:0:0:0:
23,135,34556,5,0,0:0:0:0:
95,169,34718,1,10,0:1:0:0:
147,111,34879,2,0,P|141:77|126:48,1,60
242,0,35202,2,0,P|229:27|225:56,1,60,2|0,0:0|0:0,0:0:0:0:
274,118,35524,1,2,0:0:0:0:
322,53,35685,1,0,0:0:0:0:
394,90,35847,1,8,3:1:0:0:
486,65,36008,6,0,P|474:98|470:134,1,60,2|0,0:0|0:0,0:0:0:0:
394,196,36331,1,8,0:1:0:0:
394,196,36492,2,0,P|389:166|378:138,1,60,2|8,0:0|0:3,0:0:0:0:
370,127,36734,1,4,0:3:0:0:
357,120,36815,2,0,P|318:143|272:146,1,90,6|0,1:2|0:0,0:0:0:0:
258,132,37137,6,0,P|261:101|271:74,1,60,0|10,0:0|0:1,0:0:0:0:
167,166,37460,1,0,0:0:0:0:
167,166,37621,1,0,0:0:0:0:
114,100,37782,2,0,P|124:128|127:157,1,60,2|0,3:0|0:0,0:0:0:0:
82,225,38105,1,2,0:0:0:0:
98,303,38266,1,0,0:0:0:0:
173,329,38427,1,8,3:1:0:0:
229,272,38589,6,0,P|249:260|295:255,1,60,2|0,0:0|0:0,0:0:0:0:
335,325,38911,2,0,P|361:339|390:343,2,60,8|2|0,0:1|0:0|0:0,0:0:0:0:
399,228,39395,6,0,P|425:213|454:209,1,60,2|0,1:0|0:0,0:0:0:0:
329,148,39718,1,0,0:0:0:0:
329,148,39879,2,0,P|314:121|310:92,1,60,10|0,0:1|3:0,0:0:0:0:
189,199,40202,1,0,0:0:0:0:
189,199,40363,2,0,P|203:172|207:143,1,60,2|0,3:0|0:0,0:0:0:0:
75,48,40685,6,0,L|94:144,1,90,2|0,3:0|0:0,0:0:0:0:
97,158,41008,1,6,1:2:0:0:
200,43,41169,5,10,1:2:0:0:
200,43,41250,1,8,0:0:0:0:
200,43,41331,1,8,0:0:0:0:
278,51,41492,1,10,0:3:0:0:
311,120,41653,1,6,0:3:0:0:
258,178,41815,1,4,0:3:0:0:
343,336,41976,6,0,P|349:267|364:199,1,120,6|0,1:0|0:0,0:0:0:0:
422,164,42460,1,10,0:0:0:0:
246,297,42782,5,8,0:0:0:0:
246,297,42863,1,8,0:0:0:0:
246,297,42944,2,0,P|215:263|127:265,1,120,2|0,1:0|0:0,0:0:0:0:
106,329,43427,1,8,0:0:0:0:
41,80,43911,1,10,0:0:0:0:
149,147,44395,5,8,0:0:0:0:
149,147,44476,1,8,0:0:0:0:
149,147,44556,2,0,P|202:138|259:97,1,120,2|0,1:0|0:0,0:0:0:0:
268,14,45040,1,10,0:0:0:0:
445,96,45363,5,8,0:0:0:0:
445,96,45444,1,8,0:0:0:0:
445,96,45524,2,0,P|416:86|362:118,1,90,2|0,1:0|0:0,0:0:0:0:
345,108,45847,2,0,P|363:168|372:233,1,120,0|0,1:0|0:0,0:0:0:0:
344,300,46331,1,8,0:0:0:0:
182,317,46815,5,10,0:0:0:0:
171,307,47137,2,0,B|152:216|209:254|191:165,1,150,2|0,1:0|0:0,0:0:0:0:
138,104,47621,1,10,0:0:0:0:
299,257,47944,5,8,0:0:0:0:
299,257,48024,1,8,0:0:0:0:
299,257,48105,2,0,P|353:273|424:209,1,150,2|0,1:0|0:0,0:0:0:0:
393,131,48589,2,0,P|322:118|271:169,1,150,0|0,1:0|0:0,0:0:0:0:
347,194,49073,1,8,0:0:0:0:
347,194,49395,6,0,L|219:170,1,112.5,0|0,3:0|0:0,0:0:0:0:
127,152,49718,5,14,0:0:0:0:
65,234,49879,1,0,1:0:0:0:
161,252,50040,1,0,1:0:0:0:
38,145,50202,5,10,0:0:0:0:
103,311,50363,1,0,1:0:0:0:
137,169,50524,5,2,1:0:0:0:
0,322,50685,1,10,3:2:0:0:
0,322,51008,6,2,L|8:375,1,37.5,0|0,0:0|0:0,0:1:0:0:
75,299,51169,6,2,L|83:352,1,37.5,0|0,0:0|0:0,0:1:0:0:
152,275,51331,6,2,L|160:328,1,37.5,2|0,0:0|0:0,0:1:0:0:
231,209,51524,6,0,L|270:220,2,30,10|8|10,1:2|0:0|0:3,0:0:0:0:
329,286,51815,1,8,0:0:0:0:
329,286,51976,2,0,L|464:250,1,112.5,6|0,0:3|0:0,0:0:0:0:
478,191,52298,5,6,1:0:0:0:
440,90,52460,1,2,0:0:0:0:
268,179,52621,1,2,3:0:0:0:
322,50,52782,1,10,0:0:0:0:
382,165,52944,1,2,3:0:0:0:
382,165,53105,1,2,0:0:0:0:
216,87,53266,1,4,1:2:0:0:
259,242,53427,2,0,P|270:220|283:161,1,75,0|0,0:0|3:0,0:0:0:0:
98,78,53750,5,8,0:0:0:0:
11,146,53911,2,0,P|66:153|117:192,1,112.5,2|0,3:0|0:0,0:0:0:0:
192,191,54234,2,0,P|152:204|125:234,1,75,2|0,1:0|0:0,0:0:0:0:
110,338,54556,1,10,3:2:0:0:
282,166,54879,6,0,P|342:123|420:113,1,150,6|2,1:2|3:0,0:0:0:0:
472,204,55363,1,10,0:0:0:0:
311,336,55685,5,2,0:0:0:0:
176,261,55847,2,0,B|86:285|141:325|61:346,1,150,6|0,1:2|3:0,0:0:0:0:
0,280,56331,1,8,0:0:0:0:
38,202,56492,1,2,3:0:0:0:
38,202,56815,2,0,P|21:152|15:80,1,112.5,2|0,1:0|0:0,0:0:0:0:
69,33,57137,2,0,P|126:32|162:75,1,112.5,10|0,3:2|0:0,0:0:0:0:
178,162,57460,6,0,B|271:137|203:97|318:56,1,180.000006866455,6|2,1:2|3:0,0:0:0:0:
427,155,57944,1,10,0:0:0:0:
302,217,58105,1,2,3:0:0:0:
398,133,58266,1,2,0:0:0:0:
468,302,58427,1,4,1:2:0:0:
391,223,58589,2,0,P|354:230|322:255,1,75,2|0,0:0|3:0,0:0:0:0:
184,384,58911,5,8,0:0:0:0:
279,321,59073,2,0,P|219:308|173:275,1,112.5,2|0,3:0|0:0,0:0:0:0:
101,266,59396,2,0,P|143:257|175:221,1,75,2|0,1:0|0:0,0:0:0:0:
200,116,59718,1,10,3:2:0:0:
200,116,60040,6,0,P|271:113|301:228,1,180.000006866455,6|2,1:2|3:0,0:0:0:0:
448,353,60524,2,0,P|409:325|428:236,1,135.000005149841,10|0,0:0|0:0,0:0:0:0:
488,211,60847,1,2,1:0:0:0:
284,339,61008,6,0,P|223:301|154:297,1,135.000005149841,14|0,3:2|0:0,0:0:0:0:
144,309,61331,1,0,1:0:0:0:
295,225,61492,2,0,P|308:205|319:150,1,75,8|0,0:0|1:0,0:0:0:0:
250,85,61847,6,0,L|256:52,2,30,8|8|8,0:3|0:3|0:3,0:0:0:0:
182,184,62137,1,8,0:3:0:0:
102,135,62298,1,4,3:0:0:0:
57,195,62460,1,4,0:3:0:0:
117,42,62621,6,0,L|146:193,1,135.000005149841,4|0,1:0|0:0,0:0:0:0:
117,251,62944,1,2,3:0:0:0:
256,190,63105,1,10,0:0:0:0:
292,283,63266,1,2,3:0:0:0:
171,190,63427,1,2,0:0:0:0:
124,337,63589,1,6,1:2:0:0:
277,263,63750,2,0,P|320:269|357:297,1,75,2|0,0:0|3:0,0:0:0:0:
382,379,64073,5,10,0:0:0:0:
459,357,64234,1,2,3:0:0:0:
476,281,64395,1,2,0:0:0:0:
422,221,64556,2,0,P|409:185|410:134,1,75,2|0,1:0|0:0,0:0:0:0:
281,285,64879,2,0,P|294:249|293:198,1,75,10|8,3:2|0:0,0:0:0:0:
239,162,65121,1,8,0:0:0:0:
239,162,65202,1,6,1:2:0:0:
239,162,65524,5,2,3:0:0:0:
135,228,65685,1,10,0:0:0:0:
135,129,65847,5,2,3:0:0:0:
45,156,66008,1,2,0:0:0:0:
197,63,66169,5,6,1:2:0:0:
98,32,66331,2,0,P|111:66|119:103,1,75,2|0,0:0|3:0,0:0:0:0:
48,193,66653,5,10,0:0:0:0:
106,256,66815,1,2,3:0:0:0:
49,318,66976,2,0,P|96:287|202:275,1,150,2|2,0:0|0:0,0:0:0:0:
231,357,67460,1,10,3:2:0:0:
460,235,67782,6,0,P|434:178|354:174,1,150,4|2,1:2|3:0,0:0:0:0:
317,243,68266,1,10,0:0:0:0:
358,136,68427,1,2,3:0:0:0:
296,84,68589,1,2,0:0:0:0:
362,9,68750,5,6,1:2:0:0:
362,9,68911,2,0,P|312:37|253:38,1,112.5,2|0,0:0|0:0,0:0:0:0:
213,120,69234,2,0,P|182:102|142:94,1,75,8|2,0:0|3:0,0:0:0:0:
76,43,69556,1,2,1:0:0:0:
16,155,69718,5,8,3:2:0:0:
135,116,69879,1,8,0:0:0:0:
187,240,70040,5,10,3:0:0:0:
106,215,70202,1,6,0:3:0:0:
57,316,70363,5,4,1:2:0:0:
444,206,71653,1,4,1:2:0:0:
444,206,72137,1,10,0:0:0:0:
363,137,72298,5,0,1:0:0:0:
386,46,72460,1,10,0:0:0:0:
286,184,72621,5,10,0:3:0:0:
259,110,72782,1,4,0:3:0:0:
415,232,72944,6,0,B|337:216|360:285|277:265,1,150,6|0,1:0|3:0,0:0:0:0:
195,195,73427,1,8,0:0:0:0:
140,254,73589,2,0,P|158:200|170:100,1,150,0|2,3:0|1:0,0:0:0:0:
170,108,74234,5,0,3:0:0:0:
47,30,74395,2,0,P|85:92|156:90,1,150,8|0,0:0|0:0,0:0:0:0:
210,23,74879,2,0,P|240:1|283:2,1,75,0|0,1:0|0:0,0:0:0:0:
341,76,75202,1,8,3:2:0:0:
341,76,75524,6,0,B|358:152|296:134|323:225,1,150,2|0,1:0|3:0,0:0:0:0:
379,277,76008,2,0,P|301:251|252:315,1,150,8|0,0:0|0:0,0:0:0:0:
187,346,76492,1,2,1:0:0:0:
119,290,76653,2,0,P|108:235|95:181,1,112.5,2|0,0:0|0:0,0:0:0:0:
17,130,76976,5,8,0:0:0:0:
67,52,77137,1,2,3:0:0:0:
142,102,77298,2,0,P|158:93|187:84,2,37.5,2|0|0,0:0|0:0|1:0,0:0:0:0:
245,24,77621,1,2,0:0:0:0:
245,24,77782,2,0,P|298:52|357:58,1,112.5,10|0,3:2|0:0,0:0:0:0:
416,132,78105,6,0,P|403:181|385:295,1,150,4|0,1:2|3:0,0:0:0:0:
369,360,78589,2,0,P|363:326|344:269,1,75,8|0,0:0|3:0,0:0:0:0:
275,230,78911,1,0,0:0:0:0:
202,286,79073,2,0,P|137:283|106:236,1,112.5,0|0,1:0|0:0,0:0:0:0:
121,230,79395,5,2,3:0:0:0:
26,145,79556,2,0,P|62:138|95:120,1,75,8|0,0:0|3:0,0:0:0:0:
137,42,79879,1,8,0:0:0:0:
137,42,80040,2,0,P|173:48|206:66,1,75,0|0,1:0|0:0,0:0:0:0:
233,156,80363,1,8,3:2:0:0:
233,156,80685,6,0,B|321:131|259:99|347:69,1,150,2|0,1:0|3:0,0:0:0:0:
428,137,81169,2,0,P|415:169|412:211,1,75,8|0,0:0|3:0,0:0:0:0:
488,283,81492,1,8,0:0:0:0:
488,283,81573,1,8,0:0:0:0:
488,283,81653,2,0,P|430:249|335:237,1,150,4|0,1:2|3:0,0:0:0:0:
277,306,82137,1,8,0:0:0:0:
277,306,82298,1,0,1:0:0:0:
192,256,82492,6,0,P|189:241|183:227,2,30,8|8|8,1:2|0:0|3:2,0:0:0:0:
139,334,82782,1,8,0:3:0:0:
64,281,82944,2,0,P|73:215|90:160,1,112.5,6|0,3:0|0:0,0:0:0:0:
45,103,83266,5,2,0:0:0:0:
39,87,83750,1,2,0:0:0:0:
21,8,84234,5,6,0:0:0:0:
256,192,84315,12,0,87137,0:0:0:0:
