osu file format v14

[General]
AudioFilename: audio.mp3
AudioLeadIn: 0
PreviewTime: 58739
Countdown: 0
SampleSet: Soft
StackLeniency: 0.7
Mode: 0
LetterboxInBreaks: 0
WidescreenStoryboard: 1

[Editor]
DistanceSpacing: 1.5
BeatDivisor: 3
GridSize: 32
TimelineZoom: 2

[Metadata]
Title:FUBUKI (TV Size)
TitleUnicode:吹雪 (TV Size)
Artist:Nishizawa Shiena
ArtistUnicode:西沢幸奏
Creator:wajinshu
Version:Hard
Source:艦隊これくしょん -艦これ-
Tags:kantai collection -kancolle- ending ed
BeatmapID:1794349
BeatmapSetID:858586

[Difficulty]
HPDrainRate:6
CircleSize:4
OverallDifficulty:6
ApproachRate:8
SliderMultiplier:1.6
SliderTickRate:1

[Events]
//Background and Video events
0,0,"bg.jpg",0,0
//Break Periods
//Storyboard Layer 0 (Background)
//Storyboard Layer 1 (Fail)
//Storyboard Layer 2 (Pass)
//Storyboard Layer 3 (Foreground)
//Storyboard Sound Samples

[TimingPoints]
740,333.333333333333,4,2,1,60,1,0
740,-133.333333333333,4,2,1,60,0,0
5739,-133.333333333333,4,2,1,40,0,0
6073,-133.333333333333,4,2,1,60,0,0
7073,-133.333333333333,4,2,1,40,0,0
7157,-133.333333333333,4,2,1,60,0,0
9739,-133.333333333333,4,2,1,40,0,0
9823,-133.333333333333,4,2,1,60,0,0
11406,-100,4,2,1,15,0,0
12740,-100,4,2,1,40,0,0
13406,-100,4,2,1,50,0,0
14073,-100,4,2,1,60,0,0
19073,-100,4,2,1,40,0,0
19406,-100,4,2,1,60,0,0
24406,-100,4,2,1,55,0,0
24740,-100,4,2,1,55,0,0
35073,-100,4,2,1,60,0,0
35406,-100,4,2,1,55,0,0
45073,-100,4,2,1,50,0,0
45406,-100,4,2,1,60,0,0
46073,-100,4,2,1,40,0,0
48573,-100,4,2,1,30,0,0
48739,-100,4,2,1,40,0,0
50073,-100,4,2,1,50,0,0
50406,-100,4,2,1,55,0,0
50739,-100,4,2,1,40,0,0
50906,-100,4,2,1,50,0,0
51073,-100,4,2,1,55,0,0
51406,-100,4,2,1,60,0,0
54073,-100,4,2,1,50,0,0
56739,-100,4,2,1,50,0,0
57239,-100,4,2,1,55,0,0
57406,-100,4,2,1,60,0,0
57906,-100,4,2,1,60,0,0
58573,-100,4,2,1,40,0,0
59073,-100,4,2,1,30,0,0
59406,-100,4,2,1,60,0,1
75406,-100,4,2,1,55,0,0
78073,-100,4,2,1,60,0,0
86073,-100,4,2,1,40,0,0

[Colours]
Combo1 : 91,236,113
Combo2 : 118,217,245
Combo3 : 243,187,82
Combo4 : 255,74,79

[HitObjects]
473,351,741,6,0,P|400:322|382:219,1,180.000006866455,6|0,0:0|0:0,0:0:0:0:
433,151,1406,2,0,B|335:130|335:130|250:162,1,180.000006866455,0|0,0:0|0:0,0:0:0:0:
178,209,2073,2,0,B|80:229|80:229|-5:198,1,180.000006866455,0|0,0:0|0:0,0:0:0:0:
18,106,2740,2,0,P|98:66|178:105,1,180.000006866455,0|8,0:0|0:0,0:0:0:0:
178,209,3406,6,0,B|168:351|168:351|201:306,1,180.000006866455,2|0,0:0|0:0,0:0:0:0:
254,248,4074,2,0,P|251:165|165:125,1,180.000006866455,0|0,0:0|0:0,0:0:0:0:
98,61,4740,2,0,B|179:33|179:33|257:86|346:25,1,240.000009155274,2|0,0:0|0:0,0:0:0:0:
474,159,5740,2,0,P|478:210|481:239,1,60.0000022888184,2|2,0:0|0:0,0:0:0:0:
433,303,6073,6,0,P|481:313|527:302,2,80.0000030517579,6|0|0,0:0|0:0|0:0,0:0:0:0:
310,263,6740,2,0,P|319:297|325:327,2,40.000001525879,0|0|0,0:0|0:0|0:0,0:0:0:0:
264,206,7073,2,0,P|273:172|279:142,2,40.000001525879,8|0|2,0:0|0:0|0:0,0:0:0:0:
227,267,7407,6,0,P|242:337|250:411,1,120.000004577637,2|0,0:0|0:0,0:0:0:0:
112,248,8073,2,0,P|127:178|135:104,1,120.000004577637,2|0,0:0|0:0,0:0:0:0:
296,28,8740,6,0,P|330:22|358:18,2,40.000001525879,2|0|0,0:0|0:0|0:0,0:0:0:0:
272,95,9073,2,0,P|263:167|262:209,1,80.0000030517579,0|0,0:0|0:0,0:0:0:0:
309,228,9406,2,0,P|318:300|319:342,1,80.0000030517579,2|0,0:0|0:0,0:0:0:0:
389,320,9740,2,0,P|391:287|407:207,1,80.0000030517579,8|0,0:0|0:0,0:0:0:0:
442,183,10073,6,0,P|479:188|498:191,2,40.000001525879,2|2|2,0:0|0:0|0:0,0:0:0:0:
421,114,10406,2,0,P|458:109|477:106,2,40.000001525879,2|2|2,0:0|0:0|0:0,0:0:0:0:
361,74,10739,2,0,P|388:48|403:36,2,40.000001525879,2|2|2,0:0|0:0|0:0,0:0:0:0:
292,52,11072,2,0,P|309:19|318:1,2,40.000001525879,2|2|2,0:0|0:0|0:0,0:0:0:0:
256,192,11406,12,0,12406,0:0:0:0:
57,72,12740,6,0,L|73:137,3,40,8|0|0|8,0:0|0:0|0:0|0:0,0:0:0:0:
34,174,13073,2,0,L|77:219,3,40,8|0|8|8,0:0|0:0|0:0|0:0,0:0:0:0:
60,275,13407,2,0,L|119:297,3,40,8|8|8|8,0:0|0:0|0:0|0:0,0:0:0:0:
121,356,13740,2,0,L|166:363,3,40,8|8|8|8,0:0|0:0|0:0|0:0,0:0:0:0:
218,320,14074,6,0,P|246:242|190:169,1,160,6|8,0:0|0:0,0:0:0:0:
157,251,14574,1,0,0:0:0:0:
218,320,14740,2,0,L|310:311,1,80,2|2,0:0|0:0,0:0:0:0:
379,280,15074,1,8,0:0:0:0:
461,312,15239,1,0,0:0:0:0:
461,312,15323,1,0,0:0:0:0:
461,312,15407,6,0,L|478:137,1,160,2|8,0:0|0:0,0:0:0:0:
443,67,15907,1,0,0:0:0:0:
355,80,16074,2,0,P|292:96|254:97,1,80,2|2,0:0|0:0,0:0:0:0:
218,30,16407,2,0,P|178:35|140:47,1,80,8|0,0:0|0:0,0:0:0:0:
92,121,16740,6,0,P|57:196|107:274,1,160,2|8,0:0|0:0,0:0:0:0:
145,194,17240,1,0,0:0:0:0:
197,266,17406,2,0,P|272:231|350:281,1,160,2|8,0:0|0:0,0:0:0:0:
270,321,17906,1,0,0:0:0:0:
192,363,18073,6,0,P|131:359|98:358,1,80,2|0,0:0|0:0,0:0:0:0:
114,270,18407,2,0,P|74:271|34:274,1,80,8|0,0:0|0:0,0:0:0:0:
8,189,18740,1,2,0:0:0:0:
90,158,18907,1,2,0:0:0:0:
75,70,19074,2,0,P|139:55|169:55,1,80,8|8,0:0|0:0,0:0:0:0:
242,68,19406,6,0,B|312:87|312:87|408:58,1,160,6|8,0:0|0:0,0:0:0:0:
474,22,19906,1,0,0:0:0:0:
463,109,20073,2,0,B|437:192|437:192|456:262,1,160,2|8,0:0|0:0,0:0:0:0:
490,344,20573,1,0,0:0:0:0:
403,328,20740,6,0,P|330:316|271:374,2,160,2|8|2,0:0|0:0|0:0,0:0:0:0:
490,344,21573,1,2,0:0:0:0:
456,262,21740,2,0,B|435:173,1,80,8|0,0:0|0:0,0:0:0:0:
365,135,22073,6,0,B|330:160|296:160|296:160|177:138,1,160,2|8,0:0|0:0,0:0:0:0:
128,116,22573,1,0,0:0:0:0:
53,163,22740,2,0,P|39:110|44:70,1,80,2|2,0:0|0:0,0:0:0:0:
109,30,23073,1,8,0:0:0:0:
128,116,23240,1,0,0:0:0:0:
139,202,23407,6,0,P|139:241|126:279,1,80,6|0,0:0|0:0,0:0:0:0:
54,331,23740,2,0,P|41:293|41:253,1,80,8|0,0:0|0:0,0:0:0:0:
126,279,24074,2,0,L|185:294,3,40,2|0|2|0,0:0|0:0|0:0|0:0,0:0:0:0:
215,344,24407,2,0,L|253:334,3,40,2|0|2|2,0:0|0:0|0:0|0:0,0:0:0:0:
289,271,24740,6,0,P|360:294|434:232,2,160,6|8|2,0:0|0:0|0:0,0:0:0:0:
349,206,25573,1,2,0:0:0:0:
333,119,25740,1,8,0:0:0:0:
406,71,25906,1,0,0:0:0:0:
338,13,26073,6,0,B|275:6|275:6|235:25|235:25|180:19,1,160,2|8,0:0|0:0,0:0:0:0:
94,15,26573,1,0,0:0:0:0:
80,102,26740,2,0,L|91:200,1,80,2|2,0:0|0:0,0:0:0:0:
174,202,27073,2,0,L|182:122,1,80,8|0,0:0|0:0,0:0:0:0:
262,161,27407,6,0,L|270:240,1,80,2|0,0:0|0:0,0:0:0:0:
211,305,27740,2,0,P|278:329|350:279,1,160,8|2,0:0|0:0,0:0:0:0:
343,195,28240,1,2,0:0:0:0:
262,161,28407,2,0,L|270:240,1,80,8|0,0:0|0:0,0:0:0:0:
192,198,28740,6,0,P|195:123|274:83,1,160,2|8,0:0|0:0,0:0:0:0:
350,82,29240,1,0,0:0:0:0:
416,138,29407,2,0,P|464:141|526:122,1,80,2|2,0:0|0:0,0:0:0:0:
509,222,29740,2,0,P|469:215|429:218,1,80,8|0,0:0|0:0,0:0:0:0:
346,247,30073,5,2,0:0:0:0:
187,323,30406,1,8,0:0:0:0:
187,323,30573,1,0,0:0:0:0:
108,282,30740,2,0,P|46:274|20:274,2,80,2|2|8,0:0|0:0|0:0,0:0:0:0:
185,245,31240,1,0,0:0:0:0:
141,168,31406,5,2,0:0:0:0:
311,213,31740,1,8,0:0:0:0:
311,213,31907,1,0,0:0:0:0:
390,172,32074,2,0,P|452:164|478:164,1,80,2|0,0:0|0:0,0:0:0:0:
461,76,32407,2,0,P|421:74|381:67,1,80,8|0,0:0|0:0,0:0:0:0:
295,46,32740,5,2,0:0:0:0:
154,151,33073,1,8,0:0:0:0:
154,151,33240,1,0,0:0:0:0:
109,226,33406,2,0,P|120:273|127:316,2,80,2|2|8,0:0|0:0|0:0,0:0:0:0:
47,163,33907,1,0,0:0:0:0:
89,85,34074,5,2,0:0:0:0:
256,139,34406,1,8,0:0:0:0:
256,139,34573,1,0,0:0:0:0:
315,73,34740,2,0,L|406:70,1,80,2|2,0:0|0:0,0:0:0:0:
430,151,35073,2,0,L|339:148,1,80,8|0,0:0|0:0,0:0:0:0:
390,226,35406,6,0,P|471:225|513:159,2,160,4|8|2,0:0|0:0|0:0,0:0:0:0:
302,210,36240,1,2,0:0:0:0:
222,246,36406,1,8,0:0:0:0:
134,236,36573,1,0,0:0:0:0:
139,323,36740,6,0,B|247:339|247:339|298:303,1,160,2|8,0:0|0:0,0:0:0:0:
222,246,37240,1,0,0:0:0:0:
189,164,37407,2,0,P|145:154|88:161,1,80,2|2,0:0|0:0,0:0:0:0:
88,69,37740,2,0,P|127:70|166:60,1,80,8|0,0:0|0:0,0:0:0:0:
246,98,38073,6,0,P|285:96|324:106,1,80,2|0,0:0|0:0,0:0:0:0:
361,186,38406,2,0,P|410:125|389:46,1,160,8|2,0:0|0:0,0:0:0:0:
324,106,38906,1,2,0:0:0:0:
276,180,39073,2,0,P|271:226|283:263,1,80,8|0,0:0|0:0,0:0:0:0:
307,341,39406,6,0,P|220:334|169:388,1,160,2|8,0:0|0:0,0:0:0:0:
100,329,39906,1,0,0:0:0:0:
54,253,40073,2,0,L|45:168,1,80,2|2,0:0|0:0,0:0:0:0:
113,116,40407,2,0,L|122:31,1,80,8|0,0:0|0:0,0:0:0:0:
204,6,40740,5,2,0:0:0:0:
322,135,41073,1,8,0:0:0:0:
322,135,41240,1,0,0:0:0:0:
380,200,41407,2,0,P|423:196|467:206,1,80,2|2,0:0|0:0,0:0:0:0:
500,281,41740,1,8,0:0:0:0:
500,281,41906,1,0,0:0:0:0:
448,352,42073,5,2,0:0:0:0:
236,383,42406,1,8,0:0:0:0:
236,383,42573,1,0,0:0:0:0:
178,316,42740,2,0,L|164:227,1,80,2|2,0:0|0:0,0:0:0:0:
185,151,43073,1,8,0:0:0:0:
185,151,43239,1,0,0:0:0:0:
229,74,43407,6,0,P|289:78|320:70,1,80,2|0,0:0|0:0,0:0:0:0:
385,31,43740,2,0,L|374:200,2,160,8|2|8,0:0|0:0|0:0,0:0:0:0:
455,192,44740,6,0,L|466:272,1,80,2|2,0:0|0:0,0:0:0:0:
396,326,45073,1,8,0:0:0:0:
310,308,45239,1,2,0:0:0:0:
310,308,45323,1,2,0:0:0:0:
310,308,45406,2,0,B|203:330|203:330|147:287,1,160,10|10,0:0|0:0,0:0:0:0:
58,218,46073,5,6,0:0:0:0:
261,91,47406,1,2,0:0:0:0:
231,299,48573,2,0,L|242:363,2,40,10|10|14,0:0|0:0|0:0,0:0:0:0:
68,235,49740,1,0,0:0:0:0:
68,235,50073,6,0,P|56:123|45:58,2,160,2|2|2,0:0|0:0|0:0,0:0:0:0:
46,320,50906,1,2,0:0:0:0:
133,338,51073,2,0,L|222:357,1,80,10|0,0:0|0:0,0:0:0:0:
295,327,51406,6,0,P|387:304|436:344,1,160,6|8,0:0|0:0,0:0:0:0:
479,265,51906,1,0,0:0:0:0:
433,189,52073,2,0,P|419:141|421:98,1,80,2|2,0:0|0:0,0:0:0:0:
440,25,52406,1,8,0:0:0:0:
359,59,52573,1,8,0:0:0:0:
273,29,52740,6,0,P|281:105|346:147,2,160,6|8|2,0:0|0:0|0:0,0:0:0:0:
359,59,53573,1,2,0:0:0:0:
347,148,53740,2,0,L|357:239,1,80,8|0,0:0|0:0,0:0:0:0:
326,310,54073,6,0,B|259:306|259:306|225:326|225:326|154:324,1,160,6|2,0:0|0:0,0:0:0:0:
162,236,54573,2,0,B|95:240|95:240|61:220|61:220|-10:222,1,160,2|0,0:0|0:0,0:0:0:0:
29,306,55073,1,2,0:0:0:0:
95,364,55240,1,2,0:0:0:0:
171,324,55406,6,0,P|249:278|248:195,1,160,6|2,0:0|0:0,0:0:0:0:
237,129,55906,2,0,P|314:149|344:222,1,160,2|2,0:0|0:0,0:0:0:0:
339,305,56406,1,2,0:0:0:0:
416,347,56573,1,2,0:0:0:0:
438,261,56740,6,0,L|448:90,1,160,6|2,0:0|0:0,0:0:0:0:
394,33,57240,1,2,0:0:0:0:
325,87,57406,1,2,0:0:0:0:
367,164,57573,1,2,0:0:0:0:
290,207,57739,2,0,P|305:251|312:299,2,80,2|10|8,0:0|0:0|0:0,0:0:0:0:
262,123,58239,1,8,0:0:0:0:
280,36,58406,1,8,0:0:0:0:
280,36,58739,6,0,L|222:27,3,40,2|2|2|2,0:0|0:0|0:0|0:0,0:0:0:0:
208,36,59073,2,0,L|150:45,3,40,10|10|10|10,0:0|0:0|0:0|0:0,0:0:0:0:
110,82,59406,6,0,B|134:170|76:138|93:237,1,160,6|8,0:0|0:0,0:0:0:0:
54,316,59906,1,0,0:0:0:0:
127,358,60073,2,0,B|243:371|243:371|299:321,1,160,2|8,0:0|0:0,0:0:0:0:
338,280,60573,1,0,0:0:0:0:
330,192,60740,6,0,P|332:113|397:65,1,160,2|8,0:0|0:0,0:0:0:0:
411,154,61240,1,0,0:0:0:0:
460,226,61407,2,0,P|472:260|468:316,1,80,2|0,0:0|0:0,0:0:0:0:
396,351,61739,1,8,0:0:0:0:
310,323,61907,1,0,0:0:0:0:
226,350,62074,6,0,B|191:375|157:375|157:375|38:353,1,160,2|8,0:0|0:0,0:0:0:0:
9,298,62573,1,0,0:0:0:0:
54,222,62740,2,0,B|29:187|29:153|29:153|51:34,1,160,2|8,0:0|0:0,0:0:0:0:
105,5,63240,1,0,0:0:0:0:
187,34,63407,6,0,B|269:40|269:40|344:-2,2,160,2|8|2,0:0|0:0|0:0,0:0:0:0:
105,5,64240,1,0,0:0:0:0:
136,86,64407,2,0,P|149:137|150:197,1,106.666666666667,8|0,0:0|0:0,0:0:0:0:
224,221,64740,6,0,P|200:280|147:322,1,106.666666666667,6|0,0:0|0:0,0:0:0:0:
92,324,65073,2,0,L|28:334,2,53.3333333333333,8|0|0,0:0|0:0|0:0,0:0:0:0:
54,254,65406,2,0,L|-18:266,2,53.3333333333333,2|0|0,0:0|0:0|0:0,0:0:0:0:
52,174,65740,2,0,L|-14:183,2,53.3333333333333,8|0|0,0:0|0:0|0:0,0:0:0:0:
98,109,66073,6,0,P|167:100|216:106,1,106.666666666667,6|0,0:0|0:0,0:0:0:0:
283,100,66406,2,0,P|352:109|401:103,1,106.666666666667,8|0,0:0|0:0,0:0:0:0:
463,76,66740,1,2,0:0:0:0:
393,219,67073,2,0,L|406:340,1,106.666666666667,8|0,0:0|0:0,0:0:0:0:
324,331,67406,6,0,P|281:337|253:348,2,53.3333333333333,6|0|0,0:0|0:0|0:0,0:0:0:0:
307,252,67740,2,0,P|253:252|202:238,1,106.666666666667,8|0,0:0|0:0,0:0:0:0:
123,227,68073,2,0,P|144:296|141:357,1,106.666666666667,6|0,0:0|0:0,0:0:0:0:
66,347,68406,1,8,0:0:0:0:
24,191,68740,2,0,L|43:26,1,160,4|4,0:0|0:0,0:0:0:0:
223,188,69407,6,0,L|235:252,3,40,8|8|8|8,0:0|0:0|0:0|0:0,0:0:0:0:
304,259,69740,2,0,L|316:195,3,40,8|8|8|8,0:0|0:0|0:0|0:0,0:0:0:0:
336,149,70073,6,0,P|410:164|482:98,1,160,6|8,0:0|0:0,0:0:0:0:
394,77,70573,1,0,0:0:0:0:
306,69,70740,2,0,P|236:33|164:60,1,160,2|8,0:0|0:0,0:0:0:0:
104,125,71240,1,0,0:0:0:0:
159,192,71406,6,0,B|223:175|223:175|265:208|324:208,1,160,2|8,0:0|0:0,0:0:0:0:
391,240,71906,1,0,0:0:0:0:
339,311,72073,2,0,P|292:315|246:299,1,80,2|0,0:0|0:0,0:0:0:0:
182,269,72406,1,8,0:0:0:0:
106,314,72573,1,0,0:0:0:0:
70,233,72740,6,0,B|82:195|66:161|66:161|70:140|70:140|54:106|67:67,1,160,2|8,0:0|0:0,0:0:0:0:
140,31,73240,1,0,0:0:0:0:
200,94,73406,2,0,B|238:106|272:90|272:90|293:94|293:94|327:78|366:91,1,160,2|8,0:0|0:0,0:0:0:0:
444,95,73906,1,0,0:0:0:0:
392,166,74073,6,0,P|451:184|530:118,1,160,2|8,0:0|0:0,0:0:0:0:
444,95,74573,1,0,0:0:0:0:
392,166,74740,2,0,L|383:250,1,80,2|0,0:0|0:0,0:0:0:0:
299,219,75073,2,0,L|308:303,1,80,8|0,0:0|0:0,0:0:0:0:
231,343,75406,6,0,L|165:339,2,53.3333333333333,8|8|8,0:0|0:0|0:0,0:0:0:0:
213,265,75740,2,0,L|147:261,2,53.3333333333333,8|8|8,0:0|0:0|0:0,0:0:0:0:
198,186,76073,2,0,L|35:178,1,160,8|6,0:0|0:0,0:0:0:0:
258,80,76740,6,0,P|305:69|335:69,2,53.3333333333333,8|8|8,0:0|0:0|0:0,0:0:0:0:
297,149,77073,2,0,P|344:160|374:160,2,53.3333333333333,8|8|8,0:0|0:0|0:0,0:0:0:0:
292,228,77406,2,0,P|374:242|434:187,1,160,8|6,0:0|0:0,0:0:0:0:
367,344,78073,6,0,P|294:337|241:344,1,106.666666666667,6|0,0:0|0:0,0:0:0:0:
185,364,78406,2,0,P|112:371|59:364,1,106.666666666667,8|0,0:0|0:0,0:0:0:0:
14,319,78740,2,0,L|27:200,1,106.666666666667,2|0,0:0|0:0,0:0:0:0:
104,207,79073,2,0,L|120:91,1,106.666666666667,8|0,0:0|0:0,0:0:0:0:
200,64,79406,6,0,B|317:47|317:47|365:80,2,160,2|8|2,0:0|0:0|0:0,0:0:0:0:
118,101,80240,1,8,0:0:0:0:
118,101,80324,1,8,0:0:0:0:
118,101,80407,2,0,L|131:151,3,40,8|8|8|8,0:0|0:0|0:0|0:0,0:0:0:0:
145,223,80740,6,0,P|215:190|289:238,1,160,6|8,0:0|0:0,0:0:0:0:
352,280,81240,2,0,P|284:316|214:283,1,160,0|2,0:0|0:0,0:0:0:0:
145,223,81740,2,0,P|94:216|57:222,1,80,8|0,0:0|0:0,0:0:0:0:
19,144,82073,6,0,P|117:131|201:153,1,160,6|8,0:0|0:0,0:0:0:0:
256,178,82573,1,0,0:0:0:0:
302,103,82740,2,0,P|368:91|392:92,2,80,2|2|8,0:0|0:0|0:0,0:0:0:0:
256,178,83240,1,2,0:0:0:0:
315,242,83406,5,6,0:0:0:0:
256,192,83490,12,6,86073,0:0:0:0:
