osu file format v14

[General]
AudioFilename: audio.mp3
AudioLeadIn: 0
PreviewTime: 58739
Countdown: 0
SampleSet: Soft
StackLeniency: 0.7
Mode: 0
LetterboxInBreaks: 0
WidescreenStoryboard: 1

[Editor]
DistanceSpacing: 1.1
BeatDivisor: 4
GridSize: 32
TimelineZoom: 1.2

[Metadata]
Title:FUBUKI (TV Size)
TitleUnicode:吹雪 (TV Size)
Artist:Nishizawa Shiena
ArtistUnicode:西沢幸奏
Creator:wajinshu
Version:Easy
Source:艦隊これくしょん -艦これ-
Tags:kantai collection -kancolle- ending ed
BeatmapID:1794747
BeatmapSetID:858586

[Difficulty]
HPDrainRate:3
CircleSize:3
OverallDifficulty:3
ApproachRate:3
SliderMultiplier:0.8
SliderTickRate:1

[Events]
//Background and Video events
0,0,"bg.jpg",0,0
//Break Periods
2,46273,49633
//Storyboard Layer 0 (Background)
//Storyboard Layer 1 (Fail)
//Storyboard Layer 2 (Pass)
//Storyboard Layer 3 (Foreground)
//Storyboard Sound Samples

[TimingPoints]
740,333.333333333333,4,2,1,60,1,0
5739,-100,4,2,1,40,0,0
6073,-100,4,2,1,60,0,0
7073,-100,4,2,1,40,0,0
7157,-100,4,2,1,60,0,0
9739,-100,4,2,1,40,0,0
9823,-100,4,2,1,60,0,0
11406,-100,4,2,1,15,0,0
12740,-100,4,2,1,40,0,0
13406,-100,4,2,1,50,0,0
14073,-100,4,2,1,60,0,0
19073,-100,4,2,1,40,0,0
19406,-100,4,2,1,60,0,0
24406,-100,4,2,1,55,0,0
24740,-100,4,2,1,55,0,0
35073,-100,4,2,1,60,0,0
35406,-100,4,2,1,55,0,0
45073,-100,4,2,1,50,0,0
45406,-100,4,2,1,60,0,0
46073,-100,4,2,1,40,0,0
48573,-100,4,2,1,30,0,0
48739,-100,4,2,1,40,0,0
50073,-100,4,2,1,50,0,0
50406,-100,4,2,1,55,0,0
50739,-100,4,2,1,40,0,0
50906,-100,4,2,1,50,0,0
51073,-100,4,2,1,55,0,0
51406,-100,4,2,1,60,0,0
54073,-100,4,2,1,50,0,0
56739,-100,4,2,1,50,0,0
57239,-100,4,2,1,55,0,0
57406,-100,4,2,1,60,0,0
57906,-100,4,2,1,60,0,0
58573,-100,4,2,1,40,0,0
59073,-100,4,2,1,30,0,0
59406,-100,4,2,1,60,0,1
75406,-100,4,2,1,55,0,0
78073,-100,4,2,1,60,0,0
86073,-100,4,2,1,40,0,0

[Colours]
Combo1 : 78,69,243
Combo2 : 192,192,192
Combo3 : 108,255,255
Combo4 : 255,91,91

[HitObjects]
77,277,740,6,0,P|143:261|212:317,1,160,6|0,0:0|0:0,0:0:0:0:
350,207,2073,2,0,P|416:223|485:167,1,160,0|0,0:0|0:0,0:0:0:0:
331,81,3406,2,0,B|281:94|281:94|164:66,2,160,2|0|2,0:0|0:0|0:0,0:0:0:0:
471,289,6073,6,0,B|450:328|412:340|412:340|366:334|333:290|333:290|300:307|264:293|264:293|234:310|191:287,1,320,6|2,0:0|0:0,0:0:0:0:
111,260,7740,2,0,L|115:346,1,80,0|2,0:0|0:0,0:0:0:0:
37,181,8740,6,0,B|102:132|186:176|186:176|204:154|248:121|248:121|277:139|336:126,1,320,2|2,0:0|0:0,0:0:0:0:
464,234,10740,2,0,L|482:65,1,160,2|0,0:0|0:0,0:0:0:0:
256,192,11573,12,6,14073,0:0:0:0:
169,309,15406,6,0,L|158:218,1,80,2|8,0:0|0:0,0:0:0:0:
107,158,16073,2,0,L|116:78,1,80,2|8,0:0|0:0,0:0:0:0:
202,57,16740,6,0,B|265:50|378:46,1,160,2|2,0:0|0:0,0:0:0:0:
453,197,18073,2,0,P|466:237|466:289,1,80,2|8,0:0|0:0,0:0:0:0:
398,329,18740,2,0,P|336:319|305:322,1,80,2|8,0:0|0:0,0:0:0:0:
254,384,19406,6,0,P|230:322|276:242,2,160,6|2|2,0:0|0:0|0:0,0:0:0:0:
354,239,21406,1,2,0:0:0:0:
239,105,22073,6,0,B|132:70|132:70|85:90,1,160,2|2,0:0|0:0,0:0:0:0:
194,228,23406,2,0,L|272:258,2,80,6|8|2,0:0|0:0|0:0,0:0:0:0:
118,181,24406,1,2,0:0:0:0:
50,237,24740,6,0,P|29:293|26:324,1,80,6|8,0:0|0:0,0:0:0:0:
91,371,25406,2,0,P|147:350|178:347,1,80,2|8,0:0|0:0,0:0:0:0:
254,359,26073,1,2,0:0:0:0:
341,369,26406,2,0,L|341:285,2,80,8|2|8,0:0|0:0|0:0,0:0:0:0:
428,360,27406,6,0,L|426:187,1,160,2|2,0:0|0:0,0:0:0:0:
268,117,28740,2,0,L|261:276,1,160,2|2,0:0|0:0,0:0:0:0:
173,282,29740,1,8,0:0:0:0:
98,236,30073,6,0,P|91:313|147:366,2,160,2|2|2,0:0|0:0|0:0,0:0:0:0:
175,77,32073,2,0,P|215:89|256:93,1,80,2|8,0:0|0:0,0:0:0:0:
340,82,32740,5,2,0:0:0:0:
427,80,33073,2,0,L|442:251,1,160,8|8,0:0|0:0,0:0:0:0:
401,318,34073,1,2,0:0:0:0:
317,290,34406,2,0,B|212:307|212:307|149:278,1,160,8|8,0:0|0:0,0:0:0:0:
97,225,35406,5,4,0:0:0:0:
27,279,35740,2,0,P|10:221|15:186,2,80,8|2|8,0:0|0:0|0:0,0:0:0:0:
98,330,36740,1,2,0:0:0:0:
185,339,37073,2,0,P|241:325|277:324,1,80,8|2,0:0|0:0,0:0:0:0:
350,333,37740,1,8,0:0:0:0:
389,254,38073,5,2,0:0:0:0:
337,183,38406,2,0,P|292:176|244:175,2,80,8|2|8,0:0|0:0|0:0,0:0:0:0:
400,121,39406,2,0,P|439:119|479:112,2,80,2|8|2,0:0|0:0|0:0,0:0:0:0:
320,83,40406,1,8,0:0:0:0:
244,37,40740,5,2,0:0:0:0:
83,108,41406,1,2,0:0:0:0:
199,239,42073,1,2,0:0:0:0:
63,351,42740,2,0,L|50:188,1,160,2|2,0:0|0:0,0:0:0:0:
83,108,43740,6,0,B|250:118,1,160,8|8,0:0|0:0,0:0:0:0:
330,113,44740,1,2,0:0:0:0:
403,162,45073,1,8,0:0:0:0:
354,235,45406,2,0,P|331:293|329:326,1,80,10|10,0:0|0:0,0:0:0:0:
391,372,46073,1,6,0:0:0:0:
79,199,51073,5,10,0:0:0:0:
151,250,51406,2,0,P|263:267|312:240,1,160,6|2,0:0|0:0,0:0:0:0:
262,168,52406,1,8,0:0:0:0:
205,100,52739,2,0,P|130:75|54:98,2,160,6|2|6,0:0|0:0|0:0,0:0:0:0:
256,192,54240,12,8,58073,0:0:0:0:
143,206,59406,6,0,L|165:364,2,160,6|2|2,0:0|0:0|0:0,0:0:0:0:
218,46,61406,2,0,P|283:55|309:55,1,80,2|8,0:0|0:0,0:0:0:0:
368,107,62073,6,0,P|426:99|529:109,2,160,2|2|2,0:0|0:0|0:0,0:0:0:0:
291,151,63740,2,0,L|306:321,1,160,8|8,0:0|0:0,0:0:0:0:
217,323,64740,6,0,P|156:286|77:322,2,160,6|2|6,0:0|0:0|0:0,0:0:0:0:
305,310,66406,2,0,P|353:310|387:306,1,80,8|2,0:0|0:0,0:0:0:0:
453,250,67073,1,8,0:0:0:0:
426,166,67406,6,0,P|408:108|404:80,1,80,6|8,0:0|0:0,0:0:0:0:
345,23,68073,2,0,L|259:29,1,80,6|8,0:0|0:0,0:0:0:0:
219,101,68739,2,0,L|133:107,1,80,4|4,0:0|0:0,0:0:0:0:
85,176,69406,2,0,L|93:269,1,80,8|8,0:0|0:0,0:0:0:0:
144,326,70073,6,0,P|80:340|9:282,2,160,6|2|2,0:0|0:0|0:0,0:0:0:0:
305,255,72073,2,0,L|307:344,1,80,2|8,0:0|0:0,0:0:0:0:
224,366,72739,2,0,L|220:207,2,160,2|2|2,0:0|0:0|0:0,0:0:0:0:
248,102,75073,1,8,0:0:0:0:
223,17,75406,6,0,L|317:7,2,80,8|8|8,0:0|0:0|0:0,0:0:0:0:
154,179,76740,2,0,L|60:169,2,80,8|8|8,0:0|0:0|0:0,0:0:0:0:
400,145,78073,6,0,P|385:269|383:313,1,160,6|2,0:0|0:0,0:0:0:0:
311,355,79073,1,8,0:0:0:0:
228,324,79406,2,0,P|170:314|95:374,2,160,2|2|6,0:0|0:0|0:0,0:0:0:0:
311,355,81073,6,0,P|316:275|327:196,1,160,8|8,0:0|0:0,0:0:0:0:
334,108,82073,2,0,L|245:111,1,80,6|8,0:0|0:0,0:0:0:0:
185,55,82739,2,0,B|123:44|123:44|26:69,1,160,2|6,0:0|0:0,0:0:0:0:
256,192,83573,12,6,86073,0:0:0:0:
