osu file format v14

[General]
AudioFilename: Fubuki.mp3
AudioLeadIn: 0
PreviewTime: 59342
Countdown: 0
SampleSet: Normal
StackLeniency: 0.7
Mode: 1
LetterboxInBreaks: 0
WidescreenStoryboard: 0

[Editor]
DistanceSpacing: 1.6
BeatDivisor: 2
GridSize: 8
TimelineZoom: 1

[Metadata]
Title:FUBUKI (TV Size)
TitleUnicode:吹雪 (TV Size)
Artist:Nishizawa Shiena
ArtistUnicode:西沢幸奏
Creator:kanpakyin
Version:Kantan
Source:艦隊これくしょん -艦これ-
Tags:Kancolle aabc271 climbb65588 kantai collection ending marksman666 Fleet Girls ed
BeatmapID:616307
BeatmapSetID:270899

[Difficulty]
HPDrainRate:7.5
CircleSize:4
OverallDifficulty:2.5
ApproachRate:5
SliderMultiplier:1.4
SliderTickRate:1

[Events]
//Background and Video events
Video,0,"video.avi"
0,0,"BG.jpg",0,120
//Break Periods
//Storyboard Layer 0 (Background)
//Storyboard Layer 1 (Fail)
//Storyboard Layer 2 (Pass)
//Storyboard Layer 3 (Foreground)
//Storyboard Layer 4 (Overlay)
//Storyboard Sound Samples

[TimingPoints]
93,333.333333333333,4,1,0,90,1,0
1426,333.333333333333,4,1,0,90,1,0
60092,-100,4,1,0,90,0,1
86759,-100,4,1,0,90,0,0

[HitObjects]
381,97,1426,5,12,0:0:0:0:
381,97,2759,1,0,0:0:0:0:
381,97,4092,1,4,0:0:0:0:
381,97,5426,1,8,0:0:0:0:
384,93,6759,1,4,0:0:0:0:
375,95,7426,1,8,0:0:0:0:
384,93,7759,1,8,0:0:0:0:
384,93,8092,1,0,0:0:0:0:
366,96,8759,1,8,0:0:0:0:
366,96,9426,1,0,0:0:0:0:
383,93,10426,1,0,0:0:0:0:
366,96,10759,1,8,0:0:0:0:
383,93,11426,1,0,0:0:0:0:
383,93,12092,1,8,0:0:0:0:
256,192,13426,12,0,14426,0:0:0:0:
370,101,14759,5,4,0:0:0:0:
377,98,15092,1,8,0:0:0:0:
367,112,15759,1,8,0:0:0:0:
367,112,16426,1,8,0:0:0:0:
374,112,17092,1,8,0:0:0:0:
367,112,17426,1,0,0:0:0:0:
367,112,18092,1,0,0:0:0:0:
367,112,18759,1,0,0:0:0:0:
356,103,19759,1,8,0:0:0:0:
367,112,20092,1,4,0:0:0:0:
367,112,20426,1,8,0:0:0:0:
356,103,21092,1,8,0:0:0:0:
360,100,21759,1,8,0:0:0:0:
356,103,22426,1,8,0:0:0:0:
356,103,22759,1,0,0:0:0:0:
360,100,23426,1,0,0:0:0:0:
360,100,24092,1,8,0:0:0:0:
360,100,25092,1,8,0:0:0:0:
360,100,25426,1,4,0:0:0:0:
360,100,26092,1,0,0:0:0:0:
360,100,26759,1,0,0:0:0:0:
360,100,27759,1,8,0:0:0:0:
360,100,28092,1,0,0:0:0:0:
360,100,28426,1,0,0:0:0:0:
363,104,29092,1,8,0:0:0:0:
363,104,29426,1,0,0:0:0:0:
363,104,30092,1,0,0:0:0:0:
363,104,30759,1,8,0:0:0:0:
363,104,31426,1,8,0:0:0:0:
363,104,32092,1,8,0:0:0:0:
363,104,33092,1,8,0:0:0:0:
363,104,33426,1,8,0:0:0:0:
368,103,34092,1,0,0:0:0:0:
370,103,34759,1,0,0:0:0:0:
373,103,35759,1,8,0:0:0:0:
370,103,36092,1,4,0:0:0:0:
373,103,36759,1,0,0:0:0:0:
366,104,37426,1,0,0:0:0:0:
373,103,38426,1,8,0:0:0:0:
366,104,38759,1,0,0:0:0:0:
373,103,39426,1,8,0:0:0:0:
363,102,40092,1,0,0:0:0:0:
363,102,41092,1,0,0:0:0:0:
363,102,41426,1,8,0:0:0:0:
363,102,42092,1,8,0:0:0:0:
363,102,42759,1,8,0:0:0:0:
363,102,43759,1,8,0:0:0:0:
363,102,44092,1,0,0:0:0:0:
363,102,44759,1,0,0:0:0:0:
363,102,45426,1,8,0:0:0:0:
363,102,46092,1,8,0:0:0:0:
363,102,46759,1,4,0:0:0:0:
357,103,48092,1,0,0:0:0:0:
362,102,49426,1,4,0:0:0:0:
362,102,50759,1,0,0:0:0:0:
362,102,51759,1,8,0:0:0:0:
362,102,52092,1,4,0:0:0:0:
338,100,53092,1,8,0:0:0:0:
338,95,53426,1,0,0:0:0:0:
342,92,53759,1,8,0:0:0:0:
345,92,54426,1,8,0:0:0:0:
343,95,54759,1,4,0:0:0:0:
338,95,56092,1,4,0:0:0:0:
338,95,57426,1,4,0:0:0:0:
338,95,58759,1,4,0:0:0:0:
338,95,59092,1,4,0:0:0:0:
338,95,60092,1,12,0:0:0:0:
338,95,60759,1,0,0:0:0:0:
338,95,61426,1,8,0:0:0:0:
324,88,62092,1,0,0:0:0:0:
331,101,62759,1,8,0:0:0:0:
333,92,63426,1,8,0:0:0:0:
333,92,64092,1,0,0:0:0:0:
332,98,65092,1,8,0:0:0:0:
332,98,65426,1,0,0:0:0:0:
325,94,66426,1,8,0:0:0:0:
332,98,66759,1,0,0:0:0:0:
325,94,67426,1,8,0:0:0:0:
325,94,68092,1,0,0:0:0:0:
331,95,68759,1,0,0:0:0:0:
325,94,69092,1,0,0:0:0:0:
331,95,69426,1,8,0:0:0:0:
331,95,70759,1,12,0:0:0:0:
322,93,71426,1,8,0:0:0:0:
322,93,72092,1,0,0:0:0:0:
313,101,72759,1,0,0:0:0:0:
313,88,73426,1,8,0:0:0:0:
306,94,74092,1,0,0:0:0:0:
306,94,74759,1,8,0:0:0:0:
306,94,75759,1,0,0:0:0:0:
291,90,76092,1,8,0:0:0:0:
291,89,77092,1,4,0:0:0:0:
288,96,77426,1,0,0:0:0:0:
291,89,78426,1,4,0:0:0:0:
299,88,78759,1,8,0:0:0:0:
344,80,79426,1,0,0:0:0:0:
299,88,80092,1,8,0:0:0:0:
384,98,80759,1,0,0:0:0:0:
383,118,81092,1,0,0:0:0:0:
299,88,81426,1,4,0:0:0:0:
299,88,82426,1,8,0:0:0:0:
299,88,82759,1,0,0:0:0:0:
299,88,83426,1,0,0:0:0:0:
299,88,84092,1,4,0:0:0:0:
256,192,84426,12,0,86092,0:0:0:0:
299,88,86759,5,12,0:0:0:0:
