osu file format v14

[General]
AudioFilename: Fubuki.mp3
AudioLeadIn: 0
PreviewTime: 59342
Countdown: 0
SampleSet: Normal
StackLeniency: 0.7
Mode: 1
LetterboxInBreaks: 0
WidescreenStoryboard: 0

[Editor]
DistanceSpacing: 1.6
BeatDivisor: 4
GridSize: 8
TimelineZoom: 2.2

[Metadata]
Title:FUBUKI (TV Size)
TitleUnicode:吹雪 (TV Size)
Artist:Nishizawa Shiena
ArtistUnicode:西沢幸奏
Creator:kanpakyin
Version:Inner Oni
Source:艦隊これくしょん -艦これ-
Tags:Kancolle aabc271 climbb65588 kantai collection ending marksman666 Fleet Girls ed
BeatmapID:616067
BeatmapSetID:270899

[Difficulty]
HPDrainRate:5
CircleSize:4
OverallDifficulty:6
ApproachRate:5
SliderMultiplier:1.4
SliderTickRate:1

[Events]
//Background and Video events
Video,0,"video.avi"
0,0,"BG.jpg",0,120
//Break Periods
//Storyboard Layer 0 (Background)
//Storyboard Layer 1 (Fail)
//Storyboard Layer 2 (Pass)
//Storyboard Layer 3 (Foreground)
//Storyboard Layer 4 (Overlay)
//Storyboard Sound Samples

[TimingPoints]
93,333.333333333333,4,1,0,90,1,0
1426,333.333333333333,4,1,0,90,1,0
59426,-90.9090909090909,4,1,0,90,0,0
60092,-76.9230769230769,4,1,0,90,0,1
77009,-50,4,1,0,90,0,1
77176,-76.9230769230769,4,1,0,90,0,1
78342,-50,4,1,0,90,0,1
78509,-76.9230769230769,4,1,0,90,0,1
84092,-71.4285714285714,4,1,0,75,0,1
84759,-71.4285714285714,4,1,0,80,0,1
85426,-71.4285714285714,4,1,0,85,0,1
86092,-71.4285714285714,4,1,0,95,0,1
86759,-71.4285714285714,4,1,0,90,0,0

[HitObjects]
399,102,759,5,0,0:0:0:0:
399,102,1259,1,0,0:0:0:0:
399,102,1426,1,12,0:0:0:0:
399,102,2092,1,0,0:0:0:0:
399,102,2592,1,8,0:0:0:0:
399,102,2759,1,0,0:0:0:0:
399,102,3426,1,0,0:0:0:0:
399,102,3926,1,0,0:0:0:0:
392,104,4009,1,0,0:0:0:0:
399,102,4092,1,0,0:0:0:0:
399,102,4592,1,0,0:0:0:0:
399,102,4759,1,8,0:0:0:0:
399,102,5259,1,8,0:0:0:0:
399,102,5426,1,0,0:0:0:0:
399,102,6426,1,8,0:0:0:0:
399,102,6759,1,4,0:0:0:0:
427,100,6981,1,0,0:0:0:0:
426,97,7204,1,0,0:0:0:0:
426,97,7315,1,0,0:0:0:0:
399,102,7426,1,8,0:0:0:0:
425,96,7537,1,0,0:0:0:0:
424,96,7648,1,0,0:0:0:0:
408,104,7759,1,8,0:0:0:0:
417,94,7870,1,0,0:0:0:0:
399,102,7981,1,0,0:0:0:0:
399,102,8092,1,8,0:0:0:0:
399,102,8426,1,0,0:0:0:0:
399,102,8648,1,0,0:0:0:0:
399,102,8759,1,8,0:0:0:0:
384,104,9315,1,0,0:0:0:0:
399,102,9426,1,8,0:0:0:0:
416,106,9537,1,0,0:0:0:0:
416,106,9648,1,0,0:0:0:0:
384,104,9759,1,8,0:0:0:0:
412,93,9870,1,0,0:0:0:0:
412,93,9981,1,0,0:0:0:0:
384,104,10092,1,0,0:0:0:0:
412,93,10204,1,0,0:0:0:0:
412,93,10315,1,0,0:0:0:0:
392,96,10426,1,8,0:0:0:0:
412,93,10537,1,0,0:0:0:0:
384,104,10648,1,0,0:0:0:0:
384,104,10759,1,8,0:0:0:0:
384,104,11426,1,0,0:0:0:0:
384,104,11926,1,0,0:0:0:0:
384,104,12092,1,8,0:0:0:0:
256,192,12259,12,0,13259,0:0:0:0:
384,104,13426,5,8,0:0:0:0:
383,97,13509,1,8,0:0:0:0:
384,104,13592,1,0,0:0:0:0:
384,104,13676,1,0,0:0:0:0:
384,104,13759,1,8,0:0:0:0:
384,104,13842,1,8,0:0:0:0:
384,104,13926,1,0,0:0:0:0:
384,104,14009,1,0,0:0:0:0:
384,104,14092,1,8,0:0:0:0:
384,104,14176,1,8,0:0:0:0:
384,104,14259,1,0,0:0:0:0:
384,104,14342,1,0,0:0:0:0:
384,104,14426,1,8,0:0:0:0:
384,104,14509,1,8,0:0:0:0:
384,104,14592,1,8,0:0:0:0:
384,104,14676,1,8,0:0:0:0:
384,104,14759,1,0,0:0:0:0:
376,112,14926,1,0,0:0:0:0:
380,116,15092,1,8,0:0:0:0:
380,116,15259,1,0,0:0:0:0:
368,102,15426,1,0,0:0:0:0:
368,102,15592,1,0,0:0:0:0:
368,102,15759,1,8,0:0:0:0:
368,102,16092,1,0,0:0:0:0:
368,104,16259,1,0,0:0:0:0:
368,102,16426,1,8,0:0:0:0:
368,102,16592,1,8,0:0:0:0:
368,102,16759,1,0,0:0:0:0:
368,102,16926,1,0,0:0:0:0:
368,102,17092,1,8,0:0:0:0:
373,106,17426,1,8,0:0:0:0:
368,102,17592,1,0,0:0:0:0:
372,106,17759,1,8,0:0:0:0:
372,106,17926,1,0,0:0:0:0:
368,102,18009,1,0,0:0:0:0:
372,106,18092,1,8,0:0:0:0:
372,106,18259,1,0,0:0:0:0:
372,106,18426,1,8,0:0:0:0:
372,106,18592,1,0,0:0:0:0:
372,106,18676,1,0,0:0:0:0:
372,106,18759,1,8,0:0:0:0:
372,106,18926,1,0,0:0:0:0:
373,106,19092,1,8,0:0:0:0:
373,106,19259,1,0,0:0:0:0:
372,106,19342,1,0,0:0:0:0:
372,106,19426,1,8,0:0:0:0:
372,106,19509,1,8,0:0:0:0:
372,106,19592,1,0,0:0:0:0:
372,106,19759,1,8,0:0:0:0:
372,106,19926,1,8,0:0:0:0:
372,106,20092,1,4,0:0:0:0:
372,106,20426,1,8,0:0:0:0:
372,106,20592,1,0,0:0:0:0:
372,106,20759,1,8,0:0:0:0:
373,106,21092,1,8,0:0:0:0:
372,106,21259,1,0,0:0:0:0:
378,111,21342,1,0,0:0:0:0:
372,106,21426,1,8,0:0:0:0:
372,106,21592,1,0,0:0:0:0:
372,106,21676,1,0,0:0:0:0:
372,106,21759,1,8,0:0:0:0:
380,113,21926,1,0,0:0:0:0:
380,113,22092,1,8,0:0:0:0:
380,113,22259,1,8,0:0:0:0:
374,112,22426,1,8,0:0:0:0:
372,106,22592,1,0,0:0:0:0:
371,112,22759,1,4,0:0:0:0:
368,111,23092,1,8,0:0:0:0:
368,111,23259,1,0,0:0:0:0:
368,111,23426,1,8,0:0:0:0:
375,110,23759,1,8,0:0:0:0:
375,110,23926,1,0,0:0:0:0:
375,110,24009,1,0,0:0:0:0:
375,110,24092,1,8,0:0:0:0:
374,112,24259,1,0,0:0:0:0:
371,112,24426,1,8,0:0:0:0:
371,112,24592,1,8,0:0:0:0:
368,111,24676,1,8,0:0:0:0:
368,111,24759,1,0,0:0:0:0:
368,111,24926,1,0,0:0:0:0:
368,111,25092,1,8,0:0:0:0:
368,111,25176,1,8,0:0:0:0:
368,111,25259,1,0,0:0:0:0:
370,109,25342,1,0,0:0:0:0:
370,109,25426,1,0,0:0:0:0:
368,112,25759,1,8,0:0:0:0:
374,112,26092,1,0,0:0:0:0:
368,104,26259,1,0,0:0:0:0:
371,112,26426,1,8,0:0:0:0:
368,111,26592,1,8,0:0:0:0:
368,111,26759,1,0,0:0:0:0:
368,104,26926,1,0,0:0:0:0:
368,111,27092,1,8,0:0:0:0:
370,109,27259,1,0,0:0:0:0:
368,112,27426,1,0,0:0:0:0:
368,112,27592,1,0,0:0:0:0:
374,112,27759,1,8,0:0:0:0:
371,112,28092,1,0,0:0:0:0:
368,111,28426,1,8,0:0:0:0:
376,96,28592,1,0,0:0:0:0:
368,111,28759,1,0,0:0:0:0:
368,111,28926,1,0,0:0:0:0:
370,109,29092,1,8,0:0:0:0:
360,112,29259,1,0,0:0:0:0:
352,112,29342,1,0,0:0:0:0:
368,112,29426,1,8,0:0:0:0:
352,112,29592,1,0,0:0:0:0:
371,112,29759,1,8,0:0:0:0:
352,112,29926,1,0,0:0:0:0:
368,111,30009,1,0,0:0:0:0:
368,111,30092,1,8,0:0:0:0:
368,111,30259,1,0,0:0:0:0:
368,111,30426,1,8,0:0:0:0:
368,111,30592,1,0,0:0:0:0:
368,111,30676,1,0,0:0:0:0:
368,111,30759,1,8,0:0:0:0:
370,109,30926,1,0,0:0:0:0:
368,112,31092,1,8,0:0:0:0:
368,112,31259,1,8,0:0:0:0:
368,112,31426,1,8,0:0:0:0:
368,112,31592,1,0,0:0:0:0:
368,112,31759,1,8,0:0:0:0:
360,104,31926,1,0,0:0:0:0:
360,104,32009,1,0,0:0:0:0:
368,111,32092,1,8,0:0:0:0:
368,111,32426,1,8,0:0:0:0:
368,111,32592,1,0,0:0:0:0:
370,109,32759,1,8,0:0:0:0:
368,112,32926,1,8,0:0:0:0:
368,112,33092,1,8,0:0:0:0:
352,112,33259,1,0,0:0:0:0:
352,112,33342,1,0,0:0:0:0:
352,112,33426,1,8,0:0:0:0:
352,112,33759,1,8,0:0:0:0:
352,112,33926,1,0,0:0:0:0:
352,112,34092,1,8,0:0:0:0:
352,104,34259,1,0,0:0:0:0:
352,112,34426,1,8,0:0:0:0:
352,112,34592,1,0,0:0:0:0:
352,104,34676,1,0,0:0:0:0:
352,112,34759,1,8,0:0:0:0:
344,104,34926,1,0,0:0:0:0:
344,104,35092,1,8,0:0:0:0:
344,104,35259,1,0,0:0:0:0:
344,104,35426,1,8,0:0:0:0:
344,104,35592,1,8,0:0:0:0:
360,104,35759,1,8,0:0:0:0:
360,104,35926,1,8,0:0:0:0:
360,104,36009,1,8,0:0:0:0:
360,104,36092,1,0,0:0:0:0:
360,104,36259,1,0,0:0:0:0:
360,104,36426,1,8,0:0:0:0:
360,104,36759,1,0,0:0:0:0:
336,104,36926,1,0,0:0:0:0:
360,104,37092,1,8,0:0:0:0:
360,104,37259,1,0,0:0:0:0:
360,104,37426,1,0,0:0:0:0:
360,104,37592,1,0,0:0:0:0:
360,104,37676,1,0,0:0:0:0:
360,104,37759,1,8,0:0:0:0:
360,104,37926,1,0,0:0:0:0:
360,104,38092,1,0,0:0:0:0:
360,104,38259,1,8,0:0:0:0:
360,104,38426,1,8,0:0:0:0:
360,104,38592,1,0,0:0:0:0:
360,104,38676,1,8,0:0:0:0:
352,104,38759,1,0,0:0:0:0:
312,128,38926,1,0,0:0:0:0:
352,104,39092,1,8,0:0:0:0:
312,128,39259,1,0,0:0:0:0:
360,104,39342,1,0,0:0:0:0:
352,104,39426,1,0,0:0:0:0:
352,104,39592,1,0,0:0:0:0:
352,104,39759,1,8,0:0:0:0:
352,104,39926,1,0,0:0:0:0:
352,104,40009,1,0,0:0:0:0:
352,104,40092,1,8,0:0:0:0:
352,104,40259,1,0,0:0:0:0:
352,104,40426,1,8,0:0:0:0:
352,104,40592,1,0,0:0:0:0:
352,104,40676,1,0,0:0:0:0:
352,104,40759,1,8,0:0:0:0:
352,104,40926,1,0,0:0:0:0:
352,104,41092,1,8,0:0:0:0:
352,104,41176,1,8,0:0:0:0:
352,104,41259,1,0,0:0:0:0:
352,104,41342,1,0,0:0:0:0:
352,104,41426,1,8,0:0:0:0:
352,104,41592,1,0,0:0:0:0:
352,104,41759,1,8,0:0:0:0:
352,104,41926,1,8,0:0:0:0:
352,104,42009,1,0,0:0:0:0:
352,104,42092,1,8,0:0:0:0:
352,104,42259,1,0,0:0:0:0:
352,104,42426,1,8,0:0:0:0:
360,96,42592,1,8,0:0:0:0:
360,96,42676,1,0,0:0:0:0:
360,96,42759,1,8,0:0:0:0:
352,104,42926,1,0,0:0:0:0:
352,104,43092,1,8,0:0:0:0:
352,104,43259,1,0,0:0:0:0:
360,104,43426,1,8,0:0:0:0:
360,104,43592,1,8,0:0:0:0:
360,104,43759,1,8,0:0:0:0:
336,104,43926,1,0,0:0:0:0:
352,104,44092,1,8,0:0:0:0:
352,104,44426,1,8,0:0:0:0:
352,104,44592,1,0,0:0:0:0:
352,104,44676,1,0,0:0:0:0:
352,104,44759,1,8,0:0:0:0:
352,104,44926,1,0,0:0:0:0:
352,104,45092,1,8,0:0:0:0:
352,104,45259,1,8,0:0:0:0:
352,104,45342,1,8,0:0:0:0:
352,104,45426,1,8,0:0:0:0:
352,104,45592,1,0,0:0:0:0:
344,96,45676,1,0,0:0:0:0:
352,104,45759,1,8,0:0:0:0:
352,104,45842,1,0,0:0:0:0:
352,104,45926,1,0,0:0:0:0:
352,104,46009,1,0,0:0:0:0:
352,104,46092,1,8,0:0:0:0:
352,104,46176,1,0,0:0:0:0:
352,104,46259,1,0,0:0:0:0:
352,104,46342,1,0,0:0:0:0:
352,104,46426,1,8,0:0:0:0:
344,96,46509,1,8,0:0:0:0:
352,104,46592,1,0,0:0:0:0:
352,104,46759,1,4,0:0:0:0:
352,104,47426,1,0,0:0:0:0:
352,104,48092,1,0,0:0:0:0:
352,104,48592,1,0,0:0:0:0:
352,104,48759,1,8,0:0:0:0:
347,115,49259,1,0,0:0:0:0:
360,112,49426,1,4,0:0:0:0:
360,112,49926,1,8,0:0:0:0:
360,112,50092,1,0,0:0:0:0:
360,112,50426,1,0,0:0:0:0:
360,104,50759,1,8,0:0:0:0:
360,104,51092,1,0,0:0:0:0:
352,104,51426,1,8,0:0:0:0:
360,112,51592,1,0,0:0:0:0:
352,104,51759,1,8,0:0:0:0:
360,104,51842,1,0,0:0:0:0:
360,112,51926,1,8,0:0:0:0:
352,120,52009,1,8,0:0:0:0:
360,112,52092,1,0,0:0:0:0:
352,120,52259,1,0,0:0:0:0:
360,112,52426,1,8,0:0:0:0:
360,112,52592,1,0,0:0:0:0:
360,112,52676,1,0,0:0:0:0:
360,112,52759,1,0,0:0:0:0:
360,112,52926,1,0,0:0:0:0:
360,112,53092,1,8,0:0:0:0:
360,112,53259,1,8,0:0:0:0:
360,112,53426,1,0,0:0:0:0:
352,128,53592,1,0,0:0:0:0:
352,120,53676,1,0,0:0:0:0:
352,128,53759,1,8,0:0:0:0:
352,120,53926,1,0,0:0:0:0:
352,120,54092,1,8,0:0:0:0:
352,120,54176,1,8,0:0:0:0:
352,120,54259,1,0,0:0:0:0:
344,120,54426,1,8,0:0:0:0:
344,120,54592,1,0,0:0:0:0:
344,120,54759,1,12,0:0:0:0:
344,120,55092,1,0,0:0:0:0:
336,120,55259,1,0,0:0:0:0:
344,120,55426,1,0,0:0:0:0:
344,120,55592,1,0,0:0:0:0:
350,121,55676,1,0,0:0:0:0:
344,120,55759,1,0,0:0:0:0:
344,120,55926,1,0,0:0:0:0:
344,120,56092,1,12,0:0:0:0:
344,120,56426,1,0,0:0:0:0:
344,120,56592,1,0,0:0:0:0:
344,120,56759,1,0,0:0:0:0:
344,120,56926,1,0,0:0:0:0:
335,121,57009,1,0,0:0:0:0:
344,120,57092,1,0,0:0:0:0:
344,120,57259,1,0,0:0:0:0:
344,120,57426,1,12,0:0:0:0:
344,120,57759,1,0,0:0:0:0:
344,120,57926,1,0,0:0:0:0:
332,116,58009,1,0,0:0:0:0:
344,120,58092,1,0,0:0:0:0:
344,120,58259,1,0,0:0:0:0:
332,116,58342,1,0,0:0:0:0:
344,120,58426,1,0,0:0:0:0:
332,116,58592,1,0,0:0:0:0:
344,120,58676,1,0,0:0:0:0:
344,120,58759,1,0,0:0:0:0:
344,112,58926,1,12,0:0:0:0:
344,112,59092,1,12,0:0:0:0:
344,112,59426,1,0,0:0:0:0:
344,112,59926,1,0,0:0:0:0:
344,112,60092,1,12,0:0:0:0:
336,112,60426,1,0,0:0:0:0:
344,120,60592,1,0,0:0:0:0:
336,120,60759,1,8,0:0:0:0:
344,120,60926,1,0,0:0:0:0:
344,120,61009,1,0,0:0:0:0:
344,120,61092,1,8,0:0:0:0:
344,120,61259,1,0,0:0:0:0:
344,120,61426,1,8,0:0:0:0:
344,120,61592,1,0,0:0:0:0:
344,120,61759,1,8,0:0:0:0:
320,112,61926,1,0,0:0:0:0:
328,120,62009,1,0,0:0:0:0:
328,112,62092,1,8,0:0:0:0:
320,112,62259,1,0,0:0:0:0:
328,112,62426,1,8,0:0:0:0:
328,112,62592,1,0,0:0:0:0:
312,112,62676,1,0,0:0:0:0:
320,112,62759,1,8,0:0:0:0:
328,120,62926,1,0,0:0:0:0:
328,112,63092,1,8,0:0:0:0:
328,112,63259,1,0,0:0:0:0:
328,120,63342,1,8,0:0:0:0:
328,112,63426,1,0,0:0:0:0:
336,112,63592,1,8,0:0:0:0:
312,104,63759,1,0,0:0:0:0:
312,104,63926,1,8,0:0:0:0:
342,114,64009,1,8,0:0:0:0:
312,104,64092,1,0,0:0:0:0:
328,112,64259,1,8,0:0:0:0:
328,112,64426,1,0,0:0:0:0:
328,112,64592,1,8,0:0:0:0:
328,112,64759,1,0,0:0:0:0:
328,112,64926,1,8,0:0:0:0:
328,112,65009,1,8,0:0:0:0:
328,112,65092,1,0,0:0:0:0:
328,112,65259,1,0,0:0:0:0:
328,112,65426,1,8,0:0:0:0:
336,112,65537,1,8,0:0:0:0:
336,112,65648,1,0,0:0:0:0:
336,112,65759,1,8,0:0:0:0:
336,112,65870,1,8,0:0:0:0:
336,112,65981,1,0,0:0:0:0:
336,112,66092,1,8,0:0:0:0:
336,112,66204,1,8,0:0:0:0:
336,112,66315,1,0,0:0:0:0:
336,112,66426,1,8,0:0:0:0:
328,104,66537,1,8,0:0:0:0:
328,104,66648,1,0,0:0:0:0:
328,104,66759,1,8,0:0:0:0:
336,112,67092,1,8,0:0:0:0:
328,120,67315,1,0,0:0:0:0:
336,104,67426,1,8,0:0:0:0:
328,112,67759,1,0,0:0:0:0:
328,112,68092,1,8,0:0:0:0:
328,112,68204,1,0,0:0:0:0:
328,112,68315,1,0,0:0:0:0:
328,112,68426,1,8,0:0:0:0:
328,112,68537,1,0,0:0:0:0:
328,112,68648,1,0,0:0:0:0:
328,112,68759,1,8,0:0:0:0:
320,120,68981,1,0,0:0:0:0:
320,120,69092,1,8,0:0:0:0:
312,120,69315,1,0,0:0:0:0:
312,120,69426,1,8,0:0:0:0:
312,120,69759,1,0,0:0:0:0:
320,120,69926,1,0,0:0:0:0:
320,120,70092,1,8,0:0:0:0:
320,120,70176,1,8,0:0:0:0:
320,120,70259,1,8,0:0:0:0:
320,120,70342,1,8,0:0:0:0:
320,120,70426,1,0,0:0:0:0:
320,120,70509,1,0,0:0:0:0:
320,120,70592,1,0,0:0:0:0:
320,120,70676,1,0,0:0:0:0:
320,120,70759,1,8,0:0:0:0:
328,120,71092,1,0,0:0:0:0:
334,119,71259,1,0,0:0:0:0:
312,128,71426,1,8,0:0:0:0:
312,128,71592,1,8,0:0:0:0:
312,128,71759,1,0,0:0:0:0:
312,128,71926,1,8,0:0:0:0:
312,128,72009,1,8,0:0:0:0:
320,120,72092,1,0,0:0:0:0:
320,120,72259,1,0,0:0:0:0:
320,120,72426,1,8,0:0:0:0:
320,120,72592,1,0,0:0:0:0:
320,120,72676,1,0,0:0:0:0:
320,120,72759,1,8,0:0:0:0:
320,120,72926,1,0,0:0:0:0:
312,120,73092,1,8,0:0:0:0:
312,120,73259,1,8,0:0:0:0:
328,120,73342,1,0,0:0:0:0:
312,120,73426,1,8,0:0:0:0:
328,120,73592,1,0,0:0:0:0:
328,120,73759,1,0,0:0:0:0:
328,120,73926,1,8,0:0:0:0:
328,120,74092,1,0,0:0:0:0:
328,120,74426,1,0,0:0:0:0:
328,120,74592,1,8,0:0:0:0:
328,120,74759,1,12,0:0:0:0:
328,120,75092,1,0,0:0:0:0:
328,120,75426,1,8,0:0:0:0:
328,120,75592,1,8,0:0:0:0:
328,120,75759,1,0,0:0:0:0:
328,120,75926,1,0,0:0:0:0:
328,120,76092,1,8,0:0:0:0:
328,120,76204,1,0,0:0:0:0:
328,120,76315,1,0,0:0:0:0:
328,120,76370,1,0,0:0:0:0:
328,120,76426,1,8,0:0:0:0:
328,120,76537,1,0,0:0:0:0:
328,120,76648,1,8,0:0:0:0:
328,120,76759,1,0,0:0:0:0:
328,120,77092,1,12,0:0:0:0:
320,112,77315,1,0,0:0:0:0:
328,120,77426,1,8,0:0:0:0:
328,120,77537,1,8,0:0:0:0:
312,120,77648,1,0,0:0:0:0:
320,128,77704,1,0,0:0:0:0:
320,112,77759,1,8,0:0:0:0:
320,128,77870,1,8,0:0:0:0:
320,128,77981,1,8,0:0:0:0:
320,128,78092,1,0,0:0:0:0:
320,128,78426,1,12,0:0:0:0:
320,128,78648,1,0,0:0:0:0:
320,128,78759,1,8,0:0:0:0:
304,120,79092,1,8,0:0:0:0:
304,120,79315,1,0,0:0:0:0:
304,120,79426,1,8,0:0:0:0:
320,128,79648,1,0,0:0:0:0:
320,128,79759,1,8,0:0:0:0:
320,128,79926,1,8,0:0:0:0:
320,128,80092,1,0,0:0:0:0:
320,128,80259,1,8,0:0:0:0:
320,128,80342,1,8,0:0:0:0:
320,128,80426,1,0,0:0:0:0:
320,128,80592,1,0,0:0:0:0:
320,128,80759,1,8,0:0:0:0:
312,120,80842,1,0,0:0:0:0:
312,120,80926,1,0,0:0:0:0:
312,120,81009,1,0,0:0:0:0:
312,120,81092,1,8,0:0:0:0:
312,120,81176,1,0,0:0:0:0:
312,120,81259,1,0,0:0:0:0:
312,120,81342,1,0,0:0:0:0:
312,120,81426,1,8,0:0:0:0:
312,120,81592,1,0,0:0:0:0:
312,128,81759,1,8,0:0:0:0:
312,128,81926,1,0,0:0:0:0:
312,128,82009,1,0,0:0:0:0:
312,128,82092,1,0,0:0:0:0:
312,128,82259,1,0,0:0:0:0:
312,128,82426,1,8,0:0:0:0:
312,128,82592,1,0,0:0:0:0:
312,128,82759,1,0,0:0:0:0:
304,128,82926,1,0,0:0:0:0:
304,128,83009,1,0,0:0:0:0:
304,128,83092,1,8,0:0:0:0:
304,128,83259,1,0,0:0:0:0:
304,128,83426,1,8,0:0:0:0:
304,120,83592,1,0,0:0:0:0:
304,120,83759,1,8,0:0:0:0:
304,120,83926,1,8,0:0:0:0:
297,128,84092,1,4,0:0:0:0:
293,125,84259,1,0,0:0:0:0:
296,126,84342,1,0,0:0:0:0:
296,126,84426,1,8,0:0:0:0:
296,126,84509,1,8,0:0:0:0:
296,126,84592,1,0,0:0:0:0:
292,128,84676,1,0,0:0:0:0:
292,128,84759,1,8,0:0:0:0:
292,128,84842,1,8,0:0:0:0:
292,126,84926,1,0,0:0:0:0:
297,128,85009,1,0,0:0:0:0:
297,128,85092,1,8,0:0:0:0:
293,125,85176,1,8,0:0:0:0:
293,125,85259,1,0,0:0:0:0:
296,126,85342,1,0,0:0:0:0:
287,128,85426,1,8,0:0:0:0:
296,126,85509,1,8,0:0:0:0:
296,126,85592,1,0,0:0:0:0:
292,128,85676,1,0,0:0:0:0:
292,128,85759,1,8,0:0:0:0:
292,128,85842,1,8,0:0:0:0:
292,126,85926,1,0,0:0:0:0:
286,126,86009,1,0,0:0:0:0:
286,126,86092,1,8,0:0:0:0:
293,125,86176,1,8,0:0:0:0:
286,126,86259,1,8,0:0:0:0:
296,126,86342,1,8,0:0:0:0:
287,128,86426,1,0,0:0:0:0:
288,118,86509,1,0,0:0:0:0:
296,126,86592,1,0,0:0:0:0:
292,128,86676,1,0,0:0:0:0:
288,128,86759,1,12,0:0:0:0:
