osu file format v14

[General]
AudioFilename: Fubuki.mp3
AudioLeadIn: 0
PreviewTime: 59342
Countdown: 0
SampleSet: Normal
StackLeniency: 0.7
Mode: 1
LetterboxInBreaks: 0
WidescreenStoryboard: 0

[Editor]
DistanceSpacing: 1.6
BeatDivisor: 4
GridSize: 8
TimelineZoom: 1

[Metadata]
Title:FUBUKI (TV Size)
TitleUnicode:吹雪 (TV Size)
Artist:Nishizawa Shiena
ArtistUnicode:西沢幸奏
Creator:kanpakyin
Version:Futsuu
Source:艦隊これくしょん -艦これ-
Tags:Kancolle aabc271 climbb65588 kantai collection ending marksman666 Fleet Girls ed
BeatmapID:616305
BeatmapSetID:270899

[Difficulty]
HPDrainRate:7
CircleSize:4
OverallDifficulty:3
ApproachRate:4
SliderMultiplier:1.4
SliderTickRate:1

[Events]
//Background and Video events
Video,0,"video.avi"
0,0,"BG.jpg",0,120
//Break Periods
//Storyboard Layer 0 (Background)
//Storyboard Layer 1 (Fail)
//Storyboard Layer 2 (Pass)
//Storyboard Layer 3 (Foreground)
//Storyboard Layer 4 (Overlay)
//Storyboard Sound Samples

[TimingPoints]
93,333.333333333333,4,1,0,90,1,0
1426,333.333333333333,4,1,0,90,1,0
60092,-100,4,1,0,90,0,1
86759,-100,4,1,0,90,0,0

[HitObjects]
410,135,1426,5,12,0:0:0:0:
410,135,2759,1,8,0:0:0:0:
410,135,3426,1,0,0:0:0:0:
410,135,4092,1,4,0:0:0:0:
410,135,5426,1,8,0:0:0:0:
415,137,6759,1,4,0:0:0:0:
410,135,7759,1,8,0:0:0:0:
420,135,8092,1,8,0:0:0:0:
410,135,8759,1,0,0:0:0:0:
410,135,9426,1,0,0:0:0:0:
402,136,10092,1,8,0:0:0:0:
400,130,10426,1,8,0:0:0:0:
410,135,10759,1,0,0:0:0:0:
402,136,11426,1,0,0:0:0:0:
408,136,11926,1,0,0:0:0:0:
402,136,12092,1,8,0:0:0:0:
402,136,13426,5,8,0:0:0:0:
392,134,13759,1,8,0:0:0:0:
392,134,14092,1,8,0:0:0:0:
392,134,14426,1,8,0:0:0:0:
392,134,14759,1,12,0:0:0:0:
386,135,15426,1,8,0:0:0:0:
386,135,16092,1,0,0:0:0:0:
368,96,16592,1,0,0:0:0:0:
386,135,16759,1,8,0:0:0:0:
386,135,17092,1,8,0:0:0:0:
386,135,17426,1,0,0:0:0:0:
386,135,18092,1,0,0:0:0:0:
386,135,18759,1,0,0:0:0:0:
376,136,19259,1,0,0:0:0:0:
386,135,19426,1,8,0:0:0:0:
386,135,19759,1,8,0:0:0:0:
386,135,20092,1,4,0:0:0:0:
373,132,20759,1,0,0:0:0:0:
386,135,21426,1,8,0:0:0:0:
376,136,21926,1,0,0:0:0:0:
373,132,22092,1,8,0:0:0:0:
373,132,22426,1,8,0:0:0:0:
373,132,22759,1,0,0:0:0:0:
373,132,23426,1,8,0:0:0:0:
373,132,24092,1,8,0:0:0:0:
373,132,24426,1,8,0:0:0:0:
373,132,24759,1,0,0:0:0:0:
373,132,25092,1,8,0:0:0:0:
373,132,25426,1,4,0:0:0:0:
368,128,26092,1,0,0:0:0:0:
391,145,26426,1,8,0:0:0:0:
391,145,26759,1,0,0:0:0:0:
384,128,27426,1,8,0:0:0:0:
391,145,27759,1,8,0:0:0:0:
391,145,28426,1,8,0:0:0:0:
384,144,28759,1,0,0:0:0:0:
391,145,29092,1,8,0:0:0:0:
391,145,29426,1,0,0:0:0:0:
392,160,29759,1,8,0:0:0:0:
392,152,30426,1,8,0:0:0:0:
391,145,30759,1,8,0:0:0:0:
398,146,31426,1,8,0:0:0:0:
398,146,32092,1,8,0:0:0:0:
392,152,32592,1,8,0:0:0:0:
401,152,32759,1,8,0:0:0:0:
403,151,33092,1,8,0:0:0:0:
408,137,33426,1,0,0:0:0:0:
408,137,34092,1,0,0:0:0:0:
416,156,34759,1,0,0:0:0:0:
428,159,35259,1,0,0:0:0:0:
416,156,35426,1,8,0:0:0:0:
415,155,35759,1,8,0:0:0:0:
416,156,36092,1,4,0:0:0:0:
392,128,36759,1,0,0:0:0:0:
432,168,37092,1,8,0:0:0:0:
417,163,37426,1,0,0:0:0:0:
417,163,38092,1,0,0:0:0:0:
417,163,38426,1,8,0:0:0:0:
417,163,39092,1,8,0:0:0:0:
400,160,39426,1,0,0:0:0:0:
417,163,39759,1,8,0:0:0:0:
417,163,40092,1,8,0:0:0:0:
376,152,40426,1,0,0:0:0:0:
417,163,41092,1,8,0:0:0:0:
417,163,41426,1,12,0:0:0:0:
417,163,42092,1,8,0:0:0:0:
417,163,42759,1,8,0:0:0:0:
417,163,43259,1,8,0:0:0:0:
415,153,43426,1,8,0:0:0:0:
415,153,43759,1,8,0:0:0:0:
415,153,44092,1,0,0:0:0:0:
415,146,44759,1,0,0:0:0:0:
415,146,45426,1,8,0:0:0:0:
415,146,45759,1,8,0:0:0:0:
415,146,46092,1,8,0:0:0:0:
411,162,46426,1,8,0:0:0:0:
411,162,46759,1,4,0:0:0:0:
413,157,48092,1,0,0:0:0:0:
408,160,49259,1,0,0:0:0:0:
413,157,49426,1,4,0:0:0:0:
413,157,50759,1,0,0:0:0:0:
413,157,51092,1,8,0:0:0:0:
413,157,51759,1,8,0:0:0:0:
405,152,52092,1,4,0:0:0:0:
408,144,52426,1,8,0:0:0:0:
411,152,53092,1,8,0:0:0:0:
411,152,53426,1,0,0:0:0:0:
411,152,53759,1,8,0:0:0:0:
411,152,54426,1,8,0:0:0:0:
411,152,54759,1,4,0:0:0:0:
411,152,55259,1,0,0:0:0:0:
411,152,56092,1,4,0:0:0:0:
403,153,56592,1,0,0:0:0:0:
403,153,57426,1,4,0:0:0:0:
403,153,57926,1,0,0:0:0:0:
403,153,58759,1,12,0:0:0:0:
403,153,59092,1,12,0:0:0:0:
369,164,59926,1,0,0:0:0:0:
391,160,60092,1,4,0:0:0:0:
391,160,60759,1,8,0:0:0:0:
388,165,61259,1,8,0:0:0:0:
391,160,61426,1,0,0:0:0:0:
388,165,62092,1,0,0:0:0:0:
384,160,62592,1,0,0:0:0:0:
391,160,62759,1,8,0:0:0:0:
400,160,63259,1,0,0:0:0:0:
385,162,63426,1,8,0:0:0:0:
368,160,63926,1,8,0:0:0:0:
385,162,64092,1,0,0:0:0:0:
368,160,64759,1,0,0:0:0:0:
387,155,65092,1,8,0:0:0:0:
387,155,65426,1,0,0:0:0:0:
368,168,65759,1,0,0:0:0:0:
347,153,66092,1,0,0:0:0:0:
387,155,66426,1,8,0:0:0:0:
387,155,66759,1,4,0:0:0:0:
390,165,67426,1,0,0:0:0:0:
393,151,68092,1,4,0:0:0:0:
371,150,68426,1,0,0:0:0:0:
394,151,68759,1,4,0:0:0:0:
394,151,69426,1,12,0:0:0:0:
394,151,70092,1,8,0:0:0:0:
394,151,70759,1,12,0:0:0:0:
394,151,71426,1,8,0:0:0:0:
394,151,71926,1,8,0:0:0:0:
394,151,72092,1,0,0:0:0:0:
394,151,72426,1,0,0:0:0:0:
394,151,72759,1,0,0:0:0:0:
384,160,73259,1,0,0:0:0:0:
384,160,73426,1,8,0:0:0:0:
400,141,73926,1,0,0:0:0:0:
394,151,74092,1,8,0:0:0:0:
414,142,74592,1,0,0:0:0:0:
394,151,74759,1,8,0:0:0:0:
400,141,75092,1,0,0:0:0:0:
384,130,75426,1,0,0:0:0:0:
400,141,75759,1,8,0:0:0:0:
394,151,76092,1,4,0:0:0:0:
400,152,76759,1,0,0:0:0:0:
387,138,77092,1,12,0:0:0:0:
393,140,77426,1,0,0:0:0:0:
387,138,78092,1,0,0:0:0:0:
394,133,78426,1,12,0:0:0:0:
394,133,78759,1,0,0:0:0:0:
384,128,79092,1,8,0:0:0:0:
384,128,79759,1,8,0:0:0:0:
393,130,80092,1,0,0:0:0:0:
358,139,80426,1,0,0:0:0:0:
393,134,80759,1,0,0:0:0:0:
376,136,81092,1,0,0:0:0:0:
385,134,81426,1,4,0:0:0:0:
389,127,81759,1,8,0:0:0:0:
400,136,82259,1,0,0:0:0:0:
385,134,82426,1,8,0:0:0:0:
386,125,82759,1,0,0:0:0:0:
386,125,83092,1,8,0:0:0:0:
392,136,83592,1,0,0:0:0:0:
376,120,83759,1,8,0:0:0:0:
386,125,84092,1,4,0:0:0:0:
256,192,84259,12,0,86426,0:0:0:0:
368,148,86759,5,12,0:0:0:0:
