osu file format v14

[General]
AudioFilename: audio.mp3
AudioLeadIn: 0
PreviewTime: 58669
Countdown: 0
SampleSet: Soft
StackLeniency: 0.7
Mode: 3
LetterboxInBreaks: 0
SpecialStyle: 0
WidescreenStoryboard: 0

[Editor]
DistanceSpacing: 0.8
BeatDivisor: 4
GridSize: 32
TimelineZoom: 1.5

[Metadata]
Title:FUBUKI (TV Size)
TitleUnicode:吹雪 (TV Size)
Artist:Nishizawa Shiena
ArtistUnicode:西沢幸奏
Creator:Daeng Simatta
Version:Easy
Source:艦隊これくしょん -艦これ-
Tags:Syadow- ATing Rhezie ending ED Kantai Collection KanColle anime japanese
BeatmapID:1972661
BeatmapSetID:944583

[Difficulty]
HPDrainRate:7
CircleSize:4
OverallDifficulty:7
ApproachRate:5
SliderMultiplier:1.4
SliderTickRate:1

[Events]
//Background and Video events
0,0,"FBK.png",0,0
//Break Periods
//Storyboard Layer 0 (Background)
//Storyboard Layer 1 (Fail)
//Storyboard Layer 2 (Pass)
//Storyboard Layer 3 (Foreground)
//Storyboard Layer 4 (Overlay)
//Storyboard Sound Samples
Sample,586,0,"soft-hitclap.wav",0
Sample,3252,0,"soft-hitclap.wav",0
Sample,3419,0,"Tom3.wav",70
Sample,5919,0,"soft-hitclap.wav",0
Sample,6752,0,"soft-hitwhistle.wav",0
Sample,7336,0,"Tom3.wav",70
Sample,7419,0,"Tom2.wav",70
Sample,8502,0,"soft-hitwhistle.wav",0
Sample,8586,0,"soft-hitclap.wav",0
Sample,8669,0,"soft-hitclap.wav",0
Sample,8752,0,"Tom3.wav",70
Sample,9419,0,"Tom2.wav",70
Sample,10086,0,"Tom3.wav",70
Sample,10169,0,"Tom3.wav",30
Sample,10252,0,"Tom2.wav",70
Sample,10336,0,"Tom3.wav",30
Sample,10502,0,"Tom2.wav",70
Sample,10586,0,"Tom3.wav",30
Sample,10669,0,"Tom3.wav",30
Sample,10836,0,"Tom3.wav",30
Sample,10919,0,"Tom3.wav",30
Sample,11002,0,"Tom3.wav",30
Sample,11086,0,"soft-hitwhistle.wav",0
Sample,11086,0,"Tom3.wav",30
Sample,11169,0,"Tom3.wav",30
Sample,11252,0,"Tom3.wav",70
Sample,11336,0,"Tom2.wav",70
Sample,12836,0,"soft-hitclap.wav",0
Sample,13002,0,"soft-hitclap.wav",0
Sample,13169,0,"soft-hitclap.wav",0
Sample,13336,0,"soft-hitclap.wav",0
Sample,13502,0,"soft-hitclap.wav",0
Sample,13669,0,"soft-hitclap.wav",0
Sample,13836,0,"soft-hitclap.wav",0
Sample,14002,0,"soft-hitclap.wav",0
Sample,14252,0,"soft-hitwhistle.wav",0
Sample,14419,0,"Hit Open.wav",50
Sample,14752,0,"Hit Open.wav",50
Sample,14919,0,"soft-hitwhistle.wav",0
Sample,15086,0,"Hit Open.wav",50
Sample,15419,0,"Hit Open.wav",50
Sample,15586,0,"soft-hitwhistle.wav",0
Sample,15752,0,"Hit Open.wav",50
Sample,16086,0,"Hit Open.wav",50
Sample,16419,0,"Hit Open.wav",50
Sample,16919,0,"soft-hitwhistle.wav",0
Sample,17086,0,"Hit Open.wav",50
Sample,17419,0,"Hit Open.wav",50
Sample,17586,0,"soft-hitwhistle.wav",0
Sample,17752,0,"Hit Open.wav",50
Sample,18086,0,"Hit Open.wav",50
Sample,18252,0,"soft-hitwhistle.wav",0
Sample,18419,0,"Hit Open.wav",50
Sample,18752,0,"Hit Open.wav",50
Sample,19086,0,"Hit Open.wav",50
Sample,19752,0,"Hit Open.wav",50
Sample,20086,0,"Hit Open.wav",50
Sample,20252,0,"soft-hitwhistle.wav",0
Sample,20419,0,"Hit Open.wav",50
Sample,20752,0,"Hit Open.wav",50
Sample,20919,0,"soft-hitwhistle.wav",0
Sample,21419,0,"Hit Open.wav",50
Sample,21586,0,"soft-hitwhistle.wav",0
Sample,21752,0,"Hit Open.wav",50
Sample,22252,0,"soft-hitwhistle.wav",0
Sample,22419,0,"Hit Open.wav",50
Sample,22752,0,"Hit Open.wav",50
Sample,22919,0,"soft-hitwhistle.wav",0
Sample,23086,0,"Hit Open.wav",50
Sample,23419,0,"Hit Open.wav",50
Sample,23586,0,"soft-hitwhistle.wav",0
Sample,23752,0,"Hit Open.wav",50
Sample,24086,0,"Tom3.wav",70
Sample,24252,0,"soft-hitclap.wav",0
Sample,24336,0,"soft-hitclap.wav",0
Sample,24502,0,"soft-hitclap.wav",0
Sample,24586,0,"soft-hitclap.wav",0
Sample,24669,0,"soft-hitclap.wav",0
Sample,27252,0,"LR5_HiHat NSynth.wav",70
Sample,29919,0,"LR5_HiHat NSynth.wav",70
Sample,30919,0,"soft-hitwhistle.wav",0
Sample,33586,0,"soft-hitwhistle.wav",0
Sample,35252,0,"Tom2.wav",70
Sample,35336,0,"Tom3.wav",70
Sample,37919,0,"LR5_HiHat NSynth.wav",70
Sample,40252,0,"soft-hitwhistle.wav",0
Sample,40586,0,"LR5_HiHat NSynth.wav",70
Sample,41586,0,"soft-hitwhistle.wav",0
Sample,43086,0,"Hit Open.wav",50
Sample,43419,0,"Hit Open.wav",50
Sample,43752,0,"Hit Open.wav",50
Sample,44086,0,"Hit Open.wav",50
Sample,44252,0,"soft-hitwhistle.wav",0
Sample,44419,0,"Hit Open.wav",50
Sample,44752,0,"Hit Open.wav",50
Sample,44919,0,"soft-hitwhistle.wav",0
Sample,45252,0,"soft-hitwhistle.wav",0
Sample,45336,0,"soft-hitclap.wav",0
Sample,45586,0,"Tom1.wav",70
Sample,45836,0,"Tom3.wav",70
Sample,45919,0,"Tom3.wav",70
Sample,48669,0,"soft-hitclap.wav",0
Sample,48752,0,"Tom3.wav",70
Sample,51752,0,"Hit Open.wav",50
Sample,52086,0,"Hit Open.wav",50
Sample,52419,0,"Hit Open.wav",50
Sample,52586,0,"soft-hitclap.wav",0
Sample,52669,0,"soft-hitclap.wav",0
Sample,53086,0,"Hit Open.wav",50
Sample,53419,0,"Hit Open.wav",50
Sample,53752,0,"Hit Open.wav",50
Sample,53919,0,"soft-hitclap.wav",0
Sample,54002,0,"soft-hitclap.wav",0
Sample,54252,0,"Tom2.wav",70
Sample,54586,0,"Tom1.wav",70
Sample,54586,0,"Tom3.wav",70
Sample,54752,0,"Tom2.wav",70
Sample,54919,0,"Tom3.wav",70
Sample,55086,0,"Tom1.wav",70
Sample,55086,0,"Tom3.wav",70
Sample,55586,0,"Tom2.wav",70
Sample,55919,0,"Tom1.wav",70
Sample,55919,0,"Tom3.wav",70
Sample,56086,0,"Tom2.wav",70
Sample,56252,0,"Tom3.wav",70
Sample,56419,0,"Tom2.wav",70
Sample,56419,0,"Tom3.wav",70
Sample,56919,0,"Tom2.wav",70
Sample,57086,0,"Tom3.wav",70
Sample,57336,0,"Tom2.wav",70
Sample,57419,0,"Tom3.wav",70
Sample,57586,0,"Tom3.wav",70
Sample,57919,0,"Tom3.wav",70
Sample,58002,0,"Tom2.wav",70
Sample,58086,0,"Tom3.wav",70
Sample,58252,0,"Tom3.wav",70
Sample,58419,0,"Tom3.wav",70
Sample,59586,0,"Hit Open.wav",50
Sample,59919,0,"Hit Open.wav",50
Sample,60252,0,"Hit Open.wav",50
Sample,60586,0,"Hit Open.wav",50
Sample,60919,0,"Hit Open.wav",50
Sample,61252,0,"Hit Open.wav",50
Sample,61586,0,"Hit Open.wav",50
Sample,61919,0,"Hit Open.wav",50
Sample,62252,0,"Hit Open.wav",50
Sample,62586,0,"Hit Open.wav",50
Sample,62919,0,"Hit Open.wav",50
Sample,63252,0,"Hit Open.wav",50
Sample,63586,0,"Hit Open.wav",50
Sample,63919,0,"Hit Open.wav",50
Sample,64252,0,"Hit Open.wav",50
Sample,64919,0,"Hit Open.wav",50
Sample,65252,0,"Hit Open.wav",50
Sample,65586,0,"Hit Open.wav",50
Sample,65919,0,"Hit Open.wav",50
Sample,66252,0,"Hit Open.wav",50
Sample,66586,0,"Hit Open.wav",50
Sample,66919,0,"Hit Open.wav",50
Sample,67252,0,"soft-hitclap.wav",0
Sample,67252,0,"Hit Open.wav",50
Sample,67336,0,"soft-hitwhistle.wav",0
Sample,67586,0,"Hit Open.wav",50
Sample,67919,0,"Hit Open.wav",50
Sample,68252,0,"Hit Open.wav",50
Sample,68586,0,"Hit Open.wav",50
Sample,68919,0,"Hit Open.wav",50
Sample,69252,0,"Hit Open.wav",50
Sample,69502,0,"soft-hitclap.wav",0
Sample,69586,0,"soft-hitclap.wav",0
Sample,69669,0,"soft-hitclap.wav",0
Sample,69836,0,"soft-hitclap.wav",0
Sample,69919,0,"soft-hitclap.wav",0
Sample,70002,0,"soft-hitclap.wav",0
Sample,70252,0,"Hit Open.wav",50
Sample,70586,0,"Hit Open.wav",50
Sample,70919,0,"Hit Open.wav",50
Sample,71252,0,"Hit Open.wav",50
Sample,71586,0,"Hit Open.wav",50
Sample,71919,0,"Hit Open.wav",50
Sample,72252,0,"Hit Open.wav",50
Sample,72586,0,"Hit Open.wav",50
Sample,72919,0,"Hit Open.wav",50
Sample,73252,0,"Hit Open.wav",50
Sample,73586,0,"Hit Open.wav",50
Sample,73919,0,"Hit Open.wav",50
Sample,74252,0,"Hit Open.wav",50
Sample,74586,0,"Hit Open.wav",50
Sample,74919,0,"Hit Open.wav",50
Sample,75502,0,"soft-hitclap.wav",0
Sample,75586,0,"soft-hitclap.wav",0
Sample,75669,0,"soft-hitclap.wav",0
Sample,75836,0,"soft-hitclap.wav",0
Sample,75919,0,"soft-hitclap.wav",0
Sample,76002,0,"soft-hitclap.wav",0
Sample,76836,0,"soft-hitclap.wav",0
Sample,76919,0,"soft-hitclap.wav",0
Sample,77002,0,"soft-hitclap.wav",0
Sample,77169,0,"soft-hitclap.wav",0
Sample,77252,0,"soft-hitclap.wav",0
Sample,77336,0,"soft-hitclap.wav",0
Sample,78252,0,"Hit Open.wav",50
Sample,78586,0,"Hit Open.wav",50
Sample,78919,0,"Hit Open.wav",50
Sample,79252,0,"Hit Open.wav",50
Sample,79586,0,"Hit Open.wav",50
Sample,79919,0,"Hit Open.wav",50
Sample,80169,0,"soft-hitwhistle.wav",0
Sample,80252,0,"soft-hitclap.wav",0
Sample,80336,0,"soft-hitclap.wav",0
Sample,80502,0,"soft-hitclap.wav",0
Sample,80586,0,"soft-hitclap.wav",0
Sample,80669,0,"soft-hitclap.wav",0
Sample,80919,0,"Hit Open.wav",50
Sample,81252,0,"Hit Open.wav",50
Sample,81586,0,"Hit Open.wav",50
Sample,81919,0,"soft-hitwhistle.wav",0
Sample,81919,0,"Hit Open.wav",50
Sample,82252,0,"Hit Open.wav",50
Sample,82586,0,"Hit Open.wav",50
Sample,82919,0,"Hit Open.wav",50
Sample,83252,0,"Hit Open.wav",50
Sample,83252,0,"Tom2.wav",70
Sample,83336,0,"Tom3.wav",70
Sample,83586,0,"Tom1.wav",70
Sample,83669,0,"Tom1.wav",70
Sample,83752,0,"Tom2.wav",70
Sample,83919,0,"soft-hitclap.wav",0
Sample,83919,0,"Tom3.wav",70
Sample,84086,0,"soft-hitwhistle.wav",0
Sample,84169,0,"soft-hitclap.wav",0
Sample,84252,0,"soft-hitclap.wav",0
Sample,84336,0,"soft-hitclap.wav",0
Sample,84419,0,"soft-hitwhistle.wav",0
Sample,84419,0,"soft-hitclap.wav",0
Sample,84502,0,"soft-hitclap.wav",0
Sample,84586,0,"soft-hitclap.wav",0
Sample,84669,0,"soft-hitclap.wav",0
Sample,84752,0,"soft-hitwhistle.wav",0
Sample,84752,0,"soft-hitclap.wav",0
Sample,84836,0,"soft-hitclap.wav",0
Sample,84919,0,"soft-hitclap.wav",0
Sample,85002,0,"soft-hitclap.wav",0
Sample,85086,0,"soft-hitwhistle.wav",0
Sample,85086,0,"soft-hitclap.wav",0
Sample,85169,0,"soft-hitclap.wav",0
Sample,85252,0,"soft-hitclap.wav",0
Sample,85336,0,"soft-hitclap.wav",0
Sample,85419,0,"soft-hitwhistle.wav",0
Sample,85419,0,"soft-hitclap.wav",0
Sample,85502,0,"soft-hitclap.wav",0
Sample,85586,0,"soft-hitclap.wav",0
Sample,85669,0,"soft-hitclap.wav",0
Sample,85752,0,"soft-hitwhistle.wav",0
Sample,85752,0,"soft-hitclap.wav",0
Sample,85836,0,"soft-hitclap.wav",0
Sample,85919,0,"soft-hitclap.wav",0
Sample,86002,0,"soft-hitclap.wav",0
Sample,86086,0,"Tom3.wav",70

[TimingPoints]
753,333.333333333333,4,2,1,52,1,0
59419,-100,4,2,1,52,0,1
75419,-100,4,2,1,52,0,0

[HitObjects]
192,192,753,128,2,2086:0:0:0:0:
448,192,753,1,4,0:0:0:0:
64,192,2086,128,0,2752:0:0:0:0:
448,192,2752,128,0,3419:0:0:0:0:
320,192,3419,128,2,4086:0:0:0:0:
64,192,4086,128,0,4752:0:0:0:0:
192,192,4752,128,0,6086:0:0:0:0:
320,192,6086,1,6,0:0:0:0:
448,192,6086,128,0,7419:0:0:0:70:Tom3.wav
320,192,7419,128,2,7752:0:0:0:0:
192,192,7752,128,2,8086:0:0:0:0:
64,192,8086,128,2,8419:0:0:0:0:
448,192,8419,128,2,8752:0:0:0:0:
320,192,8752,128,2,9086:0:0:0:0:
64,192,9086,128,2,9419:0:0:0:0:
192,192,9419,128,2,9752:0:0:0:0:
320,192,9752,128,0,10086:0:0:0:0:
448,192,10086,128,2,10419:0:0:0:0:
192,192,10419,128,0,10752:0:0:0:30:Tom3.wav
64,192,10752,128,0,11419:0:0:0:70:Tom2.wav
448,192,11419,1,0,0:0:0:0:
64,192,12752,1,8,0:0:0:0:
192,192,12919,1,8,0:0:0:0:
448,192,13086,1,8,0:0:0:0:
320,192,13252,1,8,0:0:0:0:
192,192,13419,1,8,0:0:0:0:
64,192,13586,1,8,0:0:0:0:
448,192,13752,1,8,0:0:0:0:
320,192,13919,1,8,0:0:0:0:
64,192,14086,128,2,14419:0:0:0:0:
192,192,14086,1,4,0:0:0:0:
448,192,14419,1,8,0:0:0:0:
64,192,14752,128,2,15086:0:0:0:0:
192,192,15086,1,8,0:0:0:0:
448,192,15419,128,2,15752:0:0:0:0:
320,192,15752,1,8,0:0:0:0:
64,192,15919,1,0,0:0:0:0:
320,192,16086,1,2,0:0:0:0:
192,192,16252,1,2,0:0:0:0:
448,192,16419,128,8,16752:0:0:0:0:
64,192,16752,128,2,17086:0:0:0:0:
192,192,16752,1,0,0:0:0:50:Hit Open.wav
448,192,17086,1,8,0:0:0:0:
64,192,17419,128,2,17752:0:0:0:0:
320,192,17752,1,8,0:0:0:0:
448,192,18086,128,2,18419:0:0:0:0:
64,192,18419,1,8,0:0:0:0:
320,192,18586,1,0,0:0:0:0:
192,192,18752,1,2,0:0:0:0:
448,192,18919,1,2,0:0:0:0:
64,192,19086,128,8,19419:0:0:0:0:
192,192,19419,1,2,0:0:0:0:
448,192,19419,128,4,19752:0:0:0:70:CrashRight.wav
64,192,19752,1,8,0:0:0:0:
448,192,20086,128,2,20419:0:0:0:0:
320,192,20419,1,8,0:0:0:0:
192,192,20586,1,0,0:0:0:0:
64,192,20752,128,2,21086:0:0:0:0:
192,192,21086,128,8,21419:0:0:0:0:
448,192,21086,1,0,0:0:0:50:Hit Open.wav
320,192,21419,128,2,21752:0:0:0:0:
64,192,21752,128,8,22086:0:0:0:0:
320,192,22086,1,2,0:0:0:0:
448,192,22086,128,0,23419:0:0:0:50:Hit Open.wav
192,192,22419,1,8,0:0:0:0:
64,192,22752,1,2,0:0:0:0:
320,192,23086,1,8,0:0:0:0:
64,192,23419,128,2,23752:0:0:0:0:
320,192,23752,128,8,24086:0:0:0:0:
192,192,24086,128,2,24419:0:0:0:0:
448,192,24419,128,8,24752:0:0:0:0:
64,192,24752,1,2,0:0:0:0:
192,192,24752,1,4,0:0:0:0:
448,192,25086,1,8,0:0:0:0:
320,192,25419,1,2,0:0:0:0:
192,192,25586,1,2,0:0:0:0:
64,192,25752,1,8,0:0:0:0:
448,192,26086,1,2,0:0:0:0:
64,192,26419,1,8,0:0:0:0:
192,192,26752,1,2,0:0:0:0:
320,192,26919,1,2,0:0:0:0:
448,192,27086,1,8,0:0:0:0:
320,192,27419,1,2,0:0:0:0:
64,192,27752,1,8,0:0:0:0:
448,192,28086,1,2,0:0:0:0:
192,192,28252,1,2,0:0:0:0:
320,192,28419,1,8,0:0:0:0:
64,192,28752,1,2,0:0:0:0:
448,192,29086,1,8,0:0:0:0:
320,192,29419,1,2,0:0:0:0:
64,192,29586,1,2,0:0:0:0:
192,192,29752,1,8,0:0:0:0:
448,192,30086,128,2,30419:0:0:0:0:
64,192,30419,1,8,0:0:0:0:
192,192,30752,128,2,31086:0:0:0:0:
448,192,31086,1,8,0:0:0:0:
320,192,31419,128,2,31752:0:0:0:0:
64,192,31752,1,8,0:0:0:0:
448,192,31919,1,0,0:0:0:0:
320,192,32086,1,2,0:0:0:0:
192,192,32252,1,2,0:0:0:0:
64,192,32419,128,8,32752:0:0:0:0:
448,192,32752,128,2,33086:0:0:0:0:
192,192,33086,1,8,0:0:0:0:
64,192,33419,128,2,33752:0:0:0:0:
320,192,33752,1,8,0:0:0:0:
448,192,34086,128,2,34419:0:0:0:0:
320,192,34419,1,8,0:0:0:0:
64,192,34586,1,0,0:0:0:0:
192,192,34752,1,2,0:0:0:0:
320,192,34919,1,2,0:0:0:0:
448,192,35086,128,8,35419:0:0:0:0:
64,192,35419,1,2,0:0:0:0:
192,192,35419,1,4,0:0:0:0:
448,192,35752,1,8,0:0:0:0:
64,192,36086,1,2,0:0:0:0:
192,192,36252,1,2,0:0:0:0:
320,192,36419,1,8,0:0:0:0:
64,192,36752,1,2,0:0:0:0:
448,192,37086,1,8,0:0:0:0:
192,192,37419,1,2,0:0:0:0:
320,192,37586,1,2,0:0:0:0:
448,192,37752,1,8,0:0:0:0:
320,192,38086,1,2,0:0:0:0:
64,192,38419,1,8,0:0:0:0:
448,192,38752,1,2,0:0:0:0:
320,192,38919,1,2,0:0:0:0:
192,192,39086,1,8,0:0:0:0:
448,192,39419,128,2,39752:0:0:0:0:
64,192,39752,1,8,0:0:0:0:
192,192,39752,128,0,40086:0:0:0:0:
320,192,40086,128,2,40419:0:0:0:0:
64,192,40419,128,8,40752:0:0:0:0:
448,192,40419,1,0,0:0:0:0:
320,192,40752,128,2,41086:0:0:0:0:
448,192,41086,1,8,0:0:0:0:
192,192,41419,128,2,41752:0:0:0:0:
320,192,41752,1,8,0:0:0:0:
64,192,42086,128,2,42419:0:0:0:0:
448,192,42419,1,8,0:0:0:0:
192,192,42586,1,0,0:0:0:0:
320,192,42752,1,2,0:0:0:0:
64,192,42919,1,2,0:0:0:0:
448,192,43086,128,8,43419:0:0:0:0:
64,192,43419,1,2,0:0:0:0:
448,192,43752,1,8,0:0:0:0:
192,192,44086,1,2,0:0:0:0:
320,192,44419,1,8,0:0:0:0:
64,192,44752,128,2,45086:0:0:0:0:
320,192,45086,128,8,45419:0:0:0:0:
448,192,45086,1,0,0:0:0:50:Hit Open.wav
192,192,45419,128,8,45752:0:0:0:0:
448,192,45752,128,0,46086:0:0:0:70:Tom3.wav
64,192,46086,128,2,47419:0:0:0:0:
192,192,46086,1,4,0:0:0:0:
448,192,47419,128,0,48752:0:0:0:0:
320,192,48586,1,8,0:0:0:0:
64,192,48752,128,2,50086:0:0:0:0:
320,192,50086,128,0,51419:0:0:0:0:
192,192,50919,1,2,0:0:0:0:
64,192,51086,1,8,0:0:0:0:
192,192,51419,1,2,0:0:0:0:
448,192,51419,1,4,0:0:0:0:
64,192,51752,1,8,0:0:0:0:
448,192,52086,1,2,0:0:0:0:
320,192,52252,1,2,0:0:0:0:
192,192,52419,1,8,0:0:0:0:
64,192,52752,1,2,0:0:0:0:
448,192,52752,1,0,0:0:0:50:Hit Open.wav
320,192,53086,1,8,0:0:0:0:
192,192,53419,1,2,0:0:0:0:
320,192,53586,1,2,0:0:0:0:
448,192,53752,1,8,0:0:0:0:
64,192,54086,1,6,0:0:0:0:
448,192,54086,1,8,0:0:0:0:
320,192,54419,1,0,0:0:0:70:Tom3.wav
64,192,54586,1,2,0:0:0:0:
64,192,55086,1,2,0:0:0:0:
192,192,55252,1,8,0:0:0:0:
320,192,55419,1,2,0:0:0:0:
448,192,55419,1,4,0:0:0:0:
192,192,55752,1,0,0:0:0:70:Tom3.wav
448,192,55919,1,2,0:0:0:0:
448,192,56419,1,2,0:0:0:0:
320,192,56586,1,8,0:0:0:0:
64,192,56752,1,2,0:0:0:0:
192,192,56752,1,4,0:0:0:0:
320,192,57252,1,8,0:0:0:0:
64,192,57419,1,2,0:0:0:0:
448,192,57586,1,0,0:0:0:70:Tom2.wav
192,192,57752,1,10,0:0:0:0:
320,192,58086,1,8,0:0:0:0:
192,192,58252,1,8,0:0:0:0:
320,192,58419,1,8,0:0:0:0:
64,192,58752,128,0,59419:0:0:0:0:
192,192,59419,1,2,0:0:0:0:
448,192,59419,1,4,0:0:0:0:
320,192,59752,1,8,0:0:0:0:
192,192,60086,1,2,0:0:0:0:
64,192,60419,1,8,0:0:0:0:
448,192,60752,1,2,0:0:0:0:
320,192,61086,1,8,0:0:0:0:
64,192,61419,1,2,0:0:0:0:
192,192,61752,1,8,0:0:0:0:
448,192,62086,128,2,62752:0:0:0:0:
192,192,62419,1,8,0:0:0:0:
64,192,62752,128,2,63419:0:0:0:0:
448,192,63086,1,8,0:0:0:0:
320,192,63419,128,2,64419:0:0:0:0:
192,192,63752,1,8,0:0:0:0:
448,192,64086,1,2,0:0:0:0:
64,192,64419,1,8,0:0:0:0:
192,192,64419,1,4,0:0:0:0:
320,192,64752,1,2,0:0:0:0:
448,192,64752,1,4,0:0:0:0:
64,192,65086,1,8,0:0:0:0:
448,192,65419,1,2,0:0:0:0:
320,192,65752,1,8,0:0:0:0:
64,192,66086,1,2,0:0:0:0:
192,192,66086,1,4,0:0:0:0:
320,192,66419,1,8,0:0:0:0:
64,192,66752,1,2,0:0:0:0:
448,192,67086,1,8,0:0:0:0:
192,192,67419,1,2,0:0:0:0:
320,192,67419,1,4,0:0:0:0:
64,192,67752,1,8,0:0:0:0:
448,192,68086,1,2,0:0:0:0:
320,192,68419,1,8,0:0:0:0:
64,192,68752,1,2,0:0:0:0:
192,192,68752,1,4,0:0:0:0:
448,192,69086,1,8,0:0:0:0:
192,192,69419,128,10,69752:0:0:0:0:
320,192,69752,128,10,70086:0:0:0:0:
64,192,70086,1,2,0:0:0:0:
448,192,70086,1,4,0:0:0:0:
320,192,70419,1,8,0:0:0:0:
64,192,70752,1,2,0:0:0:0:
448,192,71086,1,8,0:0:0:0:
192,192,71419,1,2,0:0:0:0:
320,192,71752,1,8,0:0:0:0:
64,192,72086,1,2,0:0:0:0:
192,192,72419,1,8,0:0:0:0:
448,192,72752,1,2,0:0:0:0:
320,192,73086,1,8,0:0:0:0:
64,192,73419,1,2,0:0:0:0:
448,192,73752,1,8,0:0:0:0:
64,192,74086,128,2,75086:0:0:0:0:
448,192,74419,1,8,0:0:0:0:
320,192,74752,1,2,0:0:0:0:
192,192,75086,1,8,0:0:0:0:
448,192,75086,128,0,75419:0:0:0:0:
64,192,75419,1,10,0:0:0:0:
64,192,75752,1,10,0:0:0:0:
64,192,76086,1,10,0:0:0:0:
192,192,76419,1,4,0:0:0:0:
320,192,76419,1,0,0:0:0:70:Tom3.wav
448,192,76752,1,10,0:0:0:0:
448,192,77086,1,10,0:0:0:0:
448,192,77419,1,10,0:0:0:0:
192,192,77752,1,4,0:0:0:70:CrashRight.wav
320,192,77752,1,0,0:0:0:70:Tom3.wav
64,192,78086,1,2,0:0:0:0:
448,192,78086,1,4,0:0:0:0:
192,192,78419,1,8,0:0:0:0:
448,192,78752,1,2,0:0:0:0:
320,192,79086,1,8,0:0:0:0:
64,192,79419,1,2,0:0:0:0:
192,192,79752,1,8,0:0:0:0:
320,192,80086,128,2,80419:0:0:0:0:
64,192,80419,128,8,80752:0:0:0:0:
192,192,80752,1,2,0:0:0:0:
448,192,80752,1,4,0:0:0:0:
320,192,81086,1,8,0:0:0:0:
64,192,81419,1,2,0:0:0:0:
192,192,81586,1,2,0:0:0:0:
320,192,81752,1,8,0:0:0:0:
64,192,82086,1,2,0:0:0:0:
448,192,82086,1,4,0:0:0:0:
192,192,82419,1,8,0:0:0:0:
448,192,82752,1,2,0:0:0:0:
320,192,82919,1,2,0:0:0:0:
192,192,83086,1,8,0:0:0:0:
64,192,83419,128,10,86086:0:0:0:0:
448,192,83419,128,4,86086:0:0:0:0:
192,192,86086,1,2,0:0:0:0:
