osu file format v14

[General]
AudioFilename: Kimi fuan.mp3
AudioLeadIn: 0
PreviewTime: 56137
Countdown: 0
SampleSet: Soft
StackLeniency: 0.5
Mode: 0
LetterboxInBreaks: 0
WidescreenStoryboard: 0

[Editor]
Bookmarks: 33086
DistanceSpacing: 1.5
BeatDivisor: 2
GridSize: 8
TimelineZoom: 1.6

[Metadata]
Title:Kimi Fan
TitleUnicode:キミファン
Artist:Nishizawa Ayumu (CV: Takahashi Mikako)
ArtistUnicode:西沢歩(CV: 高橋美佳子)
Creator:bossandy
Version:Ky's Normal
Source:ハヤテのごとく!!
Tags:Hayate no Gotoku 2nd season hayate no combat butler ms0543724 Empao Kyle Y Kyle_Y Japanese Anime Character Song Short Version
BeatmapID:1763530
BeatmapSetID:27014

[Difficulty]
HPDrainRate:5
CircleSize:3.3
OverallDifficulty:5
ApproachRate:5
SliderMultiplier:1.2
SliderTickRate:1

[Events]
//Background and Video events
0,0,"BG.jpg",0,0
//Break Periods
//Storyboard Layer 0 (Background)
//Storyboard Layer 1 (Fail)
//Storyboard Layer 2 (Pass)
//Storyboard Layer 3 (Foreground)
//Storyboard Layer 4 (Overlay)
//Storyboard Sound Samples

[TimingPoints]
55,338.983050847458,4,2,1,60,1,0
55,-125,4,2,1,60,0,0
6665,-125,4,2,1,40,0,0
7173,-125,4,2,1,45,0,0
7512,-125,4,2,1,50,0,0
7851,-125,4,2,1,55,0,0
8171,338.983050847458,4,2,1,60,1,0
8171,-100,4,2,1,60,0,0
17493,-200,4,2,1,60,0,0
19018,-125,4,2,1,60,0,0
29865,-100,4,2,1,60,0,0
52916,-100,4,2,1,44,0,0
53086,-100,4,2,1,46,0,0
53255,-100,4,2,1,48,0,0
53425,-100,4,2,1,50,0,0
53594,-100,4,2,1,52,0,0
53764,-100,4,2,1,54,0,0
53933,-100,4,2,1,56,0,0
54103,-100,4,2,1,58,0,0
54272,-200,4,2,1,60,0,0
56306,-100,4,2,1,60,0,0
56984,-100,4,2,1,80,0,1
72238,-100,4,2,1,80,0,0
73255,-100,4,2,1,80,0,1
83933,-100,4,2,1,80,0,0
84103,-100,4,2,1,80,0,1
86645,-100,4,2,1,80,0,0
86815,-100,4,2,1,80,0,1
89526,-100,4,2,1,80,0,0
92238,-100,4,2,1,80,0,0
94950,-100,4,2,1,80,0,1
95035,-100,4,2,1,80,0,0
96306,-100,4,2,1,80,0,0
97662,-100,4,2,1,60,0,0
105798,-100,4,2,1,60,0,0
116645,-100,4,2,1,40,0,0

[Colours]
Combo1 : 0,128,255
Combo2 : 255,128,64
Combo3 : 128,64,64

[HitObjects]
64,120,55,6,0,P|112:104|160:120,1,96,2|0,0:0|0:0,0:0:0:0:
232,171,732,2,0,P|277:183|322:167,1,96,0|0,0:0|0:0,0:0:0:0:
355,132,1241,2,0,L|344:37,2,96,2|0|0,0:0|0:0|0:0,0:0:0:0:
426,196,2258,2,0,L|415:291,1,96,0|0,0:0|0:0,0:0:0:0:
380,325,2766,6,0,P|332:341|284:325,1,96,2|0,0:0|0:0,0:0:0:0:
234,250,3444,2,0,P|188:237|143:253,1,96,0|0,0:0|0:0,0:0:0:0:
107,285,3953,2,0,L|118:380,2,96,2|0|0,0:0|0:0|0:0,0:0:0:0:
25,233,4970,2,0,L|36:138,1,96,0|0,0:0|0:0,0:0:0:0:
72,106,5478,6,0,P|120:90|168:106,1,96,2|0,0:0|0:0,0:0:0:0:
240,157,6156,2,0,P|285:169|330:153,1,96,0|0,0:0|0:0,0:0:0:0:
371,127,6665,2,0,L|382:222,2,96,2|2|2,0:0|0:0|0:0,0:0:0:0:
467,125,7682,2,0,L|478:30,1,96,2|0,0:0|0:0,0:0:0:0:
435,11,8171,6,0,P|379:9|306:6,1,120,6|10,3:2|0:0,0:0:0:0:
235,60,8848,1,2,3:2:0:0:
235,60,9018,2,0,L|247:135,1,60,2|10,3:2|0:0,0:0:0:0:
214,156,9357,2,0,P|159:174|85:151,2,120,2|2|2,0:0|3:2|0:0,0:0:0:0:
257,242,10374,2,0,L|252:307,2,60,2|2|2,3:2|3:2|3:2,0:0:0:0:
299,219,10882,6,0,P|355:217|428:214,1,120,2|10,3:2|0:0,0:0:0:0:
447,122,11560,1,2,3:2:0:0:
447,122,11730,2,0,P|417:123|387:124,1,60,2|10,3:2|0:0,0:0:0:0:
341,107,12069,2,0,P|362:55|330:-8,2,120,2|2|2,0:0|3:2|0:0,0:0:0:0:
249,136,13086,2,0,L|179:144,2,60,2|10|2,3:2|0:2|3:2,0:0:0:0:
266,180,13594,6,0,P|264:236|261:309,1,120,2|10,3:2|0:0,0:0:0:0:
343,350,14272,1,2,3:2:0:0:
343,350,14442,2,0,L|418:362,1,60,2|10,3:2|0:0,0:0:0:0:
439,329,14781,2,0,P|465:277|448:199,2,120,2|2|2,0:0|3:2|0:0,0:0:0:0:
371,260,15798,2,0,P|363:224|368:185,2,60,2|2|2,3:2|3:2|3:2,0:0:0:0:
276,278,16476,5,10,0:0:0:0:
276,278,16645,2,0,L|146:284,1,120,2|10,3:2|0:0,0:0:0:0:
109,297,17154,1,2,0:0:0:0:
24,344,17493,6,0,B|-7:319|-7:319|24:256|-7:194|-7:194|24:169,1,210,4|2,3:1|0:0,0:0:0:0:
65,81,19018,6,0,P|124:91|171:74,1,96,0|2,0:0|0:0,0:0:0:0:
200,59,19526,2,0,P|178:134|206:211,1,144,0|2,0:0|0:0,0:0:0:0:
231,226,20204,1,0,0:0:0:0:
317,273,20543,2,0,L|378:278,1,48,0|2,0:0|0:0,0:0:0:0:
414,277,20882,2,0,P|436:202|408:125,1,144,0|2,0:0|0:0,0:0:0:0:
464,56,21730,6,0,P|405:46|361:65,1,96,0|2,0:0|0:0,0:0:0:0:
339,77,22238,2,0,P|261:85|190:44,1,144,0|2,0:0|0:0,0:0:0:0:
175,18,22916,1,0,0:0:0:0:
93,68,23255,2,0,L|39:76,1,48,0|2,0:0|0:0,0:0:0:0:
2,96,23594,2,0,P|-12:170|17:241,1,144,0|2,0:0|0:0,0:0:0:0:
81,296,24442,6,0,L|195:278,1,96,2|2,0:0|0:0,0:0:0:0:
203,241,24950,2,0,L|317:259,1,96,2|0,0:0|0:0,0:0:0:0:
340,279,25459,1,2,0:0:0:0:
340,279,25628,2,0,P|406:312|479:286,1,144,2|2,0:0|0:0,0:0:0:0:
413,216,26476,2,0,L|425:118,1,96,2|2,0:0|0:0,0:0:0:0:
492,52,27154,6,0,B|454:15|399:16|362:48|362:48|356:21|356:21|307:54|242:40,1,288,2|2,0:0|0:0,0:0:0:0:
169,101,28509,2,0,P|150:58|153:11,2,96,2|2|2,0:0|0:0|0:0,0:0:0:0:
241,166,29526,2,0,L|305:163,1,48,2|2,0:0|0:0,0:0:0:0:
333,180,29865,6,0,P|355:241|330:307,1,120,2|2,3:2|3:2,0:0:0:0:
311,330,30374,2,0,L|191:335,1,120,2|0,0:0|0:0,0:0:0:0:
153,306,30882,1,2,3:2:0:0:
153,306,31052,2,0,L|33:311,1,120,2|2,0:0|0:0,0:0:0:0:
1,275,31560,2,0,L|19:194,1,60,2|2,3:2|0:0,0:0:0:0:
97,168,32069,1,0,0:0:0:0:
97,168,32238,2,0,L|161:165,1,60,2|2,3:2|0:0,0:0:0:0:
204,158,32577,6,0,P|226:97|201:31,1,120,0|2,3:0|3:2,0:0:0:0:
174,15,33086,2,0,L|294:10,1,120,2|0,0:0|0:0,0:0:0:0:
337,30,33594,1,2,3:2:0:0:
337,30,33764,2,0,L|457:25,1,120,2|2,0:0|0:0,0:0:0:0:
495,53,34272,2,0,L|477:134,1,60,2|2,3:2|0:0,0:0:0:0:
411,177,34781,1,2,0:0:0:0:
411,177,34950,2,0,L|347:180,1,60,0|2,3:0|0:0,0:0:0:0:
304,187,35289,6,0,P|282:248|307:314,1,120,2|2,3:2|3:2,0:0:0:0:
334,330,35798,2,0,L|214:335,1,120,2|0,0:0|0:0,0:0:0:0:
171,315,36306,1,2,3:2:0:0:
171,315,36476,2,0,L|51:320,1,120,2|0,0:0|0:0,0:0:0:0:
13,292,36984,2,0,L|31:211,1,60,2|2,3:2|0:0,0:0:0:0:
80,154,37493,1,2,0:0:0:0:
80,154,37662,2,0,L|66:95,2,60,10|0|2,0:0|0:0|3:2,0:0:0:0:
167,193,38340,5,4,0:1:0:0:
212,108,38679,2,0,B|191:64|217:22|217:22|266:29|286:73,1,180,2|2,0:0|0:0,0:0:0:0:
312,114,39357,2,0,L|338:231,1,120,2|10,3:2|0:0,0:0:0:0:
388,223,39865,1,0,3:0:0:0:
388,223,40035,2,0,L|502:186,1,120,2|2,3:2|3:2,0:0:0:0:
502,283,40713,6,0,L|385:318,1,120,2|8,3:2|0:0,0:0:0:0:
353,353,41221,1,0,3:0:0:0:
353,353,41391,2,0,L|232:337,1,120,2|2,3:2|3:2,0:0:0:0:
195,308,41899,2,0,L|74:323,1,120,2|2,3:2|0:0,0:0:0:0:
29,309,42408,1,10,0:0:0:0:
60,218,42747,1,2,3:2:0:0:
2,141,43086,2,0,P|57:121|126:148,1,120,2|2,3:2|3:2,0:0:0:0:
201,177,43764,5,12,0:0:0:0:
285,130,44103,2,0,B|318:96|367:105|367:105|376:154|343:188,1,180,2|2,0:0|0:0,0:0:0:0:
317,229,44781,2,0,L|434:202,1,120,2|10,3:2|0:0,0:0:0:0:
475,226,45289,1,0,3:0:0:0:
475,226,45459,2,0,L|457:357,1,120,2|2,3:2|3:2,0:0:0:0:
370,382,46137,6,0,L|252:355,1,120,2|8,3:2|0:0,0:0:0:0:
215,325,46645,2,0,L|96:341,1,120,2|0,3:2|3:0,0:0:0:0:
50,357,47154,1,2,3:2:0:0:
14,267,47493,2,0,L|40:149,1,120,2|10,3:2|0:0,0:0:0:0:
70,111,48001,2,0,L|179:169,1,120,2|0,3:2|3:0,0:0:0:0:
212,198,48509,1,10,0:0:0:0:
278,128,48848,6,0,L|400:101,1,120,14|8,0:2|0:0,0:0:0:0:
458,29,49526,2,0,P|491:94|472:160,1,120,10|8,0:0|0:0,0:0:0:0:
457,177,50035,1,2,0:0:0:0:
457,177,50204,2,0,P|423:242|442:308,1,120,10|8,0:2|0:0,0:0:0:0:
451,379,50882,1,8,0:0:0:0:
451,379,51052,2,0,L|520:361,2,60,2|10|2,0:0|0:0|0:0,0:0:0:0:
402,383,51560,6,0,L|279:354,1,120,10|10,0:0|0:0,0:0:0:0:
221,282,52238,1,10,0:0:0:0:
139,332,52577,1,10,0:0:0:0:
52,289,52916,2,0,L|65:163,1,120,10|10,0:0|0:0,0:0:0:0:
98,135,53425,1,8,0:0:0:0:
98,135,53594,2,0,L|161:141,1,60,10|10,0:0|0:0,0:0:0:0:
194,172,53933,2,0,L|257:178,1,60,0|0,3:0|3:0,0:0:0:0:
293,150,54272,6,0,P|340:65|395:155,1,240,4|2,0:1|0:0,0:0:0:0:
441,318,56306,5,2,3:2:0:0:
441,318,56476,2,0,L|519:324,2,60,8|10|8,0:0|0:0|0:0,0:0:0:0:
401,343,56984,6,0,L|281:352,1,120,4|8,0:1|0:0,0:0:0:0:
207,290,57662,2,0,B|199:251|199:251|214:184,2,90,2|2|2,3:2|0:0|0:0,0:0:0:0:
181,330,58340,2,0,L|61:339,1,120,2|10,3:2|3:2,0:0:0:0:
23,309,58848,1,0,0:0:0:0:
23,309,59018,2,0,L|49:172,1,120,2|10,3:2|0:0,0:0:0:0:
2,104,59696,6,0,P|62:96|116:125,1,120,2|8,3:2|0:0,0:0:0:0:
205,95,60374,2,0,B|215:46|215:46|207:7,2,90,2|2|2,3:2|0:0|0:0,0:0:0:0:
235,132,61052,2,0,P|295:140|349:111,1,120,2|10,3:2|3:2,0:0:0:0:
381,80,61560,1,0,0:0:0:0:
381,80,61730,2,0,L|373:206,1,120,2|10,3:2|0:0,0:0:0:0:
469,193,62408,6,0,L|461:319,1,120,6|8,3:2|0:0,0:0:0:0:
376,358,63086,2,0,P|316:374|250:356,1,120,2|10,3:2|0:0,0:0:0:0:
218,338,63594,2,0,B|186:324|159:340|157:341|156:342|127:353|95:338,1,120,2|0,3:2|0:0,0:0:0:0:
57,319,64103,1,10,3:2:0:0:
125,252,64442,2,0,L|127:132,1,120,2|10,3:2|0:0,0:0:0:0:
62,60,65120,6,0,P|123:36|189:56,1,120,2|8,3:2|0:0,0:0:0:0:
213,75,65628,1,2,0:0:0:0:
213,75,65798,2,0,P|271:85|325:62,1,120,2|10,3:2|0:0,0:0:0:0:
368,40,66306,2,0,L|356:175,1,120,6|0,3:2|0:0,0:0:0:0:
361,207,66815,1,10,0:0:0:0:
302,283,67154,1,2,3:2:0:0:
368,352,67493,2,0,P|412:344|441:349,1,60,10|2,0:0|3:2,0:0:0:0:
470,359,67832,6,0,P|465:309|470:235,1,120,6|10,3:2|0:0,0:0:0:0:
504,150,68509,1,2,3:2:0:0:
412,119,68848,1,10,0:0:0:0:
412,119,69018,2,0,L|293:135,1,120,6|0,3:2|0:0,0:0:0:0:
254,164,69526,1,10,0:0:0:0:
176,106,69865,1,2,3:2:0:0:
103,169,70204,2,0,L|94:240,1,60,10|0,0:0|3:0,0:0:0:0:
114,272,70543,6,0,P|169:294|227:278,1,120,6|8,3:2|0:0,0:0:0:0:
318,305,71221,1,0,3:0:0:0:
318,305,71391,2,0,L|305:391,2,60,2|10|6,3:2|0:0|3:2,0:0:0:0:
337,260,71899,2,0,L|324:174,1,60,2|2,3:2|3:2,0:0:0:0:
310,155,72238,1,14,0:0:0:0:
391,104,72577,1,8,0:0:0:0:
391,104,72747,2,0,L|469:98,2,60,8|8|0,0:0|0:0|3:0,0:0:0:0:
364,64,73255,6,0,P|315:52|243:71,1,120,4|8,0:1|0:0,0:0:0:0:
192,145,73933,2,0,B|186:174|186:174|203:249,2,90,2|2|2,3:2|0:0|0:0,0:0:0:0:
162,107,74611,2,0,P|113:95|41:114,1,120,2|10,3:2|3:2,0:0:0:0:
18,150,75120,1,0,0:0:0:0:
18,150,75289,2,0,L|44:287,1,120,2|10,3:2|0:0,0:0:0:0:
7,358,75967,6,0,P|71:360|117:327,1,120,2|8,3:2|0:0,0:0:0:0:
199,282,76645,2,0,B|209:330|209:330|201:369,2,90,2|2|2,3:2|0:0|0:0,0:0:0:0:
237,252,77323,2,0,L|378:264,1,120,2|10,3:2|3:2,0:0:0:0:
402,246,77832,1,0,0:0:0:0:
402,246,78001,2,0,L|394:120,1,120,2|10,3:2|0:0,0:0:0:0:
442,42,78679,6,0,P|384:31|327:56,1,120,6|8,3:2|0:0,0:0:0:0:
289,80,79187,2,0,P|234:102|176:91,1,120,2|0,0:0|3:0,0:0:0:0:
133,70,79696,1,10,0:0:0:0:
49,22,80035,2,0,P|38:80|63:137,1,120,2|10,3:2|3:2,0:0:0:0:
87,175,80543,1,0,0:0:0:0:
87,175,80713,2,0,P|109:229|98:287,1,120,2|10,3:2|0:0,0:0:0:0:
166,355,81391,6,0,L|291:346,1,120,2|8,3:2|0:0,0:0:0:0:
322,314,81899,2,0,L|447:323,1,120,2|0,0:0|3:0,0:0:0:0:
487,309,82408,1,10,0:0:0:0:
487,309,82577,2,0,P|508:240|485:180,1,120,6|2,3:2|0:0,0:0:0:0:
459,163,83086,1,10,0:2:0:0:
459,163,83255,2,0,P|438:94|461:34,1,120,6|0,0:0|3:0,0:0:0:0:
419,13,83764,2,0,L|359:16,1,60,10|10,0:0|0:0,0:0:0:0:
318,42,84103,6,0,L|177:32,1,120,6|10,3:2|0:0,0:0:0:0:
108,69,84781,1,2,3:2:0:0:
153,153,85120,1,10,0:0:0:0:
75,210,85459,2,0,L|65:351,1,120,2|10,3:2|0:0,0:0:0:0:
146,383,86137,1,2,3:2:0:0:
214,315,86476,2,0,L|218:255,1,60,10|10,0:0|3:2,0:0:0:0:
238,211,86815,6,0,L|380:236,1,120,6|10,3:2|0:0,0:0:0:0:
428,295,87493,1,2,3:2:0:0:
506,239,87832,1,10,0:0:0:0:
450,160,88171,2,0,L|460:19,1,120,10|8,0:0|0:0,0:0:0:0:
422,8,88679,1,10,0:0:0:0:
422,8,88848,2,0,L|353:20,1,60,10|10,0:0|0:0,0:0:0:0:
322,44,89187,2,0,L|253:32,1,60,10|10,0:0|0:0,0:0:0:0:
216,21,89526,5,4,0:1:0:0:
146,87,89865,1,8,0:0:0:0:
146,87,90035,2,0,L|165:219,1,120,2|0,3:2|3:0,0:0:0:0:
142,249,90543,1,10,0:0:0:0:
217,307,90882,1,2,0:0:0:0:
269,226,91221,2,0,L|399:216,1,120,8|0,0:0|0:0,0:0:0:0:
453,287,91899,2,0,L|447:346,1,60,10|2,0:0|3:2,0:0:0:0:
409,374,92238,6,0,P|350:383|294:363,1,120,10|10,0:0|0:0,0:0:0:0:
217,307,92916,1,10,0:0:0:0:
128,344,93255,1,10,0:0:0:0:
55,281,93594,2,0,P|54:222|96:169,1,120,10|8,0:0|0:0,0:0:0:0:
142,249,94272,1,8,0:0:0:0:
219,191,94611,2,0,L|290:186,1,60,10|2,0:0|3:2,0:0:0:0:
321,165,94950,6,0,P|347:121|334:41,1,120,14|2,0:0|3:2,0:0:0:0:
303,24,95459,1,8,0:0:0:0:
303,24,95628,2,0,P|252:14|182:54,1,120,2|2,3:2|3:2,0:0:0:0:
97,22,96306,2,0,L|113:149,1,120,6|0,0:0|0:0,0:0:0:0:
137,181,96815,1,2,0:0:0:0:
137,181,96984,2,0,P|82:175|96:279,1,180,2|2,0:0|0:0,0:0:0:0:
107,311,97662,6,0,L|224:289,1,120,6|10,3:2|0:0,0:0:0:0:
299,228,98340,1,2,3:2:0:0:
299,228,98509,2,0,L|301:154,1,60,2|10,3:2|0:0,0:0:0:0:
336,135,98848,2,0,L|453:156,1,120,2|2,0:0|3:2,0:0:0:0:
503,239,99526,1,2,0:0:0:0:
445,315,99865,2,0,P|445:349|456:380,2,60,2|2|2,3:2|3:2|3:2,0:0:0:0:
414,277,100374,6,0,L|296:298,1,120,2|10,3:2|0:0,0:0:0:0:
231,227,101052,1,2,3:2:0:0:
231,227,101221,2,0,L|233:153,1,60,2|10,3:2|0:0,0:0:0:0:
199,131,101560,2,0,L|81:152,1,120,2|2,0:0|3:2,0:0:0:0:
9,217,102238,1,2,0:0:0:0:
78,283,102577,2,0,P|54:300|25:310,2,60,2|10|2,3:2|0:2|3:2,0:0:0:0:
113,248,103086,6,0,L|230:226,1,120,2|10,3:2|0:0,0:0:0:0:
304,288,103764,1,2,3:2:0:0:
304,288,103933,2,0,L|296:363,1,60,2|10,3:2|0:0,0:0:0:0:
337,375,104272,2,0,L|454:353,1,120,2|2,0:0|3:2,0:0:0:0:
493,264,104950,1,2,0:0:0:0:
417,204,105289,1,2,3:2:0:0:
417,204,105459,2,0,L|414:141,1,60,10|10,0:0|0:0,0:0:0:0:
387,104,105798,6,0,P|326:89|265:116,1,120,6|10,3:2|0:0,0:0:0:0:
241,198,106476,1,10,0:0:0:0:
241,198,106645,2,0,L|238:261,1,60,2|10,3:2|0:0,0:0:0:0:
217,301,106984,2,0,P|156:316|95:289,1,120,2|2,3:2|3:2,0:0:0:0:
42,223,107662,1,2,3:2:0:0:
68,130,108001,1,2,3:2:0:0:
68,130,108171,2,0,L|71:67,1,60,10|2,0:0|3:2,0:0:0:0:
92,27,108509,6,0,P|153:12|214:39,1,120,10|10,0:0|0:0,0:0:0:0:
274,108,109187,1,10,0:0:0:0:
274,108,109357,2,0,L|277:171,1,60,2|10,3:2|0:0,0:0:0:0:
298,211,109696,2,0,P|359:226|420:199,1,120,2|2,3:2|3:2,0:0:0:0:
485,145,110374,1,2,3:2:0:0:
444,57,110713,1,2,3:2:0:0:
444,57,110882,2,0,L|375:47,1,60,10|2,0:0|3:2,0:0:0:0:
337,37,111221,6,0,P|275:14|220:31,1,120,12|10,0:0|0:0,0:0:0:0:
169,106,111899,1,10,0:0:0:0:
169,106,112069,2,0,L|159:175,1,60,2|10,3:2|0:0,0:0:0:0:
131,203,112408,2,0,P|108:265|125:320,1,120,2|2,3:2|3:2,0:0:0:0:
211,351,113086,2,0,L|281:334,1,60,10|8,0:0|0:0,0:0:0:0:
312,356,113425,1,10,0:0:0:0:
312,356,113594,2,0,L|382:339,1,60,10|2,0:0|3:2,0:0:0:0:
376,245,114103,6,0,L|363:178,1,60,6|2,0:0|3:2,0:0:0:0:
457,161,114611,2,0,L|470:94,1,60,6|2,0:0|3:2,0:0:0:0:
386,51,115120,2,0,B|348:14|293:15|256:47|256:47|250:20|250:20|179:64|118:35,1,300,6|10,0:0|0:0,0:0:0:0:
95,74,116137,1,2,3:2:0:0:
95,74,116306,2,0,L|103:147,1,60,2|6,3:2|3:2,0:0:0:0:
256,192,116645,12,2,120204,0:0:0:0:
