osu file format v14

[General]
AudioFilename: Kimi fuan.mp3
AudioLeadIn: 0
PreviewTime: 56137
Countdown: 0
SampleSet: Soft
StackLeniency: 0.5
Mode: 0
LetterboxInBreaks: 0
WidescreenStoryboard: 0

[Editor]
DistanceSpacing: 1.5
BeatDivisor: 4
GridSize: 4
TimelineZoom: 1.6

[Metadata]
Title:Kimi Fan
TitleUnicode:キミファン
Artist:Nishizawa Ayumu (CV: Takahashi Mikako)
ArtistUnicode:西沢歩(CV: 高橋美佳子)
Creator:bossandy
Version:Insane
Source:ハヤテのごとく!!
Tags:Hayate no Gotoku 2nd season hayate no combat butler ms0543724 Empao Kyle Y Kyle_Y Japanese Anime Character Song Short Version
BeatmapID:90854
BeatmapSetID:27014

[Difficulty]
HPDrainRate:6
CircleSize:4
OverallDifficulty:7
ApproachRate:8.5
SliderMultiplier:1.6
SliderTickRate:1

[Events]
//Background and Video events
0,0,"BG.jpg",0,0
//Break Periods
//Storyboard Layer 0 (Background)
//Storyboard Layer 1 (Fail)
//Storyboard Layer 2 (Pass)
//Storyboard Layer 3 (Foreground)
//Storyboard Layer 4 (Overlay)
//Storyboard Sound Samples

[TimingPoints]
55,338.983050847458,4,2,1,60,1,0
55,-125,4,2,1,60,0,0
6665,-125,4,2,1,40,0,0
7173,-125,4,2,1,45,0,0
7512,-125,4,2,1,50,0,0
7851,-125,4,2,1,55,0,0
8171,338.983050847458,4,2,1,60,1,0
8171,-111.111111111111,4,2,1,60,0,0
18679,-166.666666666667,4,2,1,60,0,0
29865,-133.333333333333,4,2,1,60,0,0
38001,-200,4,2,1,60,0,0
38340,-80,4,2,1,60,0,0
38679,-133.333333333333,4,2,1,60,0,0
43424,-200,4,2,1,60,0,0
43763,-79.9999999999999,4,2,1,60,0,0
44102,-133.333333333333,4,2,1,60,0,0
52916,-133.333333333333,4,2,1,40,0,0
53255,-133.333333333333,4,2,1,45,0,0
53594,-133.333333333333,4,2,1,50,0,0
53933,-133.333333333333,4,2,1,55,0,0
54272,-200,4,2,1,60,0,0
56306,-133.333333333333,4,2,1,60,0,0
56984,-100,4,2,1,80,0,1
67832,-100,4,2,1,80,0,0
73255,-100,4,2,1,80,0,1
96306,-125,4,2,1,80,0,1
97662,-111.111111111111,4,2,1,60,0,0
105798,-100,4,2,1,60,0,0
116645,-100,4,2,1,40,0,0

[Colours]
Combo1 : 0,128,255
Combo2 : 255,128,64
Combo3 : 128,64,64

[HitObjects]
336,320,55,6,0,P|284:352|216:352,2,128,2|0|0,0:0|0:0|0:0,0:0:0:0:
360,252,902,2,0,L|360:188,1,64,0|0,0:0|0:0,0:0:0:0:
432,284,1241,6,0,L|432:156,1,128,2|0,0:0|0:0,0:0:0:0:
372,116,1749,1,0,0:0:0:0:
308,84,1919,1,0,0:0:0:0:
244,52,2088,2,0,L|180:52,1,64,0|0,0:0|0:0,0:0:0:0:
52,80,2427,2,0,L|116:80,1,64,0|0,0:0|0:0,0:0:0:0:
20,144,2766,6,0,P|16:206|68:248,2,128,2|0|0,0:0|0:0|0:0,0:0:0:0:
84,176,3614,1,0,0:0:0:0:
80,104,3783,1,0,0:0:0:0:
144,136,3953,6,0,P|206:148|268:134,1,128,2|0,0:0|0:0,0:0:0:0:
292,64,4461,2,0,P|312:44|347:33,1,64,0|0,0:0|0:0,0:0:0:0:
352,106,4800,2,0,P|380:106|412:123,1,64,0|0,0:0|0:0,0:0:0:0:
364,177,5139,2,0,P|383:196|394:232,1,64,0|0,0:0|0:0,0:0:0:0:
322,237,5478,6,0,P|318:299|288:355,1,128,2|0,0:0|0:0,0:0:0:0:
221,380,5987,1,0,0:0:0:0:
151,384,6156,1,0,0:0:0:0:
89,352,6326,1,0,0:0:0:0:
50,294,6495,1,0,0:0:0:0:
48,144,6665,6,0,P|70:94|140:68,1,128,2|2,0:0|0:0,0:0:0:0:
132,152,7173,2,0,P|156:172|200:180,1,64,0|2,0:0|0:0,0:0:0:0:
216,88,7512,2,0,P|240:68|284:60,1,64,0|2,0:0|0:0,0:0:0:0:
308,164,7851,2,0,P|332:184|376:192,1,64,2|0,0:0|0:0,0:0:0:0:
460,72,8171,6,0,L|444:216,1,143.999995605469,6|10,3:2|0:0,0:0:0:0:
364,264,8679,1,0,0:0:0:0:
272,284,8848,2,0,P|236:284|188:256,2,71.9999978027344,2|2|10,3:2|3:2|0:0,0:0:0:0:
288,376,9357,6,0,P|216:376|150:347,1,143.999995605469,2|2,0:0|3:2,0:0:0:0:
107,263,9865,2,0,P|100:232|104:192,1,71.9999978027344,8|2,0:0|0:0,0:0:0:0:
112,100,10204,2,0,P|143:109|176:132,1,71.9999978027344,0|2,3:0|3:2,0:0:0:0:
252,184,10543,2,0,P|228:206|191:223,1,71.9999978027344,2|2,3:2|3:2,0:0:0:0:
260,96,10882,6,0,L|408:108,1,143.999995605469,2|10,3:2|0:0,0:0:0:0:
496,116,11391,1,0,0:0:0:0:
439,192,11560,2,0,P|430:226|435:262,2,71.9999978027344,2|2|10,3:2|3:2|0:0,0:0:0:0:
356,148,12069,6,0,P|337:217|346:288,1,143.999995605469,2|2,0:0|3:2,0:0:0:0:
276,352,12577,2,0,P|236:356|196:336,1,71.9999978027344,8|2,0:0|0:0,0:0:0:0:
132,288,12916,2,0,P|108:255|105:210,1,71.9999978027344,0|2,3:0|3:2,0:0:0:0:
104,132,13255,2,0,P|120:95|157:70,1,71.9999978027344,10|2,0:2|3:2,0:0:0:0:
192,156,13594,6,0,B|226:173|260:156|260:156|295:138|329:156,1,143.999995605469,2|10,3:2|0:0,0:0:0:0:
296,244,14103,1,0,0:0:0:0:
204,260,14272,2,0,P|168:252|132:236,2,71.9999978027344,2|2|10,3:2|3:2|0:0,0:0:0:0:
296,243,14781,6,0,P|365:240|416:292,1,143.999995605469,2|2,0:0|3:2,0:0:0:0:
328,332,15289,1,8,0:0:0:0:
328,332,15459,1,2,0:0:0:0:
296,243,15628,5,0,3:0:0:0:
244,320,15798,1,2,3:2:0:0:
230,181,15967,5,2,3:2:0:0:
152,296,16137,1,2,3:2:0:0:
164,118,16306,5,0,3:0:0:0:
60,272,16476,1,10,0:0:0:0:
60,272,16645,1,2,3:2:0:0:
60,180,16815,5,0,3:0:0:0:
164,334,16984,1,10,0:0:0:0:
164,334,17154,1,2,0:0:0:0:
104,56,17493,5,4,3:1:0:0:
104,56,18679,5,2,0:0:0:0:
48,100,18848,2,0,P|36:168|60:240,1,143.999995605469,0|2,0:0|0:0,0:0:0:0:
108,288,19526,2,0,B|141:304|175:288|175:288|210:270|245:288,1,143.999995605469,0|2,0:0|0:0,0:0:0:0:
288,348,20204,2,0,L|384:348,1,95.9999970703126,0|0,0:0|0:0,0:0:0:0:
432,292,20713,1,2,0:0:0:0:
432,292,20882,1,0,0:0:0:0:
432,292,21391,5,2,0:0:0:0:
432,292,21560,2,0,B|416:220|416:220|432:152,1,143.999995605469,0|2,0:0|0:0,0:0:0:0:
452,80,22238,2,0,L|296:100,1,143.999995605469,0|2,0:0|0:0,0:0:0:0:
280,32,22916,2,0,P|248:56|236:112,1,95.9999970703126,0|0,0:0|0:0,0:0:0:0:
280,168,23425,1,2,0:0:0:0:
280,168,23594,1,0,0:0:0:0:
52,343,24272,5,2,0:0:0:0:
52,343,24442,2,0,P|72:301|68:253,1,95.9999970703126,2|2,0:0|0:0,0:0:0:0:
28,192,24950,2,0,B|10:157|16:116|16:116|60:56,1,143.999995605469,2|2,0:0|0:0,0:0:0:0:
104,12,25628,2,0,B|144:12|172:32|172:32|252:32,1,143.999995605469,2|2,0:0|0:0,0:0:0:0:
360,116,26476,2,0,B|334:116|312:104|312:104|260:104,1,95.9999970703126,2|2,0:0|0:0,0:0:0:0:
328,236,27154,6,0,P|436:212|460:48,1,287.999991210938,2|2,0:0|0:0,0:0:0:0:
328,100,28509,6,0,L|228:92,1,95.9999970703126,2|2,0:0|0:0,0:0:0:0:
124,188,29187,1,2,0:0:0:0:
68,144,29357,1,0,0:0:0:0:
68,144,29442,1,0,0:0:0:0:
68,144,29526,1,2,0:0:0:0:
60,216,29696,1,2,0:0:0:0:
128,272,29865,6,0,L|184:304,1,60.0000022888184,2|0,3:2|0:0,0:0:0:0:
244,236,30204,2,0,L|320:232,1,60.0000022888184,2|2,3:2|0:0,0:0:0:0:
372,292,30543,2,0,P|392:236|368:172,1,120.000004577637,0|2,3:0|3:2,0:0:0:0:
304,124,31052,1,2,0:0:0:0:
388,92,31221,6,0,L|444:73,1,60.0000022888184,0|2,3:0|0:0,0:0:0:0:
316,36,31560,2,0,L|259:54,1,60.0000022888184,2|2,3:2|0:0,0:0:0:0:
374,180,31899,2,0,L|487:142,1,120.000004577637,0|2,3:0|3:2,0:0:0:0:
480,232,32408,1,2,0:0:0:0:
476,324,32577,6,0,P|448:320|416:300,1,60.0000022888184,0|0,3:0|0:0,0:0:0:0:
318,160,32916,2,0,P|348:164|374:180,1,60.0000022888184,2|2,3:2|0:0,0:0:0:0:
316,248,33255,2,0,P|257:238|205:208,1,120.000004577637,0|2,3:0|3:2,0:0:0:0:
180,124,33764,1,2,0:0:0:0:
112,184,33933,6,0,L|100:256,1,60.0000022888184,0|2,3:0|0:0,0:0:0:0:
40,104,34272,2,0,L|28:176,1,60.0000022888184,2|2,3:2|0:0,0:0:0:0:
56,20,34611,2,0,P|108:47|168:44,1,120.000004577637,0|0,3:0|3:0,0:0:0:0:
256,20,35120,1,2,0:0:0:0:
316,88,35289,6,0,L|280:216,1,120.000004577637,2|2,3:2|3:2,0:0:0:0:
312,288,35798,1,2,0:0:0:0:
380,228,35967,2,0,L|416:100,1,120.000004577637,0|2,3:0|3:2,0:0:0:0:
384,28,36476,1,2,0:0:0:0:
316,88,36645,6,0,L|248:92,1,60.0000022888184,0|0,3:0|0:0,0:0:0:0:
216,172,36984,2,0,L|148:168,1,60.0000022888184,2|2,3:2|0:0,0:0:0:0:
115,250,37323,2,8,L|47:254,2,60.0000022888184,0|2|10,3:0|0:0|0:0,0:0:0:0:
312,332,38001,6,0,B|328:334|328:334|340:329|340:329|354:334|354:334|369:332,1,60,2|0,3:2|0:0,0:0:0:0:
432,368,38340,6,0,B|451:334|432:296|432:296|412:258|432:225,1,150,4|0,0:1|0:0,0:0:0:0:
488,176,38679,6,0,P|500:133|492:89,2,90.0000034332277,2|2|2,0:0|0:0|0:0,0:0:0:0:
412,128,39357,2,0,L|324:132,1,60.0000022888184,2|0,3:2|0:0,0:0:0:0:
288,68,39696,2,0,L|228:65,1,60.0000022888184,10|0,0:0|3:0,0:0:0:0:
160,128,40035,1,2,3:2:0:0:
160,128,40204,1,0,3:0:0:0:
80,92,40374,1,2,3:2:0:0:
228,65,40543,1,0,3:0:0:0:
96,188,40713,6,0,P|147:215|204:201,1,120.000004577637,2|8,3:2|0:0,0:0:0:0:
272,144,41221,1,0,3:0:0:0:
300,228,41391,2,0,L|280:292,1,60.0000022888184,2|0,3:2|3:0,0:0:0:0:
392,200,41730,2,0,L|372:264,1,60.0000022888184,2|2,3:2|3:2,0:0:0:0:
480,180,42069,6,0,L|444:294,1,120.000004577637,0|10,3:0|0:0,0:0:0:0:
416,380,42577,1,0,3:0:0:0:
354,313,42747,2,0,L|374:257,1,60.0000022888184,2|0,3:2|3:0,0:0:0:0:
262,341,43086,2,0,L|282:285,1,60.0000022888184,2|2,3:2|3:2,0:0:0:0:
256,152,43425,6,0,B|251:168|251:168|229:180|229:180|225:197,1,60,2|0,3:2|0:0,0:0:0:0:
204,268,43764,6,0,P|134:292|63:270,1,150,12|0,0:0|0:0,0:0:0:0:
36,199,44103,6,0,P|80:196|119:215,2,90.0000034332277,2|2|2,0:0|0:0|0:0,0:0:0:0:
63,283,44781,2,0,P|90:298|119:304,1,60.0000022888184,2|0,3:2|0:0,0:0:0:0:
200,260,45120,1,10,0:0:0:0:
200,352,45289,1,0,3:0:0:0:
290,231,45459,2,0,P|255:183|200:164,1,120.000004577637,2|2,3:2|3:2,0:0:0:0:
200,260,45967,1,0,3:0:0:0:
268,320,46137,6,0,P|326:313|371:275,1,120.000004577637,2|8,3:2|0:0,0:0:0:0:
388,188,46645,1,2,3:2:0:0:
320,128,46815,2,0,P|320:96|328:68,1,60.0000022888184,0|0,3:0|3:0,0:0:0:0:
388,188,47154,2,0,P|415:204|435:224,1,60.0000022888184,2|0,3:2|3:0,0:0:0:0:
304,220,47493,6,0,P|252:250|194:265,1,120.000004577637,2|10,3:2|0:0,0:0:0:0:
104,256,48001,1,2,3:2:0:0:
52,180,48171,1,0,3:0:0:0:
76,92,48340,1,0,3:0:0:0:
152,44,48509,1,10,0:0:0:0:
360,340,48848,6,0,L|368:220,1,120.000004577637,14|8,0:2|0:0,0:0:0:0:
152,340,49526,2,0,L|144:220,1,120.000004577637,10|8,0:0|0:0,0:0:0:0:
256,192,50035,1,2,0:0:0:0:
344,120,50204,6,0,P|392:144|460:128,1,120.000004577637,10|8,0:2|0:0,0:0:0:0:
168,120,50882,2,0,P|119:144|51:128,1,120.000004577637,8|10,0:0|0:0,0:0:0:0:
104,56,51391,1,2,0:0:0:0:
176,216,51560,6,0,L|156:288,1,60.0000022888184,10|2,0:0|0:0,0:0:0:0:
336,216,51899,2,0,L|356:288,1,60.0000022888184,10|0,0:0|0:0,0:0:0:0:
256,240,52238,2,0,L|256:364,1,120.000004577637,10|10,0:0|0:0,0:0:0:0:
56,144,52916,5,10,0:0:0:0:
168,192,53086,1,8,0:0:0:0:
256,24,53255,1,10,0:0:0:0:
256,148,53425,1,8,0:0:0:0:
456,144,53594,1,10,0:0:0:0:
344,192,53764,1,10,0:0:0:0:
256,360,53933,5,0,3:0:0:0:
256,330,54018,1,0,3:0:0:0:
256,300,54103,1,0,3:0:0:0:
256,270,54187,1,0,3:0:0:0:
256,240,54272,1,4,0:1:0:0:
256,192,54357,12,2,55628,0:0:0:0:
64,280,56306,5,2,3:2:0:0:
136,336,56476,1,8,0:0:0:0:
136,336,56560,1,8,0:0:0:0:
136,336,56645,1,10,0:0:0:0:
156,248,56815,1,8,0:0:0:0:
252,320,56984,6,0,P|348:316|404:268,1,160,4|8,0:1|0:0,0:0:0:0:
408,160,57493,1,0,0:0:0:0:
296,204,57662,2,0,B|236:208|236:208|180:184,1,120,2|2,3:2|0:0,0:0:0:0:
124,136,58001,2,0,L|44:148,1,80,8|2,0:0|0:0,0:0:0:0:
160,256,58340,6,0,L|136:336,1,80,2|0,3:2|0:0,0:0:0:0:
256,308,58679,2,0,L|280:228,1,80,10|0,3:2|0:0,0:0:0:0:
84,132,59018,2,0,L|60:212,1,80,2|0,3:2|3:0,0:0:0:0:
180,184,59357,2,0,L|204:104,1,80,10|2,0:0|3:2,0:0:0:0:
216,276,59696,6,0,P|284:314|359:294,1,160,2|8,3:2|0:0,0:0:0:0:
472,336,60204,1,0,0:0:0:0:
452,220,60374,2,0,B|440:168|440:168|456:132|440:96,1,120,2|2,3:2|0:0,0:0:0:0:
374,133,60713,2,0,P|331:135|286:125,1,80,8|2,0:0|0:0,0:0:0:0:
216,36,61052,6,0,L|132:56,1,80,2|0,3:2|0:0,0:0:0:0:
44,256,61391,2,0,L|140:240,1,80,10|0,3:2|0:0,0:0:0:0:
122,141,61730,2,0,L|44:128,1,80,2|0,3:2|3:0,0:0:0:0:
138,329,62069,2,0,L|216:348,1,80,10|2,0:0|3:2,0:0:0:0:
256,236,62408,6,0,L|412:198,1,160,6|8,3:2|0:0,0:0:0:0:
496,112,62916,1,0,0:0:0:0:
512,232,63086,2,0,P|464:288|376:296,1,160,2|10,3:2|0:0,0:0:0:0:
284,228,63594,6,0,B|247:207|207:228|207:228|167:249|132:228,1,160,2|0,3:2|0:0,0:0:0:0:
172,112,64103,2,0,L|156:24,1,80,10|0,3:2|0:0,0:0:0:0:
40,56,64442,2,0,L|56:144,1,80,2|0,3:2|3:0,0:0:0:0:
263,283,64781,2,0,L|248:204,1,80,10|2,0:0|3:2,0:0:0:0:
131,227,65120,6,0,B|144:304|144:304|152:348|192:376,1,160,2|8,3:2|0:0,0:0:0:0:
263,283,65628,1,2,0:0:0:0:
240,164,65798,2,0,P|288:100|368:76,1,160,2|10,3:2|0:0,0:0:0:0:
480,92,66306,6,8,B|445:115|437:159|437:159|424:236,1,160,6|0,3:2|0:0,0:0:0:0:
440,356,66815,2,0,P|400:361|365:342,1,80,10|0,0:0|0:0,0:0:0:0:
311,235,67154,2,0,P|236:212|159:230,1,160,2|10,3:2|0:0,0:0:0:0:
88,328,67662,1,2,3:2:0:0:
83,134,67832,6,0,P|158:110|235:128,2,160,6|10|2,3:2|0:0|3:2,0:0:0:0:
83,134,68848,1,10,0:0:0:0:
159,230,69018,1,6,3:2:0:0:
232,324,69187,6,0,P|307:347|384:329,2,160,0|10|2,3:0|0:0|3:2,0:0:0:0:
232,324,70204,1,10,0:0:0:0:
159,230,70374,1,0,3:0:0:0:
56,296,70543,6,0,P|40:216|76:140,1,160,6|8,3:2|0:0,0:0:0:0:
172,80,71052,1,0,0:0:0:0:
260,164,71221,2,0,L|356:152,1,80,0|2,3:0|3:2,0:0:0:0:
159,230,71560,2,0,L|79:239,1,80,10|6,0:0|3:2,0:0:0:0:
264,284,71899,5,2,3:2:0:0:
159,230,72069,1,2,3:2:0:0:
260,164,72238,1,14,0:0:0:0:
260,164,72577,5,8,0:0:0:0:
159,230,72747,1,8,0:0:0:0:
264,284,72916,2,0,L|344:264,1,80,8|0,0:0|3:0,0:0:0:0:
152,112,73255,6,0,P|73:103|8:152,1,160,4|8,0:1|0:0,0:0:0:0:
104,224,73764,1,0,0:0:0:0:
256,80,73933,6,0,P|314:72|362:106,1,120,2|2,3:2|0:0,0:0:0:0:
436,88,74272,2,0,P|437:127|416:164,1,80,8|2,0:0|0:0,0:0:0:0:
472,272,74611,6,0,B|432:280|432:280|393:272,1,80,2|0,3:2|0:0,0:0:0:0:
240,252,74950,2,0,B|280:244|280:244|318:251,1,80,10|0,3:2|0:0,0:0:0:0:
496,161,75289,2,0,B|456:169|456:169|417:161,1,80,2|0,3:2|3:0,0:0:0:0:
264,141,75628,2,0,B|304:133|304:133|342:140,1,80,10|2,0:0|3:2,0:0:0:0:
192,164,75967,6,0,B|112:180|112:180|35:164,1,160,2|8,3:2|0:0,0:0:0:0:
112,72,76476,1,0,0:0:0:0:
108,268,76645,2,0,P|160:296|219:297,1,120,2|2,3:2|0:0,0:0:0:0:
280,252,76984,2,0,P|319:259|359:256,1,80,8|2,0:0|0:0,0:0:0:0:
408,148,77323,6,0,L|388:64,1,80,2|0,3:2|0:0,0:0:0:0:
194,0,77662,2,0,L|210:76,1,80,10|0,3:2|0:0,0:0:0:0:
304,78,78001,2,0,L|318:0,1,80,2|0,3:2|3:0,0:0:0:0:
122,70,78340,2,0,L|104:148,1,80,10|2,0:0|3:2,0:0:0:0:
72,324,78679,6,0,P|139:302|226:369,1,160,6|8,3:2|0:0,0:0:0:0:
412,256,79187,2,0,P|396:325|295:366,1,160,2|0,0:0|3:0,0:0:0:0:
287,251,79696,2,0,P|280:216|288:168,1,80,10|0,0:0|3:0,0:0:0:0:
364,80,80035,5,2,3:2:0:0:
256,24,80204,2,0,P|217:32|177:26,2,80,0|10|0,0:0|3:2|0:0,0:0:0:0:
364,80,80713,1,2,3:2:0:0:
464,144,80882,2,0,L|448:240,1,80,0|10,3:0|0:0,0:0:0:0:
432,340,81221,1,0,3:0:0:0:
288,280,81391,6,0,B|251:259|211:280|211:280|171:301|136:280,1,160,2|8,3:2|0:0,0:0:0:0:
252,360,81899,1,2,0:0:0:0:
172,204,82069,2,0,P|157:126|195:58,1,160,0|10,3:0|0:0,0:0:0:0:
276,184,82577,6,0,P|360:200|436:144,1,160,6|2,3:2|0:0,0:0:0:0:
336,80,83086,1,10,0:2:0:0:
236,252,83255,2,0,P|152:268|76:212,1,160,6|0,0:0|3:0,0:0:0:0:
176,148,83764,1,10,0:0:0:0:
199,29,83933,1,10,0:0:0:0:
199,29,84018,1,8,0:0:0:0:
199,29,84103,6,0,P|274:5|351:23,2,160,6|10|2,3:2|0:0|3:2,0:0:0:0:
199,29,85120,1,10,0:0:0:0:
120,120,85289,1,2,3:2:0:0:
196,212,85459,6,0,P|219:287|201:364,2,160,2|10|2,3:2|0:0|3:2,0:0:0:0:
120,120,86306,1,4,3:2:0:0:
208,36,86476,1,10,0:0:0:0:
284,128,86645,1,10,3:2:0:0:
328,240,86815,6,0,L|412:264,1,80,6|0,3:2|0:0,0:0:0:0:
284,128,87154,2,0,L|307:43,1,80,10|0,0:0|0:0,0:0:0:0:
168,172,87493,2,0,L|84:148,1,80,2|2,3:2|3:2,0:0:0:0:
212,284,87832,2,0,L|188:368,1,80,10|2,0:0|3:2,0:0:0:0:
328,240,88171,5,10,0:0:0:0:
168,172,88340,1,8,0:0:0:0:
212,284,88509,1,8,0:0:0:0:
284,128,88679,1,10,0:0:0:0:
360,319,88848,6,0,P|396:300|416:260,1,80,10|10,0:0|0:0,0:0:0:0:
212,284,89187,1,10,0:0:0:0:
192,286,89272,1,8,0:0:0:0:
172,289,89357,1,10,0:0:0:0:
152,292,89442,1,8,0:0:0:0:
132,295,89526,6,0,P|93:227|112:151,1,160,4|8,0:1|0:0,0:0:0:0:
216,212,90035,2,0,L|376:196,1,160,2|0,3:2|3:0,0:0:0:0:
480,255,90543,2,0,P|496:219|496:179,1,80,10|4,0:0|3:2,0:0:0:0:
412,340,90882,6,0,P|332:348|244:320,1,160,2|8,0:0|0:0,0:0:0:0:
216,212,91391,2,0,P|136:204|48:232,1,160,6|0,3:2|3:0,0:0:0:0:
256,326,91899,2,0,P|300:308|320:260,1,80,10|2,0:0|3:2,0:0:0:0:
256,58,92238,6,0,B|323:26|323:26|407:34,1,160,10|10,0:0|0:0,0:0:0:0:
256,326,92916,2,0,B|188:357|188:357|104:349,1,160,10|10,0:0|0:0,0:0:0:0:
344,108,93594,6,0,L|372:276,1,160,10|8,0:0|0:0,0:0:0:0:
168,276,94272,2,0,L|140:108,1,160,8|10,0:0|0:0,0:0:0:0:
240,48,94781,1,2,3:2:0:0:
344,108,94950,6,8,L|360:200,1,80,14|0,0:0|3:0,0:0:0:0:
168,276,95289,2,8,L|152:184,1,80,2|8,3:2|0:0,0:0:0:0:
340,280,95628,2,8,L|248:296,1,80,2|0,3:2|3:0,0:0:0:0:
172,104,95967,2,8,L|264:88,1,80,2|0,3:2|0:0,0:0:0:0:
424,60,96306,5,6,0:0:0:0:
424,60,96815,1,2,0:0:0:0:
456,124,96984,2,0,L|440:192,1,64,2|2,0:0|0:0,0:0:0:0:
496,232,97323,2,0,L|480:300,1,64,2|2,0:0|0:0,0:0:0:0:
364,260,97662,6,0,P|296:248|228:280,1,143.999995605469,6|10,3:2|0:0,0:0:0:0:
168,348,98171,1,0,0:0:0:0:
128,264,98340,2,0,L|140:184,1,71.9999978027344,2|2,3:2|3:2,0:0:0:0:
76,120,98679,1,10,0:0:0:0:
251,135,98848,6,0,L|229:277,1,143.999995605469,2|2,0:0|3:2,0:0:0:0:
292,344,99357,2,0,P|328:352|368:344,1,71.9999978027344,8|2,0:0|0:0,0:0:0:0:
423,274,99696,1,0,3:0:0:0:
331,263,99865,1,2,3:2:0:0:
387,187,100035,1,2,3:2:0:0:
479,199,100204,1,2,3:2:0:0:
331,263,100374,6,0,P|267:246|211:191,1,143.999995605469,2|10,3:2|0:0,0:0:0:0:
256,112,100882,1,0,0:0:0:0:
332,164,101052,2,0,P|344:136|344:88,1,71.9999978027344,2|2,3:2|3:2,0:0:0:0:
256,112,101391,1,10,0:0:0:0:
412,216,101560,6,0,P|438:149|438:77,1,143.999995605469,2|2,0:0|3:2,0:0:0:0:
345,94,102069,2,0,P|327:61|296:35,1,71.9999978027344,8|2,0:0|0:0,0:0:0:0:
208,39,102408,1,0,3:0:0:0:
258,117,102577,1,2,3:2:0:0:
164,123,102747,1,10,0:2:0:0:
113,44,102916,1,2,3:2:0:0:
258,117,103086,6,0,P|292:180|284:256,1,143.999995605469,2|10,3:2|0:0,0:0:0:0:
216,312,103594,1,0,0:0:0:0:
280,380,103764,2,0,L|360:380,1,71.9999978027344,2|2,3:2|3:2,0:0:0:0:
216,312,104103,2,0,L|136:312,1,71.9999978027344,10|2,0:0|0:0,0:0:0:0:
286,250,104442,5,0,3:0:0:0:
216,312,104611,1,2,3:2:0:0:
239,187,104781,5,8,3:2:0:0:
150,266,104950,1,2,0:0:0:0:
200,129,105120,5,0,3:0:0:0:
92,224,105289,1,2,3:2:0:0:
158,73,105459,6,0,L|136:45,1,35.9999989013672,10|8,0:0|0:0,0:0:0:0:
33,184,105628,2,0,L|2:160,1,35.9999989013672,10|8,0:0|0:0,0:0:0:0:
32,64,105798,6,0,L|156:188,1,160,6|10,3:2|0:0,0:0:0:0:
232,260,106306,1,0,3:0:0:0:
344,216,106476,2,0,P|364:180|375:130,1,80,10|2,0:0|3:2,0:0:0:0:
232,260,106815,2,0,P|251:293|290:329,1,80,10|2,0:0|3:2,0:0:0:0:
252,152,107154,2,0,P|211:151|161:167,1,80,8|2,0:0|3:2,0:0:0:0:
76,232,107493,5,8,0:0:0:0:
62,116,107662,1,2,3:2:0:0:
173,161,107832,1,8,0:0:0:0:
18,180,108001,5,2,3:2:0:0:
138,91,108171,1,10,0:0:0:0:
156,237,108340,1,2,3:2:0:0:
62,116,108509,6,0,P|113:168|195:147,1,160,10|10,0:0|0:0,0:0:0:0:
290,223,109018,1,0,3:0:0:0:
401,180,109187,2,0,L|427:91,1,80,10|2,0:0|3:2,0:0:0:0:
381,287,109526,2,0,L|443:354,1,80,10|2,0:0|3:2,0:0:0:0:
290,223,109865,2,0,L|199:243,1,80,8|2,0:0|3:2,0:0:0:0:
128,153,110204,5,8,0:0:0:0:
94,266,110374,1,2,3:2:0:0:
211,240,110543,1,8,0:0:0:0:
60,194,110713,5,2,3:2:0:0:
165,304,110882,1,10,0:0:0:0:
207,162,111052,1,2,3:2:0:0:
94,266,111221,6,0,P|105:359|159:384,1,160,12|10,0:0|0:0,0:0:0:0:
244,305,111730,1,0,3:0:0:0:
344,241,111899,2,0,P|383:236|423:242,1,80,10|2,0:0|3:2,0:0:0:0:
244,305,112238,2,0,P|204:309|164:303,1,80,10|2,0:0|3:2,0:0:0:0:
324,321,112577,2,0,P|354:346|379:378,1,80,8|2,0:0|3:2,0:0:0:0:
260,225,112916,2,0,P|229:199|204:167,1,80,8|10,0:0|0:0,0:0:0:0:
204,168,113171,1,8,0:0:0:0:
204,168,113255,1,8,0:0:0:0:
240,48,113425,5,10,0:0:0:0:
204,168,113594,1,10,0:0:0:0:
124,80,113764,1,2,3:2:0:0:
80,192,113933,5,0,3:0:0:0:
204,168,114103,2,0,L|288:148,1,80,6|2,0:0|3:2,0:0:0:0:
160,252,114442,5,0,3:0:0:0:
284,228,114611,2,0,L|368:208,1,80,6|2,0:0|3:2,0:0:0:0:
232,312,114950,5,0,3:0:0:0:
80,192,115120,1,6,0:0:0:0:
80,192,115967,5,10,0:0:0:0:
204,168,116137,1,2,3:2:0:0:
328,144,116306,1,2,3:2:0:0:
452,120,116476,1,6,3:2:0:0:
256,192,116645,12,2,120204,0:0:0:0:
