osu file format v14

[General]
AudioFilename: Kimi fuan.mp3
AudioLeadIn: 0
PreviewTime: 56137
Countdown: 0
SampleSet: Soft
StackLeniency: 0.4
Mode: 0
LetterboxInBreaks: 0
WidescreenStoryboard: 0

[Editor]
DistanceSpacing: 1.5
BeatDivisor: 4
GridSize: 4
TimelineZoom: 2.3

[Metadata]
Title:Kimi Fan
TitleUnicode:キミファン
Artist:Nishizawa Ayumu (CV: Takahashi Mikako)
ArtistUnicode:西沢歩(CV: 高橋美佳子)
Creator:bossandy
Version:EmPao's Hard
Source:ハヤテのごとく!!
Tags:Hayate no Gotoku 2nd season hayate no combat butler ms0543724 Empao Kyle Y Kyle_Y Japanese Anime Character Song Short Version
BeatmapID:2121727
BeatmapSetID:27014

[Difficulty]
HPDrainRate:6
CircleSize:3.7
OverallDifficulty:6
ApproachRate:7.5
SliderMultiplier:1.4
SliderTickRate:1

[Events]
//Background and Video events
0,0,"BG.jpg",0,0
//Break Periods
//Storyboard Layer 0 (Background)
//Storyboard Layer 1 (Fail)
//Storyboard Layer 2 (Pass)
//Storyboard Layer 3 (Foreground)
//Storyboard Layer 4 (Overlay)
//Storyboard Sound Samples

[TimingPoints]
55,338.983050847458,4,2,1,60,1,0
6665,-100,4,2,1,40,0,0
7173,-100,4,2,1,45,0,0
7512,-100,4,2,1,50,0,0
7851,-100,4,2,1,55,0,0
8171,338.983050847458,4,2,1,60,1,1
8171,-100,4,2,1,60,0,1
8255,-100,4,2,1,60,0,0
18848,-133.333333333333,4,2,1,60,0,0
27153,-200,4,2,1,60,0,0
27831,-100,4,2,1,60,0,0
28509,-111.111111111111,4,2,1,60,0,0
29865,-100,4,2,1,60,0,0
52916,-100,4,2,1,40,0,0
53255,-100,4,2,1,45,0,0
53594,-100,4,2,1,50,0,0
53933,-100,4,2,1,55,0,0
54272,-100,4,2,1,60,0,0
56984,-100,4,2,1,80,0,1
73171,-100,4,2,1,80,0,0
73255,-100,4,2,1,80,0,1
89442,-100,4,2,1,80,0,0
89526,-100,4,2,1,80,0,1
97662,-100,4,2,1,60,0,0
115120,-200,4,2,1,60,0,0
115967,-100,4,2,1,60,0,0
116645,-100,4,2,1,40,0,0

[Colours]
Combo1 : 0,128,255
Combo2 : 255,128,64
Combo3 : 128,64,64

[HitObjects]
158,35,55,6,0,L|139:173,1,140,2|0,0:0|0:0,0:0:0:0:
23,275,732,1,0,0:0:0:0:
84,319,902,2,0,P|115:328|159:318,1,70,0|0,0:0|0:0,0:0:0:0:
217,281,1241,6,0,P|281:257|346:280,1,140,2|0,0:0|0:0,0:0:0:0:
407,326,1749,1,0,0:0:0:0:
471,283,1919,1,0,0:0:0:0:
471,283,2258,1,0,0:0:0:0:
475,206,2427,2,0,L|479:124,1,70,0|0,0:0|0:0,0:0:0:0:
450,64,2766,6,0,P|390:30|321:51,1,140,2|0,0:0|0:0,0:0:0:0:
278,110,3275,1,0,0:0:0:0:
341,155,3444,1,0,0:0:0:0:
312,226,3614,2,0,L|320:297,1,70,0|0,0:0|0:0,0:0:0:0:
262,346,3953,6,0,P|196:361|144:315,2,140,2|0|0,0:0|0:0|0:0,0:0:0:0:
145,240,4970,2,0,L|158:168,1,70
171,95,5309,1,0,0:0:0:0:
117,38,5478,6,0,P|181:16|237:54,1,140,2|0,0:0|0:0,0:0:0:0:
171,95,5987,1,0,0:0:0:0:
240,131,6156,2,0,L|243:200,1,70,0|0,0:0|0:0,0:0:0:0:
305,246,6495,1,0,0:0:0:0:
381,258,6665,6,0,P|415:257|450:237,2,70,2|0|2,0:0|0:0|0:0,0:0:0:0:
305,246,7173,1,0,0:0:0:0:
243,200,7343,2,0,P|209:189|175:195,1,70,2|0,0:0|0:0,0:0:0:0:
106,230,7682,1,2,0:0:0:0:
67,296,7851,2,0,L|62:366,1,70,2|0,0:0|0:0,0:0:0:0:
199,337,8171,6,0,B|246:328|246:328|287:345|287:345|342:339,1,140,6|10,3:2|0:0,0:0:0:0:
410,325,8679,1,0,0:0:0:0:
470,277,8848,2,0,P|480:245|475:206,2,70,2|2|10,3:2|3:2|0:0,0:0:0:0:
410,325,9357,6,0,B|343:306|343:306|273:323,1,140,2|2,0:0|3:2,0:0:0:0:
198,330,9865,2,0,P|164:325|136:303,1,70,8|2,0:0|0:0,0:0:0:0:
91,240,10204,2,0,L|83:164,1,70,0|2,3:0|3:2,0:0:0:0:
161,173,10543,2,0,L|175:97,1,70,2|2,3:2|3:2,0:0:0:0:
216,39,10882,6,0,P|290:32|335:76,1,140,2|10,3:2|0:0,0:0:0:0:
341,152,11391,1,0,0:0:0:0:
411,185,11560,2,0,P|443:175|465:145,1,70,2|2,3:2|3:2,0:0:0:0:
469,69,11899,1,10,0:0:0:0:
465,147,12069,6,0,L|455:290,1,140,2|2,0:0|3:2,0:0:0:0:
403,344,12577,2,0,P|370:359|334:355,1,70,8|2,0:0|0:0,0:0:0:0:
264,330,12916,2,0,L|188:320,1,70,0|2,3:0|3:2,0:0:0:0:
124,288,13255,2,0,P|109:257|112:220,1,70,10|2,0:2|3:2,0:0:0:0:
170,172,13594,6,0,L|153:31,1,140,2|10,3:2|0:0,0:0:0:0:
79,9,14103,1,0,0:0:0:0:
23,62,14272,2,0,P|13:95|20:135,1,70,2|2,3:2|3:2,0:0:0:0:
63,191,14611,1,10,0:0:0:0:
69,267,14781,6,0,P|105:324|172:330,1,140,2|2,0:0|3:2,0:0:0:0:
235,284,15289,1,8,0:0:0:0:
285,342,15459,1,2,0:0:0:0:
438,325,15798,2,0,L|513:315,2,70,2|2|2,3:2|3:2|3:2,0:0:0:0:
361,333,16306,5,0,3:0:0:0:
285,342,16476,2,0,L|197:351,2,70,10|2|0,0:0|3:2|3:0,0:0:0:0:
361,333,16984,1,10,0:0:0:0:
399,266,17154,2,0,P|406:229|393:197,1,70,2|0,0:0|3:0,0:0:0:0:
339,146,17493,5,4,3:1:0:0:
339,146,18679,5,2,0:0:0:0:
339,146,18848,2,0,P|291:162|242:138,1,105.000004005432,0|0,0:0|0:0,0:0:0:0:
176,98,19357,1,2,0:0:0:0:
176,98,19526,2,0,P|122:85|81:108,1,105.000004005432,0|0,0:0|0:0,0:0:0:0:
41,177,20035,1,2,0:0:0:0:
41,177,20204,2,0,L|31:291,1,105.000004005432,0|0,0:0|0:0,0:0:0:0:
94,338,20713,1,2,0:0:0:0:
94,338,20882,1,0,0:0:0:0:
282,352,21391,5,2,0:0:0:0:
282,352,21560,2,0,P|288:295|262:256,1,105.000004005432,0|0,0:0|0:0,0:0:0:0:
188,232,22069,1,2,0:0:0:0:
188,232,22238,2,0,L|178:124,1,105.000004005432,0|0,0:0|0:0,0:0:0:0:
251,98,22747,1,2,0:0:0:0:
251,98,22916,2,0,B|300:74|300:74|366:84,1,105.000004005432,0|0,0:0|0:0,0:0:0:0:
432,95,23425,1,2,0:0:0:0:
432,95,23594,1,0,0:0:0:0:
285,232,24272,5,2,0:0:0:0:
285,232,24442,2,0,L|288:293,1,52.5000020027161,2|0,0:0|0:0,0:0:0:0:
350,340,24781,1,2,0:0:0:0:
350,340,24950,2,0,P|406:353|450:327,1,105.000004005432,2|0,0:0|0:0,0:0:0:0:
484,262,25459,1,2,0:0:0:0:
484,262,25628,2,0,L|494:153,1,105.000004005432,2|0,0:0|0:0,0:0:0:0:
457,87,26137,2,0,P|432:71|404:70,1,52.5000020027161,2|0,0:0|0:0,0:0:0:0:
337,101,26476,2,0,L|274:103,1,52.5000020027161,2|0,0:0|0:0,0:0:0:0:
226,49,26815,1,2,0:0:0:0:
151,170,27154,6,0,P|84:183|33:137,1,140,2|0,0:0|0:0,0:0:0:0:
26,61,28001,1,2,0:0:0:0:
26,61,28171,1,2,0:0:0:0:
151,170,28509,6,0,L|158:297,1,125.999996154785,2|2,0:0|0:0,0:0:0:0:
316,374,29187,1,2,0:0:0:0:
388,323,29357,1,0,0:0:0:0:
388,323,29442,1,0,0:0:0:0:
388,323,29526,1,2,0:0:0:0:
350,242,29696,1,2,0:0:0:0:
350,242,29865,6,0,L|358:173,1,70,2|0,3:2|0:0,0:0:0:0:
328,93,30204,1,2,3:2:0:0:
252,129,30374,2,0,P|188:135|126:92,1,140,2|0,0:0|0:0,0:0:0:0:
92,17,30882,1,2,3:2:0:0:
30,73,31052,6,0,L|35:143,1,70,2|0,0:0|3:0,0:0:0:0:
41,226,31391,1,2,0:0:0:0:
115,264,31560,2,0,P|150:274|183:265,1,70,2|2,3:2|0:0,0:0:0:0:
248,214,31899,1,0,3:0:0:0:
314,264,32069,2,0,L|320:339,1,70,0|2,0:0|3:2,0:0:0:0:
402,350,32408,1,2,0:0:0:0:
465,295,32577,6,0,P|475:261|468:222,1,70,0|0,3:0|0:0,0:0:0:0:
418,161,32916,1,2,3:2:0:0:
356,217,33086,2,0,B|305:221|305:221|275:248|275:248|225:252,1,140,2|0,0:0|0:0,0:0:0:0:
169,189,33594,1,2,3:2:0:0:
144,108,33764,6,0,P|141:72|153:38,1,70,2|0,0:0|3:0,0:0:0:0:
230,8,34103,1,2,0:0:0:0:
298,57,34272,2,0,P|332:72|372:71,1,70,2|2,3:2|0:0,0:0:0:0:
436,29,34611,1,0,3:0:0:0:
497,86,34781,2,0,L|501:161,1,70,2|0,0:0|3:0,0:0:0:0:
506,239,35120,1,2,0:0:0:0:
430,201,35289,6,0,P|362:188|306:230,1,140,2|2,3:2|3:2,0:0:0:0:
254,292,35798,1,2,0:0:0:0:
325,336,35967,2,0,P|356:353|393:352,1,70,0|0,3:0|0:0,0:0:0:0:
460,306,36306,1,2,3:2:0:0:
382,270,36476,6,0,L|370:124,1,140,2|0,0:0|0:0,0:0:0:0:
308,72,36984,1,2,3:2:0:0:
225,57,37154,2,0,P|189:57|151:76,1,70,2|0,0:0|3:0,0:0:0:0:
117,143,37493,2,8,L|108:219,1,70,2|10,0:0|0:0,0:0:0:0:
229,329,38001,1,2,3:2:0:0:
229,329,38340,6,0,L|223:250,1,70,4|0,0:1|0:0,0:0:0:0:
280,196,38679,2,0,P|327:173|378:186,2,105,2|2|2,0:0|0:0|0:0,0:0:0:0:
223,259,39357,6,0,L|230:330,1,70,2|0,3:2|0:0,0:0:0:0:
152,362,39696,2,0,P|116:359|84:334,1,70,10|0,0:0|3:0,0:0:0:0:
39,272,40035,2,0,L|34:197,1,70,2|0,3:2|3:0,0:0:0:0:
66,124,40374,2,0,P|94:104|129:102,1,70,2|0,3:2|3:0,0:0:0:0:
194,154,40713,6,0,B|240:146|240:146|274:115|274:115|322:106,1,140,2|8,3:2|0:0,0:0:0:0:
336,23,41221,1,0,3:0:0:0:
399,78,41391,2,0,P|428:97|472:92,1,70,2|0,3:2|3:0,0:0:0:0:
451,12,41730,1,2,3:2:0:0:
462,96,41899,6,0,L|477:178,1,70,2|0,3:2|3:0,0:0:0:0:
460,247,42238,1,2,0:0:0:0:
391,295,42408,2,0,P|361:307|321:301,1,70,10|0,0:0|3:0,0:0:0:0:
246,270,42747,2,0,P|212:258|174:268,1,70,2|0,3:2|3:0,0:0:0:0:
99,290,43086,2,0,P|64:296|32:282,1,70,2|2,3:2|3:2,0:0:0:0:
74,208,43425,1,2,3:2:0:0:
74,208,43764,6,0,L|70:131,1,70,12|0,0:0|0:0,0:0:0:0:
129,84,44103,2,0,P|171:71|221:102,2,105,2|2|2,0:0|0:0|0:0,0:0:0:0:
70,138,44781,6,0,L|74:208,1,70,2|0,3:2|0:0,0:0:0:0:
32,281,45120,2,0,P|35:317|58:347,1,70,10|0,0:0|3:0,0:0:0:0:
136,363,45459,1,2,3:2:0:0:
192,300,45628,1,0,3:0:0:0:
268,334,45798,2,0,L|338:325,1,70,2|0,3:2|3:0,0:0:0:0:
393,262,46137,6,0,P|354:199|293:201,1,140,2|8,3:2|0:0,0:0:0:0:
229,254,46645,1,2,3:2:0:0:
219,170,46815,2,0,L|211:89,1,70,0|0,3:0|3:0,0:0:0:0:
270,39,47154,2,0,P|305:36|341:58,1,70,2|0,3:2|3:0,0:0:0:0:
373,124,47493,6,0,P|417:183|482:183,1,140,2|10,3:2|0:0,0:0:0:0:
454,103,48001,2,0,L|450:27,1,70,2|0,3:2|3:0,0:0:0:0:
369,10,48340,1,0,3:0:0:0:
310,70,48509,6,0,P|245:87|186:49,1,140,10|14,0:0|0:2,0:0:0:0:
187,50,49187,1,8,0:0:0:0:
30,106,49526,2,0,L|39:257,1,140,10|8,0:0|0:0,0:0:0:0:
98,305,50035,1,2,0:0:0:0:
162,358,50204,6,0,P|227:375|282:333,2,140,10|8|8,0:2|0:0|0:0,0:0:0:0:
99,304,51052,1,2,0:0:0:0:
38,245,51221,1,10,0:0:0:0:
81,173,51391,1,2,0:0:0:0:
30,106,51560,6,0,L|27:35,1,70,10|2,0:0|0:0,0:0:0:0:
108,14,51899,2,0,P|144:18|171:42,1,70,10|0,0:0|0:0,0:0:0:0:
186,121,52238,2,0,L|170:198,1,70,10|0,0:0|0:0,0:0:0:0:
113,250,52577,2,0,P|111:285|125:323,1,70,10|0,0:0|0:0,0:0:0:0:
199,351,52916,6,0,L|272:356,1,70,10|8,0:0|0:0,0:0:0:0:
332,300,53255,1,10,0:0:0:0:
407,336,53425,1,8,0:0:0:0:
470,280,53594,2,0,P|477:240|471:210,1,70,10|10,0:0|0:0,0:0:0:0:
420,144,53933,2,0,L|424:75,1,70,0|0,3:0|3:0,0:0:0:0:
425,68,54187,1,0,3:0:0:0:
425,62,54272,1,4,0:1:0:0:
256,192,54357,12,2,55628,0:0:0:0:
352,273,56306,5,2,3:2:0:0:
285,323,56476,1,8,0:0:0:0:
285,323,56560,1,8,0:0:0:0:
285,323,56645,2,0,P|246:326|214:311,1,70,10|8,0:0|0:0,0:0:0:0:
156,256,56984,6,0,L|147:116,1,140,4|8,0:1|0:0,0:0:0:0:
192,45,57493,1,0,0:0:0:0:
275,34,57662,2,0,P|327:45|359:86,2,105,2|2|2,3:2|0:0|0:0,0:0:0:0:
280,118,58340,6,0,L|285:192,1,70,2|0,3:2|0:0,0:0:0:0:
233,254,58679,2,0,P|220:287|223:322,1,70,10|0,3:2|0:0,0:0:0:0:
296,363,59018,2,0,L|365:370,1,70,2|0,3:2|3:0,0:0:0:0:
431,317,59357,2,0,P|469:319|498:341,1,70,10|2,0:0|3:2,0:0:0:0:
486,196,59696,6,0,L|476:51,1,140,2|8,3:2|0:0,0:0:0:0:
404,12,60204,1,0,0:0:0:0:
335,60,60374,2,0,P|288:63|243:30,2,105,2|2|2,3:2|0:0|0:0,0:0:0:0:
404,12,61052,6,0,P|418:44|414:84,1,70,2|0,3:2|0:0,0:0:0:0:
359,141,61391,2,0,L|369:214,1,70,10|0,3:2|0:0,0:0:0:0:
305,265,61730,2,0,P|270:269|238:259,1,70,2|0,3:2|3:0,0:0:0:0:
161,223,62069,2,0,P|126:213|91:219,1,70,10|2,0:0|3:2,0:0:0:0:
78,357,62408,6,0,L|93:214,1,140,6|8,3:2|0:0,0:0:0:0:
184,77,63086,2,0,L|194:149,1,70,2|0,3:2|3:0,0:0:0:0:
257,200,63425,1,10,0:0:0:0:
313,137,63594,6,0,P|370:106|438:129,1,140,2|0,3:2|0:0,0:0:0:0:
493,193,64103,2,0,L|500:268,1,70,10|0,3:2|0:0,0:0:0:0:
449,330,64442,2,0,P|422:349|385:351,1,70,2|0,3:2|3:0,0:0:0:0:
306,323,64781,2,0,L|231:319,1,70,10|2,0:0|3:2,0:0:0:0:
143,213,65120,6,0,P|78:201|21:246,1,140,2|8,3:2|0:0,0:0:0:0:
96,284,65628,1,2,0:0:0:0:
143,213,65798,2,0,L|138:141,1,70,2|0,3:2|3:0,0:0:0:0:
133,59,66137,1,10,0:0:0:0:
133,59,66306,6,8,P|199:35|256:74,1,140,6|0,3:2|0:0,0:0:0:0:
302,138,66815,2,0,P|331:153|369:150,1,70,10|0,0:0|0:0,0:0:0:0:
441,109,67154,2,0,P|471:105|508:122,1,70,2|0,3:2|3:0,0:0:0:0:
462,192,67493,2,0,L|454:265,1,70,10|2,0:0|3:2,0:0:0:0:
317,294,67832,6,0,P|253:308|196:267,2,140,6|10|2,3:2|0:0|3:2,0:0:0:0:
218,156,68848,1,10,0:0:0:0:
280,100,69018,6,0,P|303:163|268:224,1,140,6|0,3:2|0:0,0:0:0:0:
196,267,69526,2,0,L|199:339,1,70,10|0,0:0|0:0,0:0:0:0:
118,362,69865,2,0,P|83:360|48:335,1,70,2|0,3:2|3:0,0:0:0:0:
21,264,70204,2,0,L|31:195,1,70,10|0,0:0|3:0,0:0:0:0:
95,70,70543,6,0,P|157:37|218:59,2,140,6|8|0,3:2|0:0|3:0,0:0:0:0:
162,123,71391,5,2,3:2:0:0:
153,206,71560,1,10,0:0:0:0:
144,289,71730,1,6,3:2:0:0:
258,342,71899,5,2,3:2:0:0:
247,258,72069,1,2,3:2:0:0:
237,174,72238,1,14,0:0:0:0:
70,151,72577,5,8,0:0:0:0:
70,151,72747,1,8,0:0:0:0:
70,151,72916,2,0,L|60:221,1,70,8|0,0:0|3:0,0:0:0:0:
90,298,73255,6,0,P|141:340|209:327,1,140,4|8,0:1|0:0,0:0:0:0:
268,267,73764,1,0,0:0:0:0:
186,245,73933,2,0,L|181:140,2,105,2|2|2,3:2|0:0|0:0,0:0:0:0:
209,326,74611,6,0,P|236:345|278:348,1,70,2|0,3:2|0:0,0:0:0:0:
354,331,74950,2,0,P|385:316|422:324,1,70,10|0,3:2|0:0,0:0:0:0:
494,359,75289,2,0,L|501:276,1,70,2|0,3:2|3:0,0:0:0:0:
474,209,75628,2,0,P|467:175|478:140,1,70,10|2,0:0|3:2,0:0:0:0:
395,27,75967,6,0,L|254:42,1,140,2|8,3:2|0:0,0:0:0:0:
172,51,76476,1,0,0:0:0:0:
104,101,76645,2,0,P|144:134|195:130,2,105,2|2|2,3:2|0:0|0:0,0:0:0:0:
38,47,77323,6,0,P|23:77|21:113,1,70,2|0,3:2|0:0,0:0:0:0:
65,184,77662,2,0,L|70:257,1,70,10|0,3:2|0:0,0:0:0:0:
151,275,78001,2,0,P|185:282|218:269,1,70,2|0,3:2|3:0,0:0:0:0:
293,234,78340,2,0,P|328:223|363:230,1,70,10|2,0:0|3:2,0:0:0:0:
339,367,78679,6,0,L|359:228,1,140,6|8,3:2|0:0,0:0:0:0:
436,193,79187,2,0,P|386:143|315:154,1,140,2|0,0:0|3:0,0:0:0:0:
241,176,79696,2,0,P|205:181|162:165,1,70,10|0,0:0|3:0,0:0:0:0:
117,108,80035,6,0,L|107:35,1,70,2|0,3:2|0:0,0:0:0:0:
189,20,80374,2,0,P|226:15|258:29,1,70,10|0,3:2|0:0,0:0:0:0:
326,72,80713,2,0,P|361:79|396:67,1,70,2|0,3:2|3:0,0:0:0:0:
472,38,81052,2,0,L|466:113,1,70,10|0,0:0|3:0,0:0:0:0:
343,177,81391,6,0,L|353:316,1,140,2|8,3:2|0:0,0:0:0:0:
430,351,81899,1,2,0:0:0:0:
495,298,82069,2,0,P|505:265|501:226,1,70,0|0,3:0|3:0,0:0:0:0:
442,170,82408,1,10,0:0:0:0:
442,170,82577,6,8,L|450:30,1,140,6|2,3:2|0:0,0:0:0:0:
371,57,83086,2,0,P|338:65|305:53,1,70,10|6,0:2|0:0,0:0:0:0:
224,26,83425,2,0,P|189:24|157:38,1,70,2|0,3:2|3:0,0:0:0:0:
91,90,83764,2,0,L|84:162,1,70,10|10,0:0|0:0,0:0:0:0:
90,179,84018,1,8,0:0:0:0:
98,197,84103,6,0,L|106:338,1,140,6|10,3:2|0:0,0:0:0:0:
260,266,84781,2,0,P|198:227|139:250,1,140,2|10,3:2|0:0,0:0:0:0:
319,330,85459,6,0,P|380:370|439:350,2,140,2|10|2,3:2|0:0|3:2,0:0:0:0:
388,282,86306,1,4,3:2:0:0:
399,199,86476,2,0,L|409:125,1,70,10|10,0:0|3:2,0:0:0:0:
370,54,86815,6,0,P|343:34|306:29,1,70,6|0,3:2|0:0,0:0:0:0:
233,68,87154,2,0,L|237:144,1,70,10|0,0:0|0:0,0:0:0:0:
284,207,87493,2,0,P|280:241|261:274,1,70,2|2,3:2|3:2,0:0:0:0:
189,312,87832,2,0,L|115:320,1,70,10|2,0:0|3:2,0:0:0:0:
52,267,88171,5,10,0:0:0:0:
94,104,88509,1,8,0:0:0:0:
155,46,88679,2,0,P|186:28|228:32,1,70,10|10,0:0|0:0,0:0:0:0:
295,65,89018,1,10,0:0:0:0:
375,42,89187,2,0,L|409:47,3,35,10|8|10|8,0:0|0:0|0:0|0:0,0:0:0:0:
443,55,89526,6,0,B|465:120|465:120|452:192,1,140,4|8,0:1|0:0,0:0:0:0:
432,272,90035,2,0,L|285:285,1,140,2|0,3:2|3:0,0:0:0:0:
244,214,90543,1,10,0:0:0:0:
175,262,90713,1,4,3:2:0:0:
124,194,90882,6,0,P|94:177|47:178,1,70,2|0,0:0|3:0,0:0:0:0:
12,245,91221,2,0,L|6:317,1,70,8|6,0:0|3:2,0:0:0:0:
76,361,91560,2,0,P|104:341|140:336,1,70,0|0,0:0|3:0,0:0:0:0:
221,348,91899,2,0,L|301:338,1,70,10|2,0:0|3:2,0:0:0:0:
374,330,92238,5,10,0:0:0:0:
387,328,92577,1,10,0:0:0:0:
400,326,92916,1,10,0:0:0:0:
413,324,93255,1,10,0:0:0:0:
498,213,93594,5,10,0:0:0:0:
485,211,93933,1,8,0:0:0:0:
472,209,94272,1,8,0:0:0:0:
459,207,94611,1,10,0:0:0:0:
386,248,94781,1,2,3:2:0:0:
301,251,94950,6,8,P|265:247|233:223,1,70,14|0,0:0|3:0,0:0:0:0:
181,165,95289,2,8,L|169:85,1,70,2|8,3:2|0:0,0:0:0:0:
213,23,95628,2,8,P|244:10|290:16,1,70,2|0,3:2|3:0,0:0:0:0:
343,68,95967,2,8,L|414:78,1,70,2|0,3:2|0:0,0:0:0:0:
495,89,96306,5,6,0:0:0:0:
495,89,96815,1,2,0:0:0:0:
412,77,96984,2,0,L|341:67,1,70,2|2,0:0|0:0,0:0:0:0:
280,10,97323,2,8,P|246:7|214:21,1,70,2|2,0:0|0:0,0:0:0:0:
163,88,97662,6,0,B|126:148|126:148|136:216,1,140,6|10,3:2|0:0,0:0:0:0:
153,299,98171,1,0,0:0:0:0:
74,269,98340,2,0,P|41:261|3:268,2,70,2|2|10,3:2|3:2|0:0,0:0:0:0:
153,299,98848,6,0,P|215:316|285:293,1,140,2|2,0:0|3:2,0:0:0:0:
349,238,99357,2,0,L|359:161,1,70,8|2,0:0|0:0,0:0:0:0:
410,102,99696,2,0,P|404:69|380:37,1,70,0|2,3:0|3:2,0:0:0:0:
300,25,100035,2,0,L|222:20,1,70,2|2,3:2|3:2,0:0:0:0:
162,70,100374,6,0,P|97:98|32:62,1,140,2|10,3:2|0:0,0:0:0:0:
100,12,100882,1,0,0:0:0:0:
38,70,101052,2,0,L|40:143,1,70,2|2,3:2|3:2,0:0:0:0:
46,224,101391,1,10,0:0:0:0:
83,298,101560,6,0,P|136:339|203:325,1,140,2|2,0:0|3:2,0:0:0:0:
274,370,102069,2,0,P|289:337|285:301,1,70,8|2,0:0|0:0,0:0:0:0:
227,243,102408,2,0,P|218:208|229:172,1,70,0|2,3:0|3:2,0:0:0:0:
271,103,102747,2,0,L|278:30,1,70,10|2,0:2|3:2,0:0:0:0:
361,25,103086,6,0,P|434:22|477:72,1,140,2|10,3:2|0:0,0:0:0:0:
500,148,103594,1,0,0:0:0:0:
436,203,103764,2,0,L|429:283,1,70,2|2,3:2|3:2,0:0:0:0:
423,356,104103,1,10,0:0:0:0:
355,305,104272,6,0,P|287:282|231:313,1,140,2|2,0:0|3:2,0:0:0:0:
169,371,104781,1,8,3:2:0:0:
99,324,104950,2,0,P|91:289|102:255,1,70,2|0,0:0|3:0,0:0:0:0:
159,197,105289,1,2,3:2:0:0:
239,173,105459,2,0,L|244:127,3,35,10|8|10|8,0:0|0:0|0:0|0:0,0:0:0:0:
235,96,105798,6,0,P|182:60|112:78,1,140,6|10,3:2|0:0,0:0:0:0:
39,120,106306,1,0,3:0:0:0:
31,203,106476,2,0,L|24:273,1,70,10|2,0:0|3:2,0:0:0:0:
69,344,106815,2,0,P|99:362|140:359,1,70,10|2,0:0|3:2,0:0:0:0:
207,321,107154,6,0,L|205:249,1,70,8|2,0:0|3:2,0:0:0:0:
252,181,107493,1,8,0:0:0:0:
176,143,107662,1,2,3:2:0:0:
222,73,107832,1,8,0:0:0:0:
152,25,108001,2,0,P|116:18|82:27,1,70,2|10,3:2|0:0,0:0:0:0:
29,89,108340,1,2,3:2:0:0:
56,168,108509,6,0,B|46:222|46:222|63:253|63:253|54:301,1,140,10|10,0:0|0:0,0:0:0:0:
124,349,109018,1,0,3:0:0:0:
187,293,109187,2,0,P|222:287|256:301,1,70,10|2,0:0|3:2,0:0:0:0:
309,361,109526,1,10,0:0:0:0:
392,351,109696,6,0,L|464:343,2,70,2|8|2,3:2|0:0|3:2,0:0:0:0:
309,361,110204,1,8,0:0:0:0:
253,299,110374,1,2,3:2:0:0:
306,234,110543,1,8,0:0:0:0:
237,186,110713,2,0,P|204:174|163:179,2,70,2|10|2,3:2|0:0|3:2,0:0:0:0:
306,234,111221,6,0,P|368:265|432:245,1,140,12|10,0:0|0:0,0:0:0:0:
485,179,111730,1,0,3:0:0:0:
411,137,111899,2,0,L|416:67,1,70,10|2,0:0|3:2,0:0:0:0:
344,24,112238,1,10,0:0:0:0:
270,64,112408,6,0,P|236:67|197:55,2,70,2|8|2,3:2|0:0|3:2,0:0:0:0:
344,24,112916,1,8,0:0:0:0:
416,67,113086,1,10,0:0:0:0:
417,84,113171,1,8,0:0:0:0:
418,101,113255,2,0,L|424:172,1,70,8|10,0:0|0:0,0:0:0:0:
431,254,113594,1,10,0:0:0:0:
372,313,113764,1,2,3:2:0:0:
288,303,113933,5,0,3:0:0:0:
228,243,114103,1,6,0:0:0:0:
228,243,114272,2,0,L|236:174,1,70,2|0,3:2|3:0,0:0:0:0:
141,276,114611,1,6,0:0:0:0:
141,276,114781,2,0,L|154:345,1,70,2|0,3:2|3:0,0:0:0:0:
288,303,115120,6,0,P|348:345|416:323,1,140,6|0,0:0|0:0,0:0:0:0:
473,274,115967,5,10,0:0:0:0:
419,209,116137,1,2,3:2:0:0:
484,156,116306,1,2,3:2:0:0:
430,91,116476,1,6,3:2:0:0:
256,192,116645,12,2,120204,0:0:0:0:
