osu file format v14

[General]
AudioFilename: Kimi fuan.mp3
AudioLeadIn: 0
PreviewTime: 56137
Countdown: 0
SampleSet: Soft
StackLeniency: 0.5
Mode: 0
LetterboxInBreaks: 0
WidescreenStoryboard: 0

[Editor]
DistanceSpacing: 1.5
BeatDivisor: 2
GridSize: 4
TimelineZoom: 1.6

[Metadata]
Title:Kimi Fan
TitleUnicode:キミファン
Artist:Nishizawa Ayumu (CV: Takahashi Mikako)
ArtistUnicode:西沢歩(CV: 高橋美佳子)
Creator:bossandy
Version:Easy
Source:ハヤテのごとく!!
Tags:Hayate no Gotoku 2nd season hayate no combat butler ms0543724 Empao Kyle Y Kyle_Y Japanese Anime Character Song Short Version
BeatmapID:1685359
BeatmapSetID:27014

[Difficulty]
HPDrainRate:3
CircleSize:3
OverallDifficulty:2
ApproachRate:4
SliderMultiplier:0.85
SliderTickRate:1

[Events]
//Background and Video events
0,0,"BG.jpg",0,0
//Break Periods
//Storyboard Layer 0 (Background)
//Storyboard Layer 1 (Fail)
//Storyboard Layer 2 (Pass)
//Storyboard Layer 3 (Foreground)
//Storyboard Layer 4 (Overlay)
//Storyboard Sound Samples

[TimingPoints]
55,338.983050847458,4,2,1,60,1,0
6665,-100,4,2,1,40,0,0
7173,-100,4,2,1,45,0,0
7512,-100,4,2,1,50,0,0
7851,-100,4,2,1,55,0,0
8171,338.983050847458,4,2,1,60,1,0
8171,-100,4,2,1,60,0,0
9187,-100,4,2,2,60,0,0
9357,-100,4,2,1,60,0,0
11899,-100,4,2,2,60,0,0
12069,-100,4,2,1,60,0,0
14611,-100,4,2,2,60,0,0
14781,-100,4,2,1,60,0,0
41052,-100,4,2,2,60,0,0
41391,-100,4,2,1,60,0,0
46476,-100,4,2,2,60,0,0
46645,-100,4,2,1,60,0,0
47832,-100,4,2,2,60,0,0
48001,-100,4,2,1,60,0,0
56984,-100,4,2,1,80,0,1
57323,-100,4,2,2,80,0,1
57662,-100,4,2,1,80,0,1
60035,-100,4,2,2,80,0,1
60374,-100,4,2,1,80,0,1
62747,-100,4,2,2,80,0,1
63086,-100,4,2,1,80,0,1
66137,-100,4,2,2,80,0,1
66306,-100,4,2,1,80,0,1
67832,-100,4,2,1,80,0,0
70882,-100,4,2,2,80,0,0
71221,-100,4,2,1,80,0,0
73255,-100,4,2,1,80,0,1
73594,-100,4,2,2,80,0,1
73933,-100,4,2,1,80,0,1
76306,-100,4,2,2,80,0,1
76645,-100,4,2,1,80,0,1
79018,-100,4,2,2,80,0,1
79187,-100,4,2,1,80,0,1
81730,-100,4,2,2,80,0,1
81899,-100,4,2,1,80,0,1
88509,-100,4,2,2,80,0,1
88848,-100,4,2,1,80,0,1
89865,-100,4,2,2,80,0,1
90035,-100,4,2,1,80,0,1
91221,-100,4,2,2,80,0,1
91391,-100,4,2,1,80,0,1
96306,-100,4,2,1,80,0,1
97662,-100,4,2,1,60,0,0
98679,-100,4,2,2,60,0,0
98848,-100,4,2,1,60,0,0
101391,-100,4,2,2,60,0,0
101560,-100,4,2,1,60,0,0
106137,-100,4,2,2,60,0,0
106476,-100,4,2,1,60,0,0
108848,-100,4,2,2,60,0,0
109187,-100,4,2,1,60,0,0
111560,-100,4,2,2,60,0,0
111899,-100,4,2,1,60,0,0
113594,-100,4,2,2,60,0,0
113764,-100,4,2,1,60,0,0
116645,-100,4,2,1,40,0,0

[Colours]
Combo1 : 0,128,255
Combo2 : 255,128,64
Combo3 : 128,64,64

[HitObjects]
200,168,55,6,0,P|129:212|45:213,1,170,2|0,0:0|0:0,0:0:0:0:
4,80,1241,2,0,P|74:35|158:34,1,170,2|0,0:0|0:0,0:0:0:0:
280,100,2427,1,0,0:0:0:0:
336,172,2766,6,0,P|373:98|324:12,1,170,2|0,0:0|0:0,0:0:0:0:
200,24,3953,2,0,P|163:98|212:184,1,170,2|0,0:0|0:0,0:0:0:0:
336,172,5139,1,0,0:0:0:0:
288,252,5478,6,0,B|367:283|367:283|444:250,1,170,2|0,0:0|0:0,0:0:0:0:
444,108,6665,2,0,B|385:82|385:82|328:108,1,127.5,2|0,0:0|0:0,0:0:0:0:
240,144,7512,1,0,0:0:0:0:
153,108,7851,1,2,0:0:0:0:
68,144,8171,6,0,P|63:185|68:227,1,85,6|10,3:2|0:0,0:0:0:0:
128,300,8848,2,0,P|187:320|247:300,2,127.5,2|2|8,3:2|0:0|0:0,0:0:0:0:
188,228,10204,1,0,3:0:0:0:
280,208,10543,1,2,3:2:0:0:
340,280,10882,6,0,P|381:284|423:280,1,85,2|10,3:2|0:0,0:0:0:0:
484,208,11560,2,0,B|493:178|473:148|473:148|493:118|484:88,2,127.5,2|2|8,3:2|0:0|0:0,0:0:0:0:
424,279,12916,1,0,3:0:0:0:
384,196,13255,1,10,0:2:0:0:
316,260,13594,6,0,B|273:264|273:264|232:260,1,85,2|10,3:2|0:0,0:0:0:0:
140,248,14272,2,0,B|77:239|77:239|14:248,2,127.5,2|2|8,3:2|0:0|0:0,0:0:0:0:
231,259,15628,1,0,3:0:0:0:
324,248,15967,1,2,3:2:0:0:
416,259,16306,6,0,B|430:217|416:176|416:176|400:135|416:93,1,170,0|10,3:0|0:0,0:0:0:0:
304,12,17493,1,4,3:1:0:0:
32,192,18679,5,2,0:0:0:0:
92,264,19018,2,0,P|132:280|180:276,1,85,0|2,0:0|0:0,0:0:0:0:
252,228,19696,2,0,P|292:212|340:216,1,85,0|2,0:0|0:0,0:0:0:0:
420,244,20374,2,0,B|448:284|448:284|428:360,2,127.5,0|0|2,0:0|0:0|0:0,0:0:0:0:
400,152,21730,6,0,P|404:112|440:68,1,85,0|2,0:0|0:0,0:0:0:0:
360,12,22408,2,0,P|320:28|268:28,1,85,0|2,0:0|0:0,0:0:0:0:
188,8,23086,2,0,P|132:48|120:112,2,127.5,0|0|2,0:0|0:0|0:0,0:0:0:0:
216,96,24442,5,2,0:0:0:0:
300,140,24781,2,0,L|392:136,2,85,2|0|2,0:0|0:0|0:0,0:0:0:0:
284,232,25798,2,0,P|236:212|212:180,1,85,0|2,0:0|0:0,0:0:0:0:
140,240,26476,2,0,P|120:191|125:152,1,85,2|2,0:0|0:0,0:0:0:0:
156,72,27154,5,2,0:0:0:0:
428,148,28171,1,2,0:0:0:0:
468,64,28509,2,0,P|425:57|385:64,1,85,2|2,0:0|0:0,0:0:0:0:
344,148,29187,2,0,P|301:154|261:148,1,85,2|2,0:0|0:0,0:0:0:0:
196,80,29865,5,2,3:2:0:0:
104,84,30204,2,0,P|82:122|74:170,1,85,2|0,3:2|3:0,0:0:0:0:
84,256,30882,1,2,3:2:0:0:
118,342,31221,2,0,P|56:347|2:306,2,127.5,0|2|2,3:0|0:0|3:2,0:0:0:0:
178,270,32577,5,0,3:0:0:0:
240,200,32916,2,0,L|340:236,1,85,2|0,3:2|3:0,0:0:0:0:
408,260,33594,1,2,3:2:0:0:
436,172,33933,2,0,B|445:128|445:128|432:40,2,127.5,0|2|0,3:0|0:0|3:0,0:0:0:0:
408,260,35289,5,2,3:2:0:0:
332,316,35628,2,0,P|292:332|244:332,2,85,2|0|2,3:2|3:0|3:2,0:0:0:0:
316,220,36645,2,0,L|304:136,1,85,0|2,3:0|3:2,0:0:0:0:
212,156,37323,2,0,L|224:240,1,85,0|10,3:0|0:0,0:0:0:0:
160,312,38001,1,2,3:2:0:0:
84,368,38340,6,0,P|28:312|20:224,1,170,4|0,0:1|0:0,0:0:0:0:
68,144,39357,2,0,L|156:160,1,85,2|10,3:2|0:0,0:0:0:0:
220,96,40035,2,0,L|303:80,1,85,2|2,3:2|3:2,0:0:0:0:
396,64,40713,6,0,B|432:140|432:140|404:232,1,170,2|2,3:2|3:2,0:0:0:0:
376,312,41730,2,0,B|334:329|293:312|293:312|252:294|211:312,1,170,2|10,3:2|0:0,0:0:0:0:
124,348,42747,1,2,3:2:0:0:
56,284,43086,1,2,3:2:0:0:
100,204,43425,1,2,3:2:0:0:
192,220,43764,6,0,B|209:178|192:137|192:137|174:96|192:55,1,170,12|0,0:0|0:0,0:0:0:0:
272,4,44781,1,2,3:2:0:0:
352,52,45120,2,0,P|396:56|448:36,2,85,10|2|2,0:0|3:2|3:2,0:0:0:0:
288,120,46137,6,0,P|224:127|164:109,2,127.5,2|2|2,3:2|3:2|3:2,0:0:0:0:
364,172,47493,2,0,P|427:178|488:161,2,127.5,2|2|10,3:2|3:2|0:0,0:0:0:0:
288,121,48848,5,14,0:2:0:0:
196,128,49187,1,8,0:0:0:0:
132,200,49526,2,0,L|140:288,1,85,10|8,0:0|0:0,0:0:0:0:
228,316,50204,2,0,L|235:231,1,85,10|8,0:2|0:0,0:0:0:0:
324,196,50882,2,0,L|332:284,1,85,8|10,0:0|0:0,0:0:0:0:
420,312,51560,6,0,L|427:227,1,85,10|10,0:0|0:0,0:0:0:0:
456,136,52238,1,10,0:0:0:0:
396,64,52577,1,10,0:0:0:0:
304,88,52916,1,10,0:0:0:0:
256,192,53001,12,4,54272,0:1:0:0:
104,20,56306,5,2,3:2:0:0:
60,104,56645,1,10,0:0:0:0:
144,144,56984,6,0,P|244:136|308:88,1,170,4|2,0:1|3:2,0:0:0:0:
356,24,58001,1,8,0:0:0:0:
396,108,58340,2,0,L|364:200,1,85,2|10,3:2|3:2,0:0:0:0:
340,276,59018,2,0,L|372:368,1,85,2|10,3:2|0:0,0:0:0:0:
460,368,59696,6,0,B|508:320|508:320|476:220,1,170,2|2,3:2|3:2,0:0:0:0:
512,136,60713,1,8,0:0:0:0:
476,52,61052,2,0,P|436:40|380:40,1,85,2|10,3:2|3:2,0:0:0:0:
324,100,61730,2,0,P|284:112|228:112,1,85,2|10,3:2|0:0,0:0:0:0:
164,168,62408,6,0,P|168:256|248:304,1,170,6|2,3:2|3:2,0:0:0:0:
248,208,63425,1,10,0:0:0:0:
328,160,63764,2,0,P|369:150|410:158,1,85,0|10,3:0|3:2,0:0:0:0:
492,200,64442,2,0,L|512:108,1,85,2|10,3:2|0:0,0:0:0:0:
484,28,65120,6,0,P|444:16|392:16,1,85,2|8,3:2|0:0,0:0:0:0:
324,68,65798,2,0,P|288:112|192:124,2,127.5,2|6|10,3:2|3:2|0:0,0:0:0:0:
232,32,67154,1,2,3:2:0:0:
144,68,67493,1,10,0:0:0:0:
60,28,67832,6,0,P|52:76|72:128,2,85,6|10|2,3:2|0:0|3:2,0:0:0:0:
144,68,68848,1,10,0:0:0:0:
144,160,69187,2,0,P|136:208|156:260,2,85,0|10|2,3:0|0:0|3:2,0:0:0:0:
228,200,70204,1,10,0:0:0:0:
244,108,70543,6,0,P|308:84|300:172,1,170,6|0,3:2|3:0,0:0:0:0:
228,200,71560,1,10,0:0:0:0:
304,252,71899,2,0,P|348:248|404:200,1,85,2|14,3:2|0:0,0:0:0:0:
424,144,72577,1,8,0:0:0:0:
404,52,72916,1,8,0:0:0:0:
492,80,73255,6,0,P|516:160|468:228,1,170,4|2,0:1|3:2,0:0:0:0:
424,144,74272,1,8,0:0:0:0:
336,116,74611,2,0,P|292:120|255:143,1,85,2|10,3:2|3:2,0:0:0:0:
184,196,75289,2,0,L|156:115,1,85,2|10,3:2|0:0,0:0:0:0:
100,40,75967,6,0,B|56:64|60:124|60:124|84:200,1,170,2|2,3:2|3:2,0:0:0:0:
108,280,76984,1,8,0:0:0:0:
136,368,77323,2,0,P|172:348|196:292,1,85,2|10,3:2|3:2,0:0:0:0:
280,348,78001,2,0,P|291:308|268:251,1,85,2|10,3:2|0:0,0:0:0:0:
200,220,78679,6,0,P|140:232|60:196,2,127.5,6|2|10,3:2|0:0|0:0,0:0:0:0:
280,172,80035,1,2,3:2:0:0:
360,220,80374,1,10,3:2:0:0:
440,268,80713,2,0,P|452:228|444:180,1,85,2|10,3:2|0:0,0:0:0:0:
452,92,81391,6,0,B|408:92|392:104|392:104|376:92|328:92,1,127.5,2|2,3:2|0:0,0:0:0:0:
160,172,82577,2,0,P|148:232|160:296,1,127.5,6|10,3:2|0:2,0:0:0:0:
224,368,83425,1,2,3:2:0:0:
284,296,83764,1,10,0:0:0:0:
352,228,84103,6,0,P|392:240|436:228,2,85,6|10|2,3:2|0:0|3:2,0:0:0:0:
284,164,85120,1,10,0:0:0:0:
216,100,85459,2,0,P|176:112|132:100,2,85,2|10|2,3:2|0:0|3:2,0:0:0:0:
284,36,86476,1,10,0:0:0:0:
348,104,86815,6,0,L|436:72,1,85,6|10,3:2|0:0,0:0:0:0:
468,160,87493,2,0,L|380:192,1,85,2|10,3:2|0:0,0:0:0:0:
300,224,88171,2,0,B|240:244|240:244|192:220|132:244,1,170,10|10,0:0|0:0,0:0:0:0:
68,308,89187,1,10,0:0:0:0:
44,216,89526,6,0,L|56:88,2,127.5,4|2|10,0:1|3:2|0:0,0:0:0:0:
136,242,90882,2,0,L|148:370,2,127.5,2|6|10,0:0|3:2|0:0,0:0:0:0:
204,176,92238,5,10,0:0:0:0:
284,224,92577,1,10,0:0:0:0:
344,152,92916,2,0,L|336:67,1,85,10|10,0:0|0:0,0:0:0:0:
244,88,93594,2,0,L|178:33,1,85,10|8,0:0|0:0,0:0:0:0:
128,113,94272,2,0,L|43:120,1,85,8|10,0:0|0:0,0:0:0:0:
4,208,94950,5,14,0:0:0:0:
88,320,95459,2,0,L|214:308,1,127.5,8|2,0:0|3:2,0:0:0:0:
308,300,96306,1,6,0:0:0:0:
152,88,97662,6,0,L|40:88,1,85,6|10,3:2|0:0,0:0:0:0:
16,164,98340,2,0,P|36:223|16:283,2,127.5,2|2|8,3:2|0:0|0:0,0:0:0:0:
68,88,99696,1,0,3:0:0:0:
124,164,100035,1,2,3:2:0:0:
184,236,100374,6,0,L|268:212,1,85,2|10,3:2|0:0,0:0:0:0:
352,252,101052,2,0,B|381:266|381:266|410:281|439:266|439:266|469:252,2,127.5,2|2|8,3:2|0:0|0:0,0:0:0:0:
352,160,102408,1,0,3:0:0:0:
352,68,102747,1,10,0:2:0:0:
272,112,103086,6,0,B|244:128|216:128|192:112,1,85,2|10,3:2|0:0,0:0:0:0:
108,68,103764,1,2,3:2:0:0:
108,160,104103,1,10,0:0:0:0:
192,204,104442,2,0,P|168:240|92:256,2,85,0|8|0,3:0|3:2|3:0,0:0:0:0:
192,112,105459,1,10,0:0:0:0:
108,160,105798,6,0,P|92:104|168:20,1,170,6|10,3:2|0:0,0:0:0:0:
192,112,106815,1,10,0:0:0:0:
276,72,107154,2,0,P|284:128|268:168,1,85,8|8,0:0|0:0,0:0:0:0:
192,204,107832,2,0,P|184:260|200:300,1,85,8|10,0:0|0:0,0:0:0:0:
248,360,108509,6,0,P|304:332|420:336,1,170,10|10,0:0|0:0,0:0:0:0:
492,380,109526,1,10,0:0:0:0:
512,288,109865,2,0,L|492:200,1,85,8|8,0:0|0:0,0:0:0:0:
416,152,110543,2,0,L|396:64,1,85,8|10,0:0|0:0,0:0:0:0:
304,68,111221,6,0,B|279:92|279:92|231:116|182:92|182:92|158:68,1,170,12|10,0:0|0:0,0:0:0:0:
92,0,112238,1,10,0:0:0:0:
32,72,112577,2,0,L|44:160,1,85,8|8,0:0|0:0,0:0:0:0:
108,224,113255,2,0,L|90:350,1,127.5,8|2,0:0|3:2,0:0:0:0:
184,332,114103,5,6,0:0:0:0:
320,304,114611,1,6,0:0:0:0:
456,276,115120,1,6,0:0:0:0:
316,88,115967,6,0,B|275:77|275:77|234:88|234:88|193:77,1,127.5,10|6,0:0|3:2,0:0:0:0:
256,192,116645,12,2,120204,0:0:0:0:
