osu file format v14

[General]
AudioFilename: audio.mp3
AudioLeadIn: 0
PreviewTime: 8055
Countdown: 0
SampleSet: Normal
StackLeniency: 0.7
Mode: 1
LetterboxInBreaks: 0
WidescreenStoryboard: 0

[Editor]
Bookmarks: 8121,24121,40121
DistanceSpacing: 1.3
BeatDivisor: 4
GridSize: 32
TimelineZoom: 2.520002

[Metadata]
Title:Shop
TitleUnicode:ショップ
Artist:Nishiura Tomohito
ArtistUnicode:西浦智仁
Creator:K a t a g i r i
Version:Kantan
Source:Dark Cloud 2
Tags:ダーククラウド chronicle two OST original soundtrack sound tracks playstation rpg LEVEL-5 Inc. video game vgm music instrumental folk randelman4ik katagiri k_a_t_a_g_i_r_i
BeatmapID:2676900
BeatmapSetID:1289531

[Difficulty]
HPDrainRate:10
CircleSize:4
OverallDifficulty:2
ApproachRate:8
SliderMultiplier:1.4
SliderTickRate:1

[Events]
//Background and Video events
0,0,"bg.jpg",0,80
//Break Periods
//Storyboard Layer 0 (Background)
//Storyboard Layer 1 (Fail)
//Storyboard Layer 2 (Pass)
//Storyboard Layer 3 (Foreground)
//Storyboard Layer 4 (Overlay)
//Storyboard Sound Samples

[TimingPoints]
368,500,4,1,0,40,1,0
8118,-100,4,1,0,50,0,0
42368,-100,4,1,0,47,0,0
42868,-100,4,1,0,41,0,0
43368,-100,4,1,0,36,0,0
43868,-100,4,1,0,29,0,0
44368,-100,4,1,0,19,0,0
44868,-100,4,1,0,16,0,0
45368,-100,4,1,0,14,0,0
45868,-100,4,1,0,12,0,0
46368,-100,4,1,0,10,0,0
46868,-100,4,1,0,8,0,0

[HitObjects]
256,192,368,5,0,0:0:0:0:
256,192,1368,1,0,0:0:0:0:
256,192,2368,1,8,0:0:0:0:
256,192,3368,1,0,0:0:0:0:
256,192,4368,1,0,0:0:0:0:
256,192,5368,1,0,0:0:0:0:
256,192,6368,1,8,0:0:0:0:
256,192,7368,1,0,0:0:0:0:
256,192,8368,1,8,0:0:0:0:
256,192,8868,1,8,0:0:0:0:
256,192,9368,1,8,0:0:0:0:
256,192,10368,1,0,0:0:0:0:
256,192,10868,1,8,0:0:0:0:
256,192,11368,1,0,0:0:0:0:
256,192,12368,1,0,0:0:0:0:
256,192,13368,1,8,0:0:0:0:
256,192,14368,1,0,0:0:0:0:
256,192,14868,1,0,0:0:0:0:
256,192,15368,1,8,0:0:0:0:
256,192,16368,1,0,0:0:0:0:
256,192,16868,1,8,0:0:0:0:
256,192,17368,1,8,0:0:0:0:
256,192,18368,1,0,0:0:0:0:
256,192,18868,1,8,0:0:0:0:
256,192,19368,1,0,0:0:0:0:
256,192,20368,1,0,0:0:0:0:
256,192,21368,1,8,0:0:0:0:
256,192,22368,1,8,0:0:0:0:
256,192,22868,1,8,0:0:0:0:
256,192,23368,1,0,0:0:0:0:
256,192,24368,1,8,0:0:0:0:
256,192,24868,1,0,0:0:0:0:
256,192,25368,1,8,0:0:0:0:
256,192,26368,1,8,0:0:0:0:
256,192,27368,1,0,0:0:0:0:
256,192,28368,1,8,0:0:0:0:
256,192,28868,1,0,0:0:0:0:
256,192,29368,1,8,0:0:0:0:
256,192,30368,1,0,0:0:0:0:
256,192,30868,1,8,0:0:0:0:
256,192,31368,1,8,0:0:0:0:
256,192,32368,1,0,0:0:0:0:
256,192,33368,1,8,0:0:0:0:
256,192,34368,1,0,0:0:0:0:
256,192,34868,1,8,0:0:0:0:
256,192,35368,1,8,0:0:0:0:
256,192,36368,1,8,0:0:0:0:
256,192,36868,1,0,0:0:0:0:
256,192,37368,1,8,0:0:0:0:
256,192,37868,1,8,0:0:0:0:
256,192,38368,1,0,0:0:0:0:
256,192,39368,1,0,0:0:0:0:
256,192,40118,12,0,47368,0:0:0:0:
