osu file format v14

[General]
AudioFilename: audio.mp3
AudioLeadIn: 0
PreviewTime: 40019
Countdown: 0
SampleSet: Soft
StackLeniency: 0.7
Mode: 0
LetterboxInBreaks: 0
WidescreenStoryboard: 1

[Editor]
Bookmarks: 23227,40988,58750,76511,94272,112034
DistanceSpacing: 1.6
BeatDivisor: 4
GridSize: 32
TimelineZoom: 1

[Metadata]
Title:Professor Layton's Theme
TitleUnicode:レイトン教授のテーマ
Artist:Nishiura Tomohito
ArtistUnicode:西浦智仁
Creator:StarCastler
Version:polka's Hard
Source:レイトン教授と不思議な町
Tags:RandomJibberish polka PolkaMocha Veridian Professor Layton and the Curious Village reiton kyouju to fushigi na machi thema teema level-5 level 5 nintendo ds mobile video game ost instrumental folk
BeatmapID:2689871
BeatmapSetID:1213157

[Difficulty]
HPDrainRate:3
CircleSize:4
OverallDifficulty:5
ApproachRate:7.8
SliderMultiplier:1.3
SliderTickRate:2

[Events]
//Background and Video events
0,0,"6034226_p0.jpg",0,0
//Break Periods
2,76713,83677
//Storyboard Layer 0 (Background)
//Storyboard Layer 1 (Fail)
//Storyboard Layer 2 (Pass)
//Storyboard Layer 3 (Foreground)
//Storyboard Layer 4 (Overlay)
//Storyboard Sound Samples

[TimingPoints]
1028,555.041628122109,4,2,0,45,1,0
1028,-100,4,2,0,45,0,0
14348,-100,4,2,0,45,0,0
23229,-90.9090909090909,4,2,0,55,0,0
32110,-83.3333333333333,4,2,0,60,0,0
40158,-100,4,2,0,65,0,0
40435,-100,4,2,0,70,0,0
40713,-100,4,2,0,75,0,0
40990,-74.0740740740741,4,2,0,80,0,1
57642,-100,4,2,0,65,0,0
58752,-80,4,2,0,70,0,1
67632,-74.0740740740741,4,2,0,75,0,1
76513,-100,4,2,0,60,0,0
85394,-100,4,2,0,50,0,0
92054,-100,4,2,0,60,0,0
94274,-133.333333333333,4,2,0,60,0,0
112036,-133.333333333333,4,2,0,50,0,0
114256,-133.333333333333,4,2,0,47,0,0
116476,-133.333333333333,4,2,0,45,0,0
118696,-133.333333333333,4,2,0,43,0,0
120916,-133.333333333333,4,2,0,40,0,0
123137,-133.333333333333,4,2,0,37,0,0
125357,-133.333333333333,4,2,0,35,0,0
126467,-133.333333333333,4,2,0,25,0,0
127577,-133.333333333333,4,2,0,15,0,0
128132,-133.333333333333,4,2,0,10,0,0

[Colours]
Combo1 : 0,128,192
Combo2 : 128,64,0
Combo3 : 255,128,64
Combo4 : 85,170,170
SliderBorder : 255,255,255

[HitObjects]
256,192,1028,6,0,L|161:208,2,65,2|0|0,0:0|0:0|0:0,0:0:0:0:
256,192,2138,2,0,L|350:175,2,65,2|0|0,0:0|0:0|0:0,0:0:0:0:
256,192,3248,2,0,L|239:97,2,65,2|0|0,0:0|0:0|0:0,0:0:0:0:
256,192,4358,2,0,L|272:286,2,65,2|0|0,0:0|0:0|0:0,0:0:0:0:
436,100,5468,6,2,P|456:136|420:232,1,130,2|0,0:0|0:0,0:0:0:0:
372,160,6578,2,2,P|347:193|245:201,1,130,2|0,0:0|0:0,0:0:0:0:
292,128,7688,2,2,P|253:113|219:16,2,130,2|0|0,0:0|0:0|0:0,0:0:0:0:
304,48,9076,1,2,0:0:0:0:
304,48,9631,1,2,0:0:0:0:
376,96,9908,6,2,L|349:245,1,130,2|0,0:0|0:0,0:0:0:0:
288,128,11018,2,2,L|261:277,1,130,2|0,0:0|0:0,0:0:0:0:
200,160,12128,2,2,L|173:309,2,130,2|0|0,0:0|0:0|0:0,0:0:0:0:
200,160,14348,6,2,P|244:148|324:204,1,130,2|0,0:0|0:0,0:0:0:0:
376,124,15459,2,2,P|398:163|365:255,1,130,2|0,0:0|0:0,0:0:0:0:
456,284,16569,2,2,P|423:316|326:307,2,130,2|0|0,0:0|0:0|0:0,0:0:0:0:
380,241,17956,1,2,0:0:0:0:
380,241,18511,1,2,0:0:0:0:
308,196,18789,6,2,L|167:220,1,130,2|0,0:0|0:0,0:0:0:0:
135,146,19899,2,2,L|264:124,1,130,2|0,0:0|0:0,0:0:0:0:
219,51,21009,2,2,L|91:74,2,130,2|0|0,0:0|0:0|0:0,0:0:0:0:
304,36,22674,1,2,3:0:0:0:
256,192,23229,5,6,0:0:0:0:
387,255,23645,2,0,B|315:207|303:319|195:259,1,178.750005455017,2|0,0:3|0:0,0:0:0:0:
220,271,24617,2,0,B|156:240|156:240|72:279,1,143.000004364014,2|2,0:3|0:0,0:0:0:0:
156,336,25449,5,2,0:3:0:0:
28,100,25866,2,0,P|40:152|156:140,1,178.750005455017,2|0,0:0|0:0,0:0:0:0:
147,154,26837,2,0,P|224:128|284:168,1,143.000004364014,2|2,0:3|0:0,0:0:0:0:
332,228,27669,5,2,0:0:0:0:
408,104,28086,2,0,B|360:176|464:196|396:292,1,178.750005455017,2|0,0:3|0:0,0:0:0:0:
407,273,29057,2,0,B|440:288|440:288|324:304,1,143.000004364014,2|2,0:3|0:0,0:0:0:0:
244,316,29890,1,2,0:3:0:0:
188,188,30306,1,2,0:0:0:0:
100,296,30722,1,2,0:3:0:0:
327,304,32110,6,0,P|315:267|286:242,1,77.999997619629,6|0,3:2|0:0,0:0:0:0:
329,323,32526,2,0,P|371:271|309:151,1,194.999994049072,2|0,0:3|3:2,0:0:0:0:
331,161,33497,2,0,B|299:93|299:93|331:17,1,155.999995239258,2|2,0:3|0:0,0:0:0:0:
420,176,34330,6,0,P|408:212|379:237,1,77.999997619629,2|0,3:0|0:0,0:0:0:0:
422,157,34746,2,0,P|464:208|402:328,1,194.999994049072,2|0,0:0|3:0,0:0:0:0:
424,318,35718,2,0,B|356:352|356:280|264:312,1,155.999995239258,2|2,0:3|0:0,0:0:0:0:
188,364,36550,5,2,3:0:0:0:
136,220,36966,1,2,0:0:0:0:
42,338,37383,1,2,0:0:0:0:
121,303,37660,5,4,3:0:0:0:
256,192,38770,12,2,40435,0:0:0:0:
112,76,40990,6,2,P|63:79|27:109,1,87.7500003347397,6|0,3:2|0:0,0:0:0:0:
134,84,41407,2,2,P|177:126|167:207,1,131.62500050211,2|0,0:3|0:0,0:0:0:0:
96,167,42101,2,2,P|144:170|180:200,1,87.7500003347397,2|0,3:2|0:3,0:0:0:0:
74,175,42517,2,2,P|30:217|40:298,1,131.62500050211,2|2,0:0|0:3,0:0:0:0:
118,300,43211,2,2,L|31:284,1,87.7500003347397,2|0,3:0|0:0,0:0:0:0:
128,316,43627,2,2,L|281:343,1,131.62500050211,2|0,0:0|0:0,0:0:0:0:
256,144,44598,2,0,P|252:74|307:117,1,175.500000669479,2|2,0:3|0:0,0:0:0:0:
299,212,45431,6,2,P|257:225|215:214,1,87.7500003347397,2|0,3:2|0:0,0:0:0:0:
325,212,45847,2,2,P|356:242|368:284,1,87.7500003347397,2|0,0:3|3:0,0:0:0:0:
312,196,46263,2,2,P|340:116|422:95,1,175.500000669479,2|2,0:0|0:3,0:0:0:0:
421,94,47096,1,2,3:0:0:0:
368,284,47512,2,2,L|454:299,1,87.7500003347397,2|0,0:0|0:0,0:0:0:0:
351,300,47929,2,2,L|178:269,1,175.500000669479,2|0,3:0|0:0,0:0:0:0:
108,312,48761,5,2,3:0:0:0:
224,184,49177,1,2,3:0:0:0:
108,52,49594,1,2,3:0:0:0:
0,11,49871,6,0,P|-11:53|0:95,1,87.7500003347397,6|0,3:2|3:0,0:0:0:0:
15,195,50287,2,0,P|27:153|16:112,1,87.7500003347397,2|0,0:0|3:0,0:0:0:0:
4,212,50704,2,0,P|-8:253|2:295,1,87.7500003347397,2|0,0:3|3:0,0:0:0:0:
172,272,51259,1,2,0:0:0:0:
172,272,51536,2,0,L|73:254,1,87.7500003347397,2|2,3:2|0:3,0:0:0:0:
219,195,52091,6,0,P|253:223|260:265,1,87.7500003347397,2|2,3:2|3:0,0:0:0:0:
199,188,52508,2,0,P|242:183|277:208,1,87.7500003347397,2|2,0:0|3:0,0:0:0:0:
180,184,52924,2,0,P|207:150|249:143,1,87.7500003347397,2|0,0:0|3:0,0:0:0:0:
312,48,53479,2,0,P|328:96|452:80,1,175.500000669479,2|2,0:0|0:3,0:0:0:0:
437,101,54311,1,0,3:0:0:0:
484,212,54589,6,0,B|512:276|512:276|484:332,1,131.62500050211,2|2,3:2|3:2,0:0:0:0:
484,331,55283,2,0,L|354:308,1,131.62500050211,2|2,0:0|0:0,0:0:0:0:
256,368,55977,1,2,3:2:0:0:
180,284,56254,1,2,0:3:0:0:
264,204,56532,2,0,P|312:192|348:148,1,87.7500003347397,2|0,3:2|3:0,0:0:0:0:
244,204,56948,2,2,P|196:188|164:92,1,131.62500050211,2|0,0:3|0:0,0:0:0:0:
256,108,57642,1,6,3:0:0:0:
464,228,58752,5,6,3:2:0:0:
446,331,59029,1,0,0:0:0:0:
366,211,59307,1,2,0:0:0:0:
348,313,59584,1,0,0:0:0:0:
256,248,59862,5,2,0:0:0:0:
231,110,60139,1,0,0:0:0:0:
235,133,60278,1,0,0:0:0:0:
239,153,60417,1,2,0:0:0:0:
256,248,60694,1,0,0:0:0:0:
136,356,60972,5,6,3:0:0:0:
161,218,61250,1,0,0:0:0:0:
157,241,61388,1,0,0:0:0:0:
153,261,61527,1,2,0:0:0:0:
136,356,61805,1,0,0:0:0:0:
64,292,62082,1,2,0:0:0:0:
232,292,62360,2,0,B|296:260|328:340|392:304,1,162.5
360,228,63192,5,6,3:0:0:0:
498,253,63470,1,0,0:0:0:0:
475,249,63608,1,0,0:0:0:0:
455,245,63747,1,2,0:0:0:0:
360,228,64025,1,0,0:0:0:0:
472,120,64302,5,2,0:0:0:0:
334,145,64580,1,0,0:0:0:0:
357,141,64719,1,0,0:0:0:0:
377,137,64857,1,2,0:0:0:0:
472,120,65135,1,0,0:0:0:0:
362,8,65412,5,6,3:0:0:0:
500,33,65690,1,0,0:0:0:0:
477,29,65829,1,0,0:0:0:0:
457,25,65967,1,2,0:0:0:0:
362,8,66245,1,0,0:0:0:0:
260,132,66522,1,2,0:0:0:0:
128,72,66800,2,0,B|208:104|220:8|312:64,1,162.5,0|2,0:0|0:0,0:0:0:0:
380,156,67632,5,6,3:2:0:0:
376,264,67910,1,0,0:0:0:0:
461,227,68188,5,2,0:0:0:0:
457,207,68326,1,0,0:0:0:0:
303,207,68604,5,0,0:0:0:0:
300,224,68743,2,0,B|288:265|288:265|309:327,2,87.7500003347397,2|2|2,3:2|0:3|3:2,0:0:0:0:
224,372,69853,5,2,3:2:0:0:
164,268,70130,1,0,0:0:0:0:
56,272,70408,5,2,0:0:0:0:
76,268,70546,1,0,0:0:0:0:
220,192,70824,5,0,0:0:0:0:
203,188,70963,2,0,B|163:175|163:175|120:188,1,87.7500003347397,2|2,3:2|0:3,0:0:0:0:
40,100,71518,2,0,B|83:112|83:112|123:99,1,87.7500003347397,2|2,3:2|0:3,0:0:0:0:
216,52,72073,5,2,3:2:0:0:
384,104,72350,1,0,0:0:0:0:
464,72,72628,5,2,0:3:0:0:
460,52,72767,1,2,3:2:0:0:
304,52,73044,5,2,0:3:0:0:
301,69,73183,2,0,B|289:110|289:110|310:172,2,87.7500003347397,2|2|2,3:2|0:3|3:2,0:0:0:0:
332,248,74293,5,2,3:2:0:0:
256,376,74571,1,0,0:0:0:0:
188,304,74848,5,0,0:0:0:0:
208,300,74987,1,0,3:0:0:0:
352,344,75264,5,0,0:0:0:0:
376,348,75403,2,0,P|436:300|416:192,2,175.500000669479,0|0|6,3:0|3:0|3:2,0:0:0:0:
452,24,85394,5,6,3:0:0:0:
452,24,85671,1,0,3:0:0:0:
468,108,85949,2,0,B|416:132|400:72|340:96,1,130,2|0,0:0|0:0,0:0:0:0:
256,152,87614,5,4,3:0:0:0:
256,152,87892,1,0,3:0:0:0:
256,152,88724,2,0,L|244:85,2,65
272,256,89834,1,4,3:0:0:0:
272,256,90112,1,0,3:0:0:0:
252,336,90389,2,0,B|304:360|320:300|380:324,1,130,2|0,0:0|0:0,0:0:0:0:
256,192,92054,12,2,93719,3:0:0:0:
173,68,94274,6,0,L|184:131,1,48.750001859665,4|0,0:0|0:0,0:0:0:0:
140,184,94830,2,0,L|159:294,1,97.50000371933,2|0,0:3|0:0,0:0:0:0:
264,28,96217,5,0,0:0:0:0:
264,28,96356,1,0,0:0:0:0:
264,28,96495,2,0,L|252:91,1,48.750001859665,2|0,0:0|0:0,0:0:0:0:
308,180,97050,2,0,L|288:290,1,97.50000371933,2|0,0:3|0:0,0:0:0:0:
247,28,98437,5,0,0:3:0:0:
247,28,98576,1,0,0:0:0:0:
247,28,98715,2,0,L|258:91,1,48.750001859665,2|0,0:3|0:0,0:0:0:0:
271,160,99270,2,0,P|299:184|363:176,1,97.50000371933,2|0,0:0|0:0,0:0:0:0:
452,96,100657,5,0,0:0:0:0:
428,91,100796,1,0,0:0:0:0:
408,88,100935,1,2,0:0:0:0:
356,180,101490,2,0,P|404:168|476:284,1,195.00000743866,2|0,0:3|0:0,0:0:0:0:
287,369,103155,6,0,L|276:306,1,48.750001859665,2|0,0:3|0:0,0:0:0:0:
228,220,103710,2,0,L|248:101,1,97.50000371933,2|0,0:0|0:0,0:0:0:0:
180,340,105098,5,0,0:0:0:0:
180,340,105237,1,0,0:0:0:0:
180,340,105375,2,0,L|167:269,1,48.750001859665,2|0,0:0|0:0,0:0:0:0:
100,256,105930,2,0,L|81:153,1,97.50000371933,2|0,0:3|0:0,0:0:0:0:
252,256,107318,5,0,0:0:0:0:
252,256,107457,1,0,0:0:0:0:
252,256,107595,2,0,L|264:185,1,48.750001859665,2|0,0:3|0:0,0:0:0:0:
280,120,108151,2,0,P|272:80|208:48,1,97.50000371933,2|0,0:0|0:0,0:0:0:0:
148,216,109538,5,0,0:0:0:0:
164,216,109677,1,0,0:0:0:0:
180,216,109816,1,2,0:3:0:0:
227,48,110371,2,0,P|226:88|102:102,1,195.00000743866,2|0,0:0|0:0,0:0:0:0:
256,192,112036,6,0,P|280:164|352:164,1,97.50000371933,2|2,0:0|0:3,0:0:0:0:
337,156,113423,1,2,0:0:0:0:
416,120,114256,6,0,P|428:154|392:217,1,97.50000371933,2|2,0:0|0:3,0:0:0:0:
406,208,115644,1,2,0:0:0:0:
392,296,116476,6,0,P|355:289|319:226,1,97.50000371933,2|2,0:3|0:0,0:0:0:0:
320,243,117864,1,2,0:3:0:0:
120,296,118696,6,0,P|156:289|192:226,1,97.50000371933,2|2,0:2|0:3,0:0:0:0:
192,243,120084,1,0,0:0:0:0:
256,192,120916,12,0,128132,0:0:0:0:
