osu file format v14

[General]
AudioFilename: audio.mp3
AudioLeadIn: 0
PreviewTime: 40019
Countdown: 0
SampleSet: Soft
StackLeniency: 0.7
Mode: 0
LetterboxInBreaks: 0
WidescreenStoryboard: 1

[Editor]
Bookmarks: 23227,40988,58750,76511,94272,112034
DistanceSpacing: 1
BeatDivisor: 4
GridSize: 8
TimelineZoom: 1

[Metadata]
Title:Professor Layton's Theme
TitleUnicode:レイトン教授のテーマ
Artist:Nishiura Tomohito
ArtistUnicode:西浦智仁
Creator:StarCastler
Version:Normal
Source:レイトン教授と不思議な町
Tags:RandomJibberish polka PolkaMocha Veridian Professor Layton and the Curious Village reiton kyouju to fushigi na machi thema teema level-5 level 5 nintendo ds mobile video game ost instrumental folk
BeatmapID:2524926
BeatmapSetID:1213157

[Difficulty]
HPDrainRate:3
CircleSize:3
OverallDifficulty:5
ApproachRate:6
SliderMultiplier:1.3
SliderTickRate:2

[Events]
//Background and Video events
0,0,"6034226_p0.jpg",0,0
//Break Periods
//Storyboard Layer 0 (Background)
//Storyboard Layer 1 (Fail)
//Storyboard Layer 2 (Pass)
//Storyboard Layer 3 (Foreground)
//Storyboard Layer 4 (Overlay)
//Storyboard Sound Samples

[TimingPoints]
1028,555.041628122109,4,2,0,45,1,0
1028,-100,4,2,0,45,0,0
23229,-100,4,2,0,55,0,0
32110,-100,4,2,0,60,0,0
40158,-100,4,2,0,65,0,0
40435,-100,4,2,0,70,0,0
40713,-100,4,2,0,75,0,0
40990,-80,4,2,0,80,0,1
57642,-100,4,2,0,65,0,0
58752,-80,4,2,0,70,0,1
67632,-80,4,2,0,75,0,1
76513,-100,4,2,0,60,0,0
85394,-100,4,2,0,50,0,0
92054,-100,4,2,0,60,0,0
94274,-133.333333333333,4,2,0,60,0,0
112036,-133.333333333333,4,2,0,50,0,0
114256,-133.333333333333,4,2,0,47,0,0
116476,-133.333333333333,4,2,0,45,0,0
118696,-133.333333333333,4,2,0,43,0,0
120916,-133.333333333333,4,2,0,40,0,0
123137,-133.333333333333,4,2,0,37,0,0
125357,-133.333333333333,4,2,0,35,0,0
126467,-133.333333333333,4,2,0,25,0,0
127577,-133.333333333333,4,2,0,15,0,0
128132,-133.333333333333,4,2,0,10,0,0

[Colours]
Combo1 : 0,128,192
Combo2 : 128,64,0
Combo3 : 255,128,64
Combo4 : 85,170,170
SliderBorder : 255,255,255

[HitObjects]
96,152,5468,6,2,B|96:32|216:32,1,195,2|0,0:0|0:0,0:0:0:0:
296,32,6578,2,2,B|416:32|416:152,1,195,2|0,0:0|0:0,0:0:0:0:
408,232,7688,2,2,B|320:208|256:264|256:264|192:208|104:232,1,325
152,112,9631,1,2,0:0:0:0:
152,112,9908,6,2,B|256:32|360:112,2,227.5,2|2|0,0:0|0:0|0:0,0:0:0:0:
136,192,12128,2,2,B|256:280|376:192,1,260,2|0,0:0|0:0,0:0:0:0:
456,296,13793,1,2,0:0:0:0:
456,296,14071,1,2,0:0:0:0:
456,296,14348,6,2,B|440:360|352:384|296:344,1,195,2|0,0:0|0:0,0:0:0:0:
216,344,15459,2,2,B|160:384|72:360|56:296,1,195,2|0,0:0|0:0,0:0:0:0:
104,232,16569,2,2,B|192:208|256:264|256:264|320:208|408:232,1,325
256,152,18511,1,2,0:0:0:0:
256,152,18789,6,2,B|144:56|16:128,1,260
256,232,21009,2,2,B|368:328|496:256,1,260,2|0,0:0|0:0,0:0:0:0:
496,128,22674,1,2,3:0:0:0:
400,40,23229,6,0,B|328:24|280:80,2,130,6|2|0,0:0|0:3|0:0,0:0:0:0:
456,64,24617,1,2,0:3:0:0:
496,112,24894,1,2,0:0:0:0:
392,200,25449,1,2,0:3:0:0:
320,120,25866,2,0,L|152:120,1,162.5,2|0,0:0|0:0,0:0:0:0:
104,144,26837,1,2,0:3:0:0:
64,192,27114,1,2,0:0:0:0:
160,288,27669,6,0,B|232:280|280:336,2,130,2|2|0,0:0|0:3|0:0,0:0:0:0:
104,264,29057,1,2,0:3:0:0:
80,208,29335,1,2,0:0:0:0:
200,144,29890,1,2,0:3:0:0:
255,239,30306,1,2,0:0:0:0:
312,144,30722,1,2,0:3:0:0:
200,336,31555,1,2,0:0:0:0:
200,336,31832,1,2,0:0:0:0:
200,336,32110,6,0,B|128:344|88:280,2,130,6|2|0,3:2|0:3|3:2,0:0:0:0:
256,304,33497,1,2,0:3:0:0:
312,336,33775,1,2,0:0:0:0:
440,336,34330,2,0,B|496:288|472:216,2,130,2|2|0,3:0|0:0|3:0,0:0:0:0:
384,360,35718,1,2,0:3:0:0:
328,384,35995,1,2,0:0:0:0:
304,264,36550,6,0,B|200:264,2,97.5,2|2|2,3:0|0:0|0:0,0:0:0:0:
256,120,37938,1,2,0:0:0:0:
256,120,38215,1,2,0:3:0:0:
256,120,38493,1,2,0:0:0:0:
256,120,38770,2,0,L|256:16,1,97.5,6|2,3:2|0:3,0:0:0:0:
256,264,40158,5,2,0:0:0:0:
256,264,40435,1,2,0:0:0:0:
256,264,40713,1,2,0:0:0:0:
208,344,40990,6,2,B|136:336|128:264,2,121.875,6|2|0,3:2|0:3|0:0,0:0:0:0:
304,344,42101,2,2,B|376:336|384:264,2,121.875,2|2|2,3:2|0:0|0:3,0:0:0:0:
256,264,43211,1,2,3:0:0:0:
184,144,43627,2,2,B|200:64|312:64|328:144,1,203.125,2|0,0:0|3:0,0:0:0:0:
320,224,44598,1,2,0:3:0:0:
256,272,44876,1,2,3:2:0:0:
192,224,45153,1,2,0:0:0:0:
184,144,45431,6,2,B|200:96|184:88|168:80|184:24,1,121.875,2|2,3:2|0:3,0:0:0:0:
328,24,46263,2,2,B|408:24|408:24|384:64|400:112,1,162.5,2|2,0:0|0:3,0:0:0:0:
424,192,47096,1,2,3:0:0:0:
424,192,47235,1,2,0:0:0:0:
336,224,47512,2,2,B|304:240|296:304|328:336,2,121.875,2|2|0,0:0|3:0|3:0,0:0:0:0:
176,224,48761,2,0,B|208:240|216:304|184:336,2,121.875,2|2|2,3:0|3:0|3:0,0:0:0:0:
120,152,49871,6,0,B|96:96|96:96|96:32,2,121.875,6|2|2,3:2|0:0|0:3,0:0:0:0:
176,320,51259,1,2,0:0:0:0:
256,320,51536,1,2,3:2:0:0:
336,320,51814,1,2,0:3:0:0:
312,240,52091,2,0,B|256:216|256:216|200:240,2,121.875,2|2|2,3:2|0:3|0:0,0:0:0:0:
304,152,53201,2,0,L|304:64,1,81.25,0|2,3:0|0:0,0:0:0:0:
208,72,53756,2,0,L|208:160,1,81.25,2|2,3:2|0:3,0:0:0:0:
256,232,54311,5,0,3:0:0:0:
184,288,54589,1,2,3:2:0:0:
96,264,54867,1,2,0:3:0:0:
40,136,55283,2,0,B|48:64|120:56,1,121.875,2|2,0:0|0:3,0:0:0:0:
208,56,55977,1,2,3:2:0:0:
304,56,56254,1,2,0:3:0:0:
256,136,56532,6,0,L|256:264,2,121.875,2|2|0,3:2|0:3|0:0,0:0:0:0:
256,56,57642,1,6,3:0:0:0:
488,352,58752,5,6,3:2:0:0:
400,360,59029,1,0,0:0:0:0:
352,288,59307,1,2,0:0:0:0:
160,288,59862,1,2,0:0:0:0:
112,360,60139,1,0,0:0:0:0:
24,352,60417,1,2,0:0:0:0:
24,272,60694,1,0,0:0:0:0:
24,192,60972,6,0,B|24:112|24:112|64:96|80:56,2,162.5,6|2|2,3:0|0:0|0:0,0:0:0:0:
56,272,62360,1,0,0:0:0:0:
136,304,62637,1,2,0:0:0:0:
256,152,63192,6,0,L|256:64,2,81.25,6|0|2,3:0|0:0|0:0,0:0:0:0:
256,232,64025,2,0,L|256:320,1,81.25,0|2,0:0|0:0,0:0:0:0:
312,376,64580,1,0,0:0:0:0:
392,352,64857,1,2,0:0:0:0:
360,272,65135,1,0,0:0:0:0:
328,192,65412,6,0,B|288:192|256:224|256:224|224:192|184:192,2,162.5,6|2|2,3:0|0:0|0:0,0:0:0:0:
256,32,67077,1,2,0:0:0:0:
256,112,67355,1,2,0:0:0:0:
256,192,67632,5,6,3:2:0:0:
256,272,67910,1,0,0:0:0:0:
256,352,68188,1,2,0:0:0:0:
96,352,68743,2,0,L|8:352,1,81.25,2|2,3:2|0:3,0:0:0:0:
16,272,69298,2,0,L|104:272,1,81.25,2|2,3:2|0:3,0:0:0:0:
176,272,69853,6,0,B|256:272|256:272|272:232|256:192,2,162.5,2|2|2,3:2|0:0|3:2,0:0:0:0:
96,240,71240,1,2,0:3:0:0:
64,160,71518,1,2,3:2:0:0:
96,80,71795,1,2,0:3:0:0:
176,48,72073,6,0,B|256:24|336:48,1,162.5,2|2,3:2|0:3,0:0:0:0:
344,232,73183,1,2,3:2:0:0:
296,296,73460,1,2,0:3:0:0:
216,296,73738,1,2,3:2:0:0:
168,232,74015,1,2,0:3:0:0:
192,152,74293,6,0,L|320:152,2,121.875,2|2|0,3:2|0:3|0:0,0:0:0:0:
176,72,75403,1,0,3:0:0:0:
336,72,75958,1,0,3:0:0:0:
384,192,76513,6,0,B|384:248|384:248|368:280|328:296,2,130,6|2|2,3:2|0:0|0:0,0:0:0:0:
256,192,78178,1,2,0:3:0:0:
128,192,78733,2,0,B|128:248|128:248|144:280|184:296,2,130,6|2|2,3:0|0:3|0:0,0:0:0:0:
256,192,80398,1,2,0:3:0:0:
368,128,80953,5,6,3:0:0:0:
368,256,81509,1,2,0:0:0:0:
256,320,82064,1,2,0:0:0:0:
144,256,82619,1,2,0:3:0:0:
144,128,83174,1,6,3:0:0:0:
256,64,83729,1,2,0:3:0:0:
368,128,84284,1,2,0:0:0:0:
256,192,84839,1,2,0:3:0:0:
144,128,85394,6,0,B|24:80|-16:232|64:328|144:248|192:360,1,390,6|0,3:0|0:0,0:0:0:0:
320,360,87614,2,0,B|368:248|448:328|528:232|488:80|368:128,1,390,4|0,3:0|0:0,0:0:0:0:
296,232,89834,6,0,B|352:160|256:72|160:160|216:232,1,260,4|0,3:0|0:0,0:0:0:0:
256,352,91499,1,0,0:0:0:0:
256,224,92054,2,0,L|256:160,1,65,6|0,3:2|3:0,0:0:0:0:
256,192,93719,1,2,3:0:0:0:
256,320,94274,5,4,0:0:0:0:
352,320,94830,2,0,B|408:312|408:224|352:216,1,146.250005578995,2|2,0:3|0:0,0:0:0:0:
256,192,96217,1,0,0:0:0:0:
256,192,96495,1,2,0:0:0:0:
160,216,97050,2,0,B|104:224|104:312|160:320,1,146.250005578995,2|2,0:3|0:0,0:0:0:0:
256,320,98437,1,0,0:3:0:0:
256,320,98715,5,2,0:3:0:0:
352,320,99270,2,0,B|432:328|480:264,1,146.250005578995,2|2,0:0|0:0,0:0:0:0:
480,168,100657,1,0,0:0:0:0:
480,168,100935,1,2,0:0:0:0:
392,128,101490,2,0,B|344:176|392:216|440:256|392:304,1,195.00000743866,2|0,0:3|0:0,0:0:0:0:
304,264,103155,5,2,0:3:0:0:
216,224,103710,2,0,B|160:160|200:88,1,146.250005578995,2|2,0:0|0:3,0:0:0:0:
256,16,105098,1,0,0:0:0:0:
256,16,105375,1,2,0:0:0:0:
312,88,105930,2,0,B|352:160|296:224,1,146.250005578995,2|2,0:3|0:0,0:0:0:0:
256,312,107318,1,0,0:0:0:0:
256,312,107595,5,2,0:3:0:0:
200,232,108151,2,0,B|176:160|200:88,1,146.250005578995,2|2,0:0|0:3,0:0:0:0:
256,16,109538,1,0,0:0:0:0:
256,16,109816,1,2,0:3:0:0:
312,88,110371,2,0,B|320:152|256:176|192:152|200:88,1,195.00000743866,2|0,0:0|0:0,0:0:0:0:
256,16,112036,5,2,0:0:0:0:
352,16,112591,2,0,B|440:24|448:112,1,146.250005578995,2|2,0:3|0:0,0:0:0:0:
448,208,113978,1,2,0:3:0:0:
448,208,114256,1,2,0:0:0:0:
448,304,114811,2,0,B|416:376|328:368,1,146.250005578995,2|2,0:3|0:0,0:0:0:0:
184,368,116476,5,2,0:3:0:0:
88,368,117031,2,0,B|40:336|48:248|144:240|104:144,1,243.750009298325,2|2,0:0|0:0,0:0:0:0:
88,96,118696,1,2,0:2:0:0:
56,0,119251,2,0,B|144:40|248:8,1,195.00000743866,2|0,0:3|0:0,0:0:0:0:
256,192,120916,12,0,128132,0:0:0:0:
