osu file format v14

[General]
AudioFilename: audio.mp3
AudioLeadIn: 0
PreviewTime: 40019
Countdown: 0
SampleSet: Soft
StackLeniency: 0.7
Mode: 0
LetterboxInBreaks: 0
WidescreenStoryboard: 1

[Editor]
Bookmarks: 23227,40988,58750,76511,94272,112034
DistanceSpacing: 1
BeatDivisor: 4
GridSize: 8
TimelineZoom: 1

[Metadata]
Title:Professor Layton's Theme
TitleUnicode:レイトン教授のテーマ
Artist:Nishiura Tomohito
ArtistUnicode:西浦智仁
Creator:StarCastler
Version:Hard
Source:レイトン教授と不思議な町
Tags:RandomJibberish polka PolkaMocha Veridian Professor Layton and the Curious Village reiton kyouju to fushigi na machi thema teema level-5 level 5 nintendo ds mobile video game ost instrumental folk
BeatmapID:2689870
BeatmapSetID:1213157

[Difficulty]
HPDrainRate:4
CircleSize:4
OverallDifficulty:6
ApproachRate:7
SliderMultiplier:1.6
SliderTickRate:2

[Events]
//Background and Video events
0,0,"6034226_p0.jpg",0,0
//Break Periods
//Storyboard Layer 0 (Background)
//Storyboard Layer 1 (Fail)
//Storyboard Layer 2 (Pass)
//Storyboard Layer 3 (Foreground)
//Storyboard Layer 4 (Overlay)
//Storyboard Sound Samples

[TimingPoints]
1028,555.041628122109,4,2,0,45,1,0
1028,-133.333333333333,4,2,0,45,0,0
23229,-100,4,2,0,55,0,0
32110,-100,4,2,0,60,0,0
40158,-100,4,2,0,65,0,0
40435,-100,4,2,0,70,0,0
40713,-100,4,2,0,75,0,0
40990,-80,4,2,0,80,0,1
57642,-100,4,2,0,65,0,0
58752,-80,4,2,0,70,0,1
67632,-80,4,2,0,75,0,1
76513,-100,4,2,0,60,0,0
85394,-133.333333333333,4,2,0,50,0,0
92054,-100,4,2,0,60,0,0
94274,-133.333333333333,4,2,0,60,0,0
112036,-133.333333333333,4,2,0,50,0,0
114256,-133.333333333333,4,2,0,47,0,0
116476,-133.333333333333,4,2,0,45,0,0
118696,-133.333333333333,4,2,0,43,0,0
120916,-133.333333333333,4,2,0,40,0,0
123137,-133.333333333333,4,2,0,37,0,0
125357,-133.333333333333,4,2,0,35,0,0
126467,-133.333333333333,4,2,0,25,0,0
127577,-133.333333333333,4,2,0,15,0,0
128132,-133.333333333333,4,2,0,10,0,0

[Colours]
Combo1 : 0,128,192
Combo2 : 128,64,0
Combo3 : 255,128,64
Combo4 : 85,170,170
SliderBorder : 255,255,255

[HitObjects]
104,192,5468,6,2,B|112:88|216:72,1,180.000006866455,2|0,0:0|0:0,0:0:0:0:
296,72,6578,2,2,B|400:88|408:192,1,180.000006866455,2|0,0:0|0:0,0:0:0:0:
368,264,7688,2,2,B|296:248|256:288|256:288|216:248|144:264,1,240.000009155274,2|0,0:0|0:0,0:0:0:0:
72,312,9076,2,0,B|32:280|48:224,1,90.0000034332277,2|2,0:0|0:3,0:0:0:0:
72,192,9631,1,2,0:0:0:0:
64,104,9908,6,2,B|112:145|216:129|240:56,1,210.000008010865,2|0,0:0|0:0,0:0:0:0:
272,56,11018,2,2,B|296:129|400:145|448:104,1,210.000008010865,2|0,0:0|0:0,0:0:0:0:
472,72,12128,2,2,B|400:32|304:88|328:208|408:240,1,300.000011444092,2|0,0:0|0:0,0:0:0:0:
472,312,13793,2,0,L|440:328,3,30.0000011444092,2|0|2|0,0:0|0:0|0:0|0:0,0:0:0:0:
416,344,14348,6,2,B|368:352|296:336|296:248,1,180.000006866455,2|0,0:0|0:0,0:0:0:0:
216,248,15459,2,2,B|216:336|144:352|96:344,1,180.000006866455,2|0,0:0|0:0,0:0:0:0:
144,264,16569,2,2,B|216:248|256:288|256:288|296:248|368:264,1,240.000009155274,2|0,0:0|0:0,0:0:0:0:
456,272,17956,2,0,B|480:272|504:304|480:344,1,90.0000034332277,2|2,0:0|0:3,0:0:0:0:
456,376,18511,1,2,0:0:0:0:
368,344,18789,6,2,B|240:336|264:200,1,210.000008010865,2|0,0:0|0:0,0:0:0:0:
248,184,19899,2,2,B|272:48|144:40,1,210.000008010865,2|0,0:0|0:0,0:0:0:0:
256,192,21009,12,2,22674,3:0:0:0:
40,328,23229,6,0,B|72:352|120:336,1,80,6|0,0:0|0:0,0:0:0:0:
168,352,23645,2,0,B|232:320|232:224|176:184,1,200,2|0,0:3|0:0,0:0:0:0:
104,144,24617,1,2,0:3:0:0:
96,128,24756,1,0,0:0:0:0:
88,112,24894,2,0,L|48:96,2,40,2|0|2,0:0|0:0|0:0,0:0:0:0:
168,48,25449,6,0,B|200:72|248:56,1,80,2|0,0:3|0:0,0:0:0:0:
280,16,25866,2,0,B|344:0|432:48|440:104,1,200,2|0,0:0|0:0,0:0:0:0:
384,168,26837,1,2,0:3:0:0:
360,160,26976,1,0,0:0:0:0:
336,152,27114,2,0,L|328:112,2,40,2|0|2,0:0|0:0|0:0,0:0:0:0:
352,248,27669,6,0,B|368:296|336:336,1,80,2|0,0:0|0:0,0:0:0:0:
296,352,28086,2,0,B|336:312|432:304|480:360,1,200,2|0,0:3|0:0,0:0:0:0:
512,288,29057,1,2,0:3:0:0:
504,272,29196,1,0,0:0:0:0:
496,256,29335,2,0,L|480:216,2,40,2|0|2,0:0|0:0|0:0,0:0:0:0:
408,296,29890,6,0,B|384:328|336:312,1,80,2|0,0:3|0:0,0:0:0:0:
288,296,30306,2,0,B|280:280|256:264|232:280|224:296,1,80,2|0,0:0|0:0,0:0:0:0:
176,312,30722,2,0,B|128:328|104:296,1,80,2|0,0:3|0:0,0:0:0:0:
56,232,31277,1,0,0:0:0:0:
88,160,31555,2,0,L|104:120,3,40,2|0|2|0,0:0|0:0|0:0|0:0,0:0:0:0:
104,80,32110,6,0,B|136:64|184:80,1,80,6|0,3:2|0:0,0:0:0:0:
224,56,32526,2,0,B|280:96|264:192|176:208,1,200,2|0,0:3|3:2,0:0:0:0:
104,232,33497,1,2,0:3:0:0:
72,248,33636,1,0,0:0:0:0:
48,272,33775,1,2,0:0:0:0:
40,312,33914,1,0,0:0:0:0:
32,352,34052,1,2,0:0:0:0:
120,336,34330,6,0,B|168:352|208:328,1,80,2|0,3:0|0:0,0:0:0:0:
224,376,34746,2,0,B|160:288|200:184,1,200,2|0,0:0|3:0,0:0:0:0:
192,104,35718,1,2,0:3:0:0:
224,112,35856,1,0,0:0:0:0:
256,120,35995,1,2,0:0:0:0:
288,112,36134,1,0,0:0:0:0:
320,104,36273,1,2,0:0:0:0:
352,192,36550,5,2,3:0:0:0:
256,312,36966,1,2,0:0:0:0:
160,192,37383,1,2,0:0:0:0:
256,192,37660,1,4,3:0:0:0:
256,192,37938,2,0,L|256:112,2,80,2|2|2,0:0|0:3|0:0,0:0:0:0:
256,272,38770,5,6,3:2:0:0:
336,160,39187,2,2,B|320:112|256:96|192:112|176:160,1,200,2|0,0:3|0:0,0:0:0:0:
112,64,40158,5,2,0:0:0:0:
64,128,40435,1,2,0:0:0:0:
16,192,40713,1,2,0:0:0:0:
88,280,40990,6,2,B|120:328|176:320,1,100,6|0,3:2|0:0,0:0:0:0:
160,248,41407,2,2,B|216:240|240:168|216:128,1,150,2|0,0:3|0:0,0:0:0:0:
120,152,42101,1,2,3:2:0:0:
256,296,42517,1,2,0:0:0:0:
392,152,42933,1,2,0:3:0:0:
256,192,43211,6,2,B|224:240|168:232,1,100,2|0,3:0|0:0,0:0:0:0:
96,216,43627,2,2,B|200:192|184:320|320:296,1,250,2|0,0:0|3:0,0:0:0:0:
408,352,44598,1,2,0:3:0:0:
424,312,44737,1,0,0:0:0:0:
440,272,44876,2,0,L|440:216,1,50,2|0,3:2|0:0,0:0:0:0:
464,192,45153,2,0,L|464:136,1,50,2|0,0:0|0:0,0:0:0:0:
496,80,45431,6,2,B|432:48|416:112|352:80,1,150,2|2,3:2|0:3,0:0:0:0:
216,152,46263,2,2,B|160:120|120:144|120:144|136:96|88:56,1,200,2|2,0:0|0:3,0:0:0:0:
24,128,47096,1,2,3:0:0:0:
24,128,47235,1,2,0:0:0:0:
72,224,47512,6,2,B|104:248|144:232|160:208,1,100,2|0,0:0|0:0,0:0:0:0:
232,224,47929,2,2,B|224:288|96:344|24:280,1,250,2|0,3:0|0:0,0:0:0:0:
0,208,48761,2,0,L|16:104,2,100,2|2|2,3:0|0:0|3:2,0:0:0:0:
0,248,49455,1,0,0:0:0:0:
8,280,49594,1,2,3:0:0:0:
24,312,49732,1,0,0:0:0:0:
40,344,49871,6,0,B|80:384|152:368|168:320,2,150,6|2|2,3:2|0:0|0:3,0:0:0:0:
8,264,50981,1,0,3:0:0:0:
96,296,51259,1,2,0:0:0:0:
168,240,51536,1,2,3:2:0:0:
200,248,51675,1,0,0:0:0:0:
232,256,51814,1,2,0:3:0:0:
328,280,52091,5,2,3:2:0:0:
432,264,52369,1,2,3:0:0:0:
464,272,52508,1,2,0:0:0:0:
368,184,52785,1,2,3:0:0:0:
336,176,52924,1,2,0:0:0:0:
384,88,53201,2,0,B|328:88|296:48,1,100,0|2,3:0|0:0,0:0:0:0:
256,16,53618,1,0,0:0:0:0:
216,48,53756,2,0,B|184:88|128:88,1,100,2|2,3:2|0:3,0:0:0:0:
168,176,54311,5,0,3:0:0:0:
208,264,54589,1,2,3:2:0:0:
304,264,54867,1,2,0:3:0:0:
304,264,55005,1,2,3:2:0:0:
344,176,55283,1,2,0:0:0:0:
256,120,55560,1,2,0:3:0:0:
256,120,55699,1,2,0:0:0:0:
256,224,55977,2,0,L|256:280,3,50,2|0|2|0,3:2|0:0|0:3|0:0,0:0:0:0:
256,274,56532,5,2,3:2:0:0:
176,160,56948,2,2,B|192:112|256:96|320:112|336:160,1,200,2|0,0:3|0:0,0:0:0:0:
336,160,57642,1,6,3:0:0:0:
480,32,58752,5,6,3:2:0:0:
464,128,59029,1,0,0:0:0:0:
456,168,59168,1,0,0:0:0:0:
448,208,59307,2,0,B|432:240|376:240|360:216,1,100,2|0,0:0|0:0,0:0:0:0:
264,176,59862,1,2,0:0:0:0:
280,272,60139,1,0,0:0:0:0:
288,311,60278,1,0,0:0:0:0:
296,352,60417,2,0,B|312:384|368:384|384:360,1,100,2|0,0:0|0:0,0:0:0:0:
472,296,60972,5,6,3:0:0:0:
472,192,61250,2,0,L|472:136,2,50,0|0|2,0:0|0:0|0:0,0:0:0:0:
472,296,61805,1,0,0:0:0:0:
384,248,62082,1,2,0:0:0:0:
344,232,62221,1,0,0:0:0:0:
304,248,62360,1,0,0:0:0:0:
208,248,62637,1,2,0:0:0:0:
168,264,62776,1,0,0:0:0:0:
128,248,62915,1,0,0:0:0:0:
48,192,63192,6,0,B|24:144|40:96,1,100,6|0,3:0|0:0,0:0:0:0:
80,32,63608,1,0,0:0:0:0:
104,40,63747,2,0,B|128:88|112:136,1,100,2|0,0:0|0:0,0:0:0:0:
128,224,64302,1,2,0:0:0:0:
136,264,64441,1,0,0:0:0:0:
144,304,64580,1,0,0:0:0:0:
232,344,64857,2,0,B|256:360|280:344,3,50,2|0|0|0,0:0|0:0|0:0|0:0,0:0:0:0:
328,328,65412,5,6,3:0:0:0:
424,328,65690,1,0,0:0:0:0:
456,344,65829,1,0,0:0:0:0:
488,360,65967,2,0,L|488:256,1,100,2|0,0:0|0:0,0:0:0:0:
488,160,66522,1,2,0:0:0:0:
400,208,66800,1,0,0:0:0:0:
392,168,66939,1,0,0:0:0:0:
384,128,67077,2,0,B|384:96|392:80,3,50,2|0|2|0,0:0|0:0|0:0|0:0,0:0:0:0:
424,40,67632,5,6,3:2:0:0:
328,16,67910,1,0,0:0:0:0:
304,112,68188,1,2,0:0:0:0:
304,112,68326,1,0,0:0:0:0:
208,112,68604,1,0,0:0:0:0:
208,112,68743,1,2,3:2:0:0:
184,16,69020,1,2,0:3:0:0:
88,40,69298,1,2,3:2:0:0:
48,64,69436,1,0,0:0:0:0:
32,104,69575,1,0,0:0:0:0:
24,144,69714,1,0,0:0:0:0:
32,184,69853,6,0,B|16:240|56:280,1,100,2|0,3:2|0:0,0:0:0:0:
128,216,70408,1,2,0:0:0:0:
128,216,70546,1,0,0:0:0:0:
112,112,70824,1,0,0:0:0:0:
112,112,70963,1,2,3:2:0:0:
208,144,71240,1,2,0:3:0:0:
256,160,71379,1,0,0:0:0:0:
304,144,71518,1,2,3:2:0:0:
352,128,71657,1,0,0:0:0:0:
400,128,71795,1,2,0:3:0:0:
440,152,71934,1,0,0:0:0:0:
464,192,72073,6,0,B|456:240|416:280,1,100,2|0,3:2|0:0,0:0:0:0:
320,296,72628,1,2,0:3:0:0:
304,248,72767,1,2,3:2:0:0:
208,248,73044,1,2,0:3:0:0:
192,296,73183,1,2,3:2:0:0:
96,280,73460,1,2,0:3:0:0:
64,240,73599,1,0,0:0:0:0:
48,192,73738,1,2,3:2:0:0:
64,144,73877,1,0,0:0:0:0:
88,104,74015,2,0,L|136:88,1,50,2|0,0:3|0:0,0:0:0:0:
184,96,74293,6,0,B|256:136|328:96,2,150,2|2|0,3:2|0:3|0:0,0:0:0:0:
256,24,75403,1,0,3:0:0:0:
256,232,75958,1,0,3:0:0:0:
128,152,76513,6,0,L|128:232,1,80,6|0,3:2|3:0,0:0:0:0:
208,256,77068,2,0,B|200:320|112:344|64:288,2,160,2|2|2,0:0|0:0|0:3,0:0:0:0:
384,152,78733,2,0,L|384:232,1,80,6|0,3:0|3:0,0:0:0:0:
304,256,79288,2,0,B|312:320|400:344|448:288,2,160,2|2|2,0:3|0:0|0:3,0:0:0:0:
464,232,80953,6,0,L|384:232,1,80,6|0,3:0|3:0,0:0:0:0:
312,288,81509,2,0,B|272:200|344:144,2,160,2|2|2,0:0|0:0|0:3,0:0:0:0:
48,232,83174,2,0,L|128:232,1,80,6|0,3:0|3:0,0:0:0:0:
200,288,83729,2,0,B|240:200|168:144,2,160,2|2|2,0:3|0:0|0:3,0:0:0:0:
256,136,85394,5,6,3:0:0:0:
256,136,85671,1,0,3:0:0:0:
232,64,85949,2,0,B|288:48|368:80|360:216|296:200|256:192|248:264|256:272,1,300.000011444092,2|0,0:0|0:0,0:0:0:0:
336,280,87614,1,4,3:0:0:0:
336,280,87892,1,0,3:0:0:0:
336,280,88169,2,0,B|328:360|256:368|184:360|176:280,1,240.000009155274
160,120,89834,5,4,3:0:0:0:
160,120,90112,1,0,3:0:0:0:
160,120,90389,2,0,B|168:24|256:-8|344:24|352:120,1,300.000011444092,2|0,0:0|0:0,0:0:0:0:
280,120,92054,2,0,B|280:96|256:80|232:96|232:120,1,80,6|0,3:2|3:0,0:0:0:0:
256,192,92609,12,2,93719,3:0:0:0:
216,328,94274,6,0,B|152:312|136:248,2,120.000004577637,4|2|0,0:0|0:3|0:0,0:0:0:0:
296,328,95662,2,0,B|360:312|376:248,1,120.000004577637,2|0,0:0|0:0,0:0:0:0:
376,216,96356,1,0,0:0:0:0:
368,184,96495,2,0,B|328:136|344:72,1,120.000004577637,2|2,0:0|0:3,0:0:0:0:
168,72,97882,2,0,B|184:136|144:184,1,120.000004577637,2|0,0:0|0:3,0:0:0:0:
128,208,98576,1,0,0:0:0:0:
112,232,98715,6,0,B|96:272|128:320|176:312,2,120.000004577637,2|2|0,0:3|0:0|0:0,0:0:0:0:
112,152,100102,2,0,B|96:112|128:64|176:72,1,120.000004577637,2|0,0:0|0:0,0:0:0:0:
192,88,100796,1,0,0:0:0:0:
216,104,100935,1,2,0:0:0:0:
304,192,101490,2,0,B|336:272|256:320|176:272|208:192,1,240.000009155274,2|0,0:3|0:0,0:0:0:0:
256,80,103155,6,0,L|376:80,1,120.000004577637,2|2,0:3|0:0,0:0:0:0:
512,160,104543,2,0,B|488:224|416:224,1,120.000004577637,2|0,0:3|0:0,0:0:0:0:
392,216,105237,1,0,0:0:0:0:
360,208,105375,2,0,B|320:200|288:256|328:296,1,120.000004577637,2|2,0:0|0:3,0:0:0:0:
152,208,106763,2,0,B|192:200|224:256|184:296,1,120.000004577637,2|0,0:0|0:0,0:0:0:0:
176,304,107457,1,0,0:0:0:0:
160,312,107595,6,0,B|96:288,1,60.0000022888184,2|0,0:3|0:0,0:0:0:0:
40,264,108151,1,2,0:0:0:0:
16,88,108983,2,0,B|24:16|96:16,1,120.000004577637,2|0,0:3|0:0,0:0:0:0:
120,24,109677,1,0,0:0:0:0:
144,32,109816,2,0,B|192:72|256:48,1,120.000004577637,2|2,0:3|0:0,0:0:0:0:
480,32,112036,5,2,0:0:0:0:
480,32,112591,2,0,B|496:120|400:104|416:192,1,180.000006866455,2|2,0:3|0:0,0:0:0:0:
416,312,113978,1,2,0:3:0:0:
480,344,114256,1,2,0:0:0:0:
480,344,114811,2,0,B|504:272|432:216|368:256,1,180.000006866455,2|2,0:3|0:0,0:0:0:0:
256,280,116199,1,2,0:0:0:0:
200,272,116476,5,2,0:3:0:0:
80,248,117031,2,0,B|24:216|-16:288|40:336|96:320,1,180.000006866455,2|2,0:0|0:3,0:0:0:0:
208,328,118419,1,2,0:0:0:0:
256,296,118696,1,2,0:2:0:0:
304,192,119251,2,0,B|336:112|256:64|176:112|208:192,1,240.000009155274,2|0,0:3|0:0,0:0:0:0:
256,304,120916,5,2,0:0:0:0:
256,192,121472,12,0,128132,0:0:0:0:
