osu file format v14

[General]
AudioFilename: audio.mp3
AudioLeadIn: 0
PreviewTime: 40019
Countdown: 0
SampleSet: Soft
StackLeniency: 0.7
Mode: 0
LetterboxInBreaks: 0
WidescreenStoryboard: 1

[Editor]
Bookmarks: 23227,40988,58750,76511,94272,112034
DistanceSpacing: 1
BeatDivisor: 4
GridSize: 8
TimelineZoom: 1

[Metadata]
Title:Professor Layton's Theme
TitleUnicode:レイトン教授のテーマ
Artist:Nishiura Tomohito
ArtistUnicode:西浦智仁
Creator:StarCastler
Version:Easy
Source:レイトン教授と不思議な町
Tags:RandomJibberish polka PolkaMocha Veridian Professor Layton and the Curious Village reiton kyouju to fushigi na machi thema teema level-5 level 5 nintendo ds mobile video game ost instrumental folk
BeatmapID:2563350
BeatmapSetID:1213157

[Difficulty]
HPDrainRate:2
CircleSize:2
OverallDifficulty:3
ApproachRate:4
SliderMultiplier:1
SliderTickRate:1

[Events]
//Background and Video events
0,0,"6034226_p0.jpg",0,0
//Break Periods
2,85594,90734
//Storyboard Layer 0 (Background)
//Storyboard Layer 1 (Fail)
//Storyboard Layer 2 (Pass)
//Storyboard Layer 3 (Foreground)
//Storyboard Layer 4 (Overlay)
//Storyboard Sound Samples

[TimingPoints]
1028,555.041628122109,4,2,0,45,1,0
1028,-100,4,2,0,45,0,0
23229,-100,4,2,0,55,0,0
32110,-100,4,2,0,60,0,0
40158,-100,4,2,0,65,0,0
40435,-100,4,2,0,70,0,0
40713,-100,4,2,0,75,0,0
40990,-83.3333333333333,4,2,0,80,0,1
57642,-100,4,2,0,65,0,0
58752,-83.3333333333333,4,2,0,70,0,1
67632,-83.3333333333333,4,2,0,75,0,1
76513,-100,4,2,0,60,0,0
85394,-100,4,2,0,50,0,0
92054,-100,4,2,0,60,0,0
94274,-100,4,2,0,60,0,0
112036,-100,4,2,0,50,0,0
114256,-100,4,2,0,47,0,0
116476,-100,4,2,0,45,0,0
118696,-100,4,2,0,43,0,0
120916,-100,4,2,0,40,0,0
123137,-100,4,2,0,37,0,0
125357,-100,4,2,0,35,0,0
126467,-100,4,2,0,25,0,0
127577,-100,4,2,0,15,0,0
128132,-100,4,2,0,10,0,0

[Colours]
Combo1 : 0,128,192
Combo2 : 128,64,0
Combo3 : 255,128,64
Combo4 : 85,170,170
SliderBorder : 255,255,255

[HitObjects]
160,48,5468,6,2,B|256:0|352:48,1,200
360,232,7688,2,2,B|320:216|280:224|256:272|256:272|232:224|192:216|152:232,1,250
48,200,9631,1,2,0:0:0:0:
48,200,9908,6,2,L|160:32,1,200
352,32,12128,2,2,L|464:200,1,200,2|0,0:0|0:0,0:0:0:0:
432,288,13793,1,2,0:0:0:0:
352,336,14348,6,2,B|256:384|160:336,1,200
152,152,16569,2,2,B|192:136|232:144|256:192|256:192|280:144|320:136|360:152,1,250
456,192,18511,1,2,0:0:0:0:
456,192,18789,6,2,B|512:144|512:64|456:16,1,200
256,64,21009,2,2,B|200:88|208:168|256:192|304:216|312:296|256:320,1,300,2|2,0:0|3:0,0:0:0:0:
152,328,23229,5,6,0:0:0:0:
56,328,23784,2,0,L|0:240,2,100,2|0|2,0:3|0:0|0:0,0:0:0:0:
152,328,25449,1,2,0:3:0:0:
104,240,26004,2,0,B|80:192|104:144,1,100,2|0,0:0|0:0,0:0:0:0:
104,48,27114,1,2,0:0:0:0:
200,48,27669,5,2,0:0:0:0:
256,128,28225,2,0,L|360:128,1,100,2|0,0:3|0:0,0:0:0:0:
448,128,29335,1,2,0:0:0:0:
448,32,29890,2,0,B|416:16|416:16|376:16,2,75,2|2|2,0:3|0:0|0:3,0:0:0:0:
448,328,32110,5,6,3:2:0:0:
352,328,32665,2,0,L|248:328,1,100,2|0,0:3|3:2,0:0:0:0:
160,328,33775,1,2,0:0:0:0:
208,240,34330,2,0,B|256:216|304:240,2,100,2|2|0,3:0|0:0|3:0,0:0:0:0:
112,240,35995,1,2,0:0:0:0:
112,144,36550,6,0,B|72:144|72:144|40:160,2,75,2|2|2,3:0|0:0|0:0,0:0:0:0:
160,144,37660,1,4,3:0:0:0:
256,144,38215,1,2,0:3:0:0:
208,56,38770,2,0,L|128:56,1,75,6|2,3:2|0:3,0:0:0:0:
48,240,40158,6,2,L|152:240,1,100
192,288,40990,5,6,3:2:0:0:
319,288,41546,1,2,0:3:0:0:
424,224,42101,2,2,B|456:256|464:304,2,89.9999972534181,2|2|2,3:2|0:0|0:3,0:0:0:0:
376,192,43211,2,2,L|256:192,1,119.999996337891,2|2,3:0|0:0,0:0:0:0:
80,112,44598,1,2,0:3:0:0:
80,112,44876,1,2,3:2:0:0:
192,88,45431,6,2,B|232:64|280:80,1,89.9999972534181,2|2,3:2|0:3,0:0:0:0:
368,80,46263,2,2,B|360:112|368:160|448:144|456:192|448:224,1,179.999994506836,2|2,0:0|3:0,0:0:0:0:
464,320,47512,1,2,0:0:0:0:
368,312,47929,1,2,3:0:0:0:
144,312,48761,2,0,B|88:320|56:280,2,89.9999972534181,2|2|2,3:0|3:0|3:0,0:0:0:0:
176,264,49871,6,0,B|192:200|168:128|120:104,2,179.999994506836,6|2|2,3:2|0:3|3:2,0:0:0:0:
112,376,52091,1,2,3:2:0:0:
208,376,52508,1,2,0:0:0:0:
304,376,52924,1,2,0:0:0:0:
304,376,53201,2,0,L|432:376,1,119.999996337891,0|2,3:0|3:2,0:0:0:0:
256,192,54311,12,2,56948,0:3:0:0:
192,56,58752,6,0,B|104:80|48:192|104:304|192:328,1,359.999989013672,6|2,3:2|0:0,0:0:0:0:
320,328,60972,2,0,B|408:304|464:192|408:80|320:56,1,359.999989013672,6|2,3:0|0:0,0:0:0:0:
192,96,63192,5,6,3:0:0:0:
128,192,63747,1,2,0:0:0:0:
192,288,64302,1,2,0:0:0:0:
256,192,64857,1,2,0:0:0:0:
320,96,65412,1,6,3:0:0:0:
384,192,65967,1,2,0:0:0:0:
320,288,66522,1,2,0:0:0:0:
256,192,67077,1,2,0:0:0:0:
152,128,67632,6,0,B|96:88|32:104,2,119.999996337891,6|2|2,3:2|0:0|3:2,0:0:0:0:
256,192,69298,1,2,3:2:0:0:
360,128,69853,2,0,B|416:88|480:104,2,119.999996337891,2|2|2,3:2|0:0|3:2,0:0:0:0:
256,192,71518,1,2,3:2:0:0:
256,192,72073,12,2,74709,0:3:0:0:
160,48,76513,5,6,3:2:0:0:
352,48,77623,1,2,0:0:0:0:
400,240,78733,2,0,B|256:312|112:240,1,300,6|2,3:0|0:3,0:0:0:0:
160,144,80953,5,6,3:0:0:0:
352,144,82064,1,2,0:0:0:0:
400,336,83174,2,0,L|304:304,1,100,6|2,3:0|0:3,0:0:0:0:
208,304,84284,2,0,L|112:336,1,100,2|2,0:0|0:3,0:0:0:0:
16,336,85394,5,6,3:0:0:0:
312,240,92054,6,0,B|344:184|320:120|256:104|192:120|168:184|200:240,1,300,6|2,3:2|3:0,0:0:0:0:
256,320,94274,5,4,0:0:0:0:
352,320,94830,2,0,B|432:304|456:224,1,150,2|2,0:3|0:0,0:0:0:0:
304,192,96495,1,2,0:0:0:0:
208,192,97050,2,0,B|152:200|112:152|120:96,1,150,2|2,0:3|0:0,0:0:0:0:
256,32,98715,5,2,0:3:0:0:
320,112,99270,2,0,B|296:144|256:160|216:144|192:112,1,150,2|2,0:0|0:0,0:0:0:0:
80,192,100935,1,2,0:0:0:0:
168,240,101490,2,0,B|200:280|248:272|264:208|312:200|344:240,1,200,2|0,0:3|0:0,0:0:0:0:
392,328,103155,5,2,0:3:0:0:
296,352,103710,2,0,B|224:312|152:368,1,150,2|2,0:0|0:3,0:0:0:0:
48,272,105375,1,2,0:0:0:0:
136,216,105930,2,0,B|208:184|288:200,1,150,2|2,0:3|0:0,0:0:0:0:
352,64,107595,5,2,0:3:0:0:
256,64,108151,2,0,B|216:88|184:64|152:40|112:64,1,150,2|2,0:0|0:3,0:0:0:0:
208,192,109816,1,2,0:3:0:0:
304,192,110371,2,0,B|328:240|312:296|264:328|208:328,1,200,2|0,0:0|0:0,0:0:0:0:
112,336,112036,5,2,0:0:0:0:
16,336,112591,1,2,0:3:0:0:
16,48,114256,1,2,0:0:0:0:
112,48,114811,1,2,0:3:0:0:
400,48,116476,5,2,0:3:0:0:
496,48,117031,1,2,0:0:0:0:
496,336,118696,1,2,0:2:0:0:
400,336,119251,1,2,0:3:0:0:
256,192,120916,12,0,128132,0:0:0:0:
