osu file format v14

[General]
AudioFilename: Dark Cloud broken-promise-orgel-version-.mp3
AudioLeadIn: 0
PreviewTime: 18200
Countdown: 0
SampleSet: Soft
StackLeniency: 0.7
Mode: 2
LetterboxInBreaks: 0
WidescreenStoryboard: 0

[Editor]
Bookmarks: 50422
DistanceSpacing: 1.7
BeatDivisor: 4
GridSize: 8
TimelineZoom: 1

[Metadata]
Title:Broken Promise (Orgel Version)
TitleUnicode:Broken Promise (Orgel Version)
Artist:Nishiura Tomohito
ArtistUnicode:西浦 智仁
Creator:- Magic Bomb -
Version:Salad
Source:Dark Cloud
Tags:MBomb JBHyperion ost original sound tracks playstation-2 rpg level-5 inc. music box ダーククラウド
BeatmapID:855292
BeatmapSetID:392869

[Difficulty]
HPDrainRate:4.5
CircleSize:3.5
OverallDifficulty:6
ApproachRate:6
SliderMultiplier:1.6
SliderTickRate:1

[Events]
//Background and Video events
0,0,"DarkCloudsChasmMoon.jpg",0,0
//Break Periods
//Storyboard Layer 0 (Background)
//Storyboard Layer 1 (Fail)
//Storyboard Layer 2 (Pass)
//Storyboard Layer 3 (Foreground)
//Storyboard Sound Samples

[TimingPoints]
978,555.555555555556,4,2,1,50,1,0
14311,-100,4,2,1,70,0,0
15422,-100,4,2,1,50,0,0
18200,-100,4,2,1,60,0,0
18755,-100,4,2,1,70,0,0
23200,-100,4,2,1,60,0,0
24311,-100,4,2,1,50,0,0
25422,-100,4,2,1,40,0,0
27644,-100,4,2,1,50,0,0
49866,-100,4,2,1,60,0,0
50422,-100,4,2,1,30,0,0
50978,-100,4,2,1,25,0,0
51533,-100,4,2,1,20,0,0
52089,-100,4,2,1,15,0,0
52644,-100,4,2,1,10,0,0
53200,-100,4,2,1,5,0,0

[Colours]
Combo1 : 64,193,255
Combo2 : 17,17,255
Combo3 : 192,192,192

[HitObjects]
144,192,422,6,0,L|64:192,1,80,0|0,0:0|0:0,0:0:0:0:
208,192,978,5,10,0:0:0:0:
496,192,2089,1,2,0:0:0:0:
264,192,2644,2,0,L|176:192,1,80,4|0,0:0|0:0,0:0:0:0:
320,192,3200,5,10,0:0:0:0:
32,192,4311,2,0,L|200:192,1,160,2|4,0:0|0:0,0:0:0:0:
448,192,5422,5,10,0:0:0:0:
112,192,6533,1,2,0:0:0:0:
320,192,7089,1,4,0:0:0:0:
160,192,7644,5,0,0:0:0:0:
408,192,8200,2,0,L|240:192,1,160,2|0,0:0|0:0,0:0:0:0:
24,192,9311,2,0,L|104:192,1,80,4|0,0:0|0:0,0:0:0:0:
344,192,9866,5,10,0:0:0:0:
504,192,10978,1,2,0:0:0:0:
304,192,11533,2,0,L|224:192,1,80,4|0,0:0|0:0,0:0:0:0:
464,192,12089,5,10,0:0:0:0:
112,192,13200,2,0,P|40:120|64:96,1,160,2|4,0:0|0:0,0:0:0:0:
440,192,14311,6,0,L|280:192,1,160,8|0,0:0|0:0,0:0:0:0:
72,192,15422,2,0,L|240:192,1,160,2|4,0:0|0:0,0:0:0:0:
456,192,16533,6,0,L|296:192,1,160,2|0,0:0|0:0,0:0:0:0:
448,192,17644,1,0,0:0:0:0:
224,192,18200,2,0,L|112:192,1,80,4|0,0:0|0:0,0:0:0:0:
384,192,18755,5,10,0:0:0:0:
88,192,20422,1,4,0:0:0:0:
496,192,20978,6,0,L|336:192,1,160,10|0,0:0|0:0,0:0:0:0:
80,192,22089,2,0,P|32:128|80:80,1,160,2|4,0:0|0:0,0:0:0:0:
456,192,23200,5,10,0:0:0:0:
48,192,24311,2,0,L|216:192,1,160,2|4,0:0|0:0,0:0:0:0:
32,192,25422,5,2,0:0:0:0:
304,192,26533,1,2,0:0:0:0:
88,192,27089,2,0,L|168:192,1,80,4|0,0:0|0:0,0:0:0:0:
296,192,27644,5,10,0:0:0:0:
16,192,28755,2,0,L|200:192,1,160,2|4,0:0|0:0,0:0:0:0:
416,192,29866,5,10,0:0:0:0:
160,192,30978,2,0,L|328:192,1,160,2|0,0:0|0:0,0:0:0:0:
104,192,32089,5,6,0:0:0:0:
496,192,33200,1,0,0:0:0:0:
280,192,33755,1,2,0:0:0:0:
456,192,34311,5,0,0:0:0:0:
312,192,34866,2,0,L|144:192,1,160,2|0,0:0|0:0,0:0:0:0:
352,192,35978,2,0,L|432:192,1,80,4|0,0:0|0:0,0:0:0:0:
192,192,36533,5,10,0:0:0:0:
8,192,37644,1,2,0:0:0:0:
184,192,38200,2,0,L|280:192,1,80,4|0,0:0|0:0,0:0:0:0:
504,192,38755,5,10,0:0:0:0:
192,192,39866,2,0,L|24:192,1,160,2|4,0:0|0:0,0:0:0:0:
256,192,40978,5,10,0:0:0:0:
496,192,42089,2,0,L|312:192,1,160,2|4,0:0|0:0,0:0:0:0:
472,192,43200,5,0,0:0:0:0:
208,192,43755,2,0,L|48:192,1,160,2|0,0:0|0:0,0:0:0:0:
184,192,44866,2,0,L|280:192,1,80,4|0,0:0|0:0,0:0:0:0:
504,192,45422,5,10,0:0:0:0:
120,192,46533,1,2,0:0:0:0:
328,192,47089,2,0,L|240:192,1,80,4|0,0:0|0:0,0:0:0:0:
8,192,47644,5,10,0:0:0:0:
416,192,48755,2,0,P|464:136|416:80,1,160,2|4,0:0|0:0,0:0:0:0:
16,192,49866,1,8,0:0:0:0:
256,192,50422,12,0,53200,0:0:0:0:
