osu file format v14

[General]
AudioFilename: audio.ogg
AudioLeadIn: 0
PreviewTime: 48645
Countdown: 0
SampleSet: Normal
StackLeniency: 0.7
Mode: 1
LetterboxInBreaks: 0
WidescreenStoryboard: 1

[Editor]
DistanceSpacing: 1.9
BeatDivisor: 4
GridSize: 4
TimelineZoom: 1

[Metadata]
Title:Jajauma ni Sasenaide (TV Size)
TitleUnicode:じゃじゃ馬にさせないで (TV Size)
Artist:Nishio Etsuko
ArtistUnicode:西尾えつ子
Creator:dopaminos
Version:Kantan
Source:らんま1/2
Tags:Ranma ½ japanese j pop jpop j-pop retro anime op opening _hellfly_ hellfly 西尾悦子
BeatmapID:4492453
BeatmapSetID:2132504

[Difficulty]
HPDrainRate:8
CircleSize:5
OverallDifficulty:3
ApproachRate:5
SliderMultiplier:1.4
SliderTickRate:1

[Events]
//Background and Video events
0,0,"1619148.jpg",0,30
Video,-933,"output.mp4"
//Break Periods
//Storyboard Layer 0 (Background)
//Storyboard Layer 1 (Fail)
//Storyboard Layer 2 (Pass)
//Storyboard Layer 3 (Foreground)
//Storyboard Layer 4 (Overlay)
//Storyboard Sound Samples

[TimingPoints]
355,365.853658536585,4,1,0,85,1,0
355,-100,4,1,0,75,0,0
3280,365.853658536585,4,1,0,65,1,0
3280,-100,4,1,0,65,0,0
16450,365.853658536585,4,1,0,65,1,0
16450,-100,4,1,0,65,0,0
31085,365.853658536585,4,1,0,65,1,8
31085,-100,4,1,0,65,0,0
48645,-100,4,1,0,75,0,1
66206,-100,4,1,0,70,0,0
73524,365.853658536585,4,1,0,70,1,0
73524,-100,4,1,0,65,0,0
87426,-100,4,1,0,75,0,0
88523,-100,4,1,0,55,0,0
89255,-100,4,1,0,45,0,0
89986,-100,4,1,0,35,0,0
90718,-100,4,1,0,15,0,0

[HitObjects]
256,194,355,5,4,0:0:0:0:
256,194,2001,1,8,0:0:0:0:
256,194,2550,1,0,0:0:0:0:
256,194,2915,1,8,0:0:0:0:
256,194,3280,1,0,0:0:0:0:
256,194,4011,1,0,0:0:0:0:
256,194,4743,1,8,0:0:0:0:
256,194,5109,1,8,0:0:0:0:
256,194,5475,1,0,0:0:0:0:
256,194,6206,1,0,0:0:0:0:
256,194,6938,1,8,0:0:0:0:
256,194,7670,1,0,0:0:0:0:
256,194,8767,1,12,0:0:0:0:
256,194,9133,1,0,0:0:0:0:
256,194,9865,1,0,0:0:0:0:
256,194,10597,1,8,0:0:0:0:
256,194,10962,1,0,0:0:0:0:
256,194,11328,1,8,0:0:0:0:
256,194,12060,1,0,0:0:0:0:
256,194,12792,1,8,0:0:0:0:
256,194,13523,1,0,0:0:0:0:
256,194,13889,1,0,0:0:0:0:
256,194,14255,1,8,0:0:0:0:
256,194,15170,1,8,0:0:0:0:
256,194,15719,1,8,0:0:0:0:
256,194,16084,1,8,0:0:0:0:
256,194,16450,1,0,0:0:0:0:
256,194,17730,1,0,0:0:0:0:
256,194,18279,1,8,0:0:0:0:
256,194,18645,1,0,0:0:0:0:
256,194,19559,1,0,0:0:0:0:
256,194,20108,1,8,0:0:0:0:
256,194,20840,1,8,0:0:0:0:
256,194,21206,1,0,0:0:0:0:
256,194,21571,1,0,0:0:0:0:
256,194,22303,1,8,0:0:0:0:
256,194,23584,1,0,0:0:0:0:
256,194,24132,1,8,0:0:0:0:
256,194,24498,1,8,0:0:0:0:
256,194,25413,1,0,0:0:0:0:
256,194,25962,1,8,0:0:0:0:
256,194,26876,1,0,0:0:0:0:
256,194,27425,1,0,0:0:0:0:
256,194,28340,1,8,0:0:0:0:
256,194,28889,1,0,0:0:0:0:
256,194,29620,1,8,0:0:0:0:
256,194,29986,1,0,0:0:0:0:
256,194,30352,1,0,0:0:0:0:
256,194,31085,1,0,0:0:0:0:
256,194,32182,1,8,0:0:0:0:
256,194,32548,1,8,0:0:0:0:
256,194,33280,1,8,0:0:0:0:
256,194,33645,1,8,0:0:0:0:
256,194,34011,1,0,0:0:0:0:
256,194,35109,1,8,0:0:0:0:
256,194,35475,1,8,0:0:0:0:
256,194,36206,1,8,0:0:0:0:
256,194,36938,1,0,0:0:0:0:
256,194,37670,1,8,0:0:0:0:
256,194,38402,1,0,0:0:0:0:
256,194,38767,1,8,0:0:0:0:
256,194,39133,1,8,0:0:0:0:
256,194,39865,1,0,0:0:0:0:
256,194,40597,1,0,0:0:0:0:
256,194,41328,1,8,0:0:0:0:
256,194,42792,1,0,0:0:0:0:
256,194,43524,1,0,0:0:0:0:
256,194,44255,1,8,0:0:0:0:
256,194,44621,1,8,0:0:0:0:
256,194,44987,1,0,0:0:0:0:
256,194,45719,1,0,0:0:0:0:
256,194,46450,1,8,0:0:0:0:
256,194,47365,1,12,0:0:0:0:
256,194,47914,1,12,0:0:0:0:
256,194,48645,1,0,0:0:0:0:
256,194,49011,1,8,0:0:0:0:
256,194,49377,1,0,0:0:0:0:
256,194,49926,1,0,0:0:0:0:
256,194,50475,1,8,0:0:0:0:
256,194,50841,1,8,0:0:0:0:
256,194,51572,1,0,0:0:0:0:
256,194,51938,1,8,0:0:0:0:
256,194,52304,1,8,0:0:0:0:
256,194,53036,1,4,0:0:0:0:
256,194,53767,1,4,0:0:0:0:
256,194,54499,1,0,0:0:0:0:
256,194,54865,1,8,0:0:0:0:
256,194,55231,1,8,0:0:0:0:
256,194,55780,1,0,0:0:0:0:
256,194,56328,1,8,0:0:0:0:
256,194,56694,1,0,0:0:0:0:
256,194,57426,1,0,0:0:0:0:
256,194,57792,1,8,0:0:0:0:
256,194,58158,1,8,0:0:0:0:
256,194,58889,1,0,0:0:0:0:
256,194,59621,1,8,0:0:0:0:
256,194,60353,1,0,0:0:0:0:
256,194,61450,1,8,0:0:0:0:
256,194,62182,1,0,0:0:0:0:
256,194,62548,1,0,0:0:0:0:
256,194,63280,1,4,0:0:0:0:
256,194,64011,1,8,0:0:0:0:
256,194,64743,1,0,0:0:0:0:
256,194,65109,1,12,0:0:0:0:
256,194,65475,1,12,0:0:0:0:
256,194,66206,1,0,0:0:0:0:
256,194,66572,1,8,0:0:0:0:
256,194,66938,1,8,0:0:0:0:
256,194,67670,1,0,0:0:0:0:
256,194,68402,1,8,0:0:0:0:
256,194,68767,1,0,0:0:0:0:
256,194,69499,1,8,0:0:0:0:
256,194,69865,1,8,0:0:0:0:
256,194,70597,1,0,0:0:0:0:
256,194,71328,1,8,0:0:0:0:
256,194,72060,1,0,0:0:0:0:
256,194,73524,1,0,0:0:0:0:
256,194,74804,1,8,0:0:0:0:
256,194,75353,1,0,0:0:0:0:
256,194,75719,1,0,0:0:0:0:
256,194,76633,1,0,0:0:0:0:
256,194,77182,1,8,0:0:0:0:
256,194,77914,1,8,0:0:0:0:
256,194,78280,1,8,0:0:0:0:
256,194,78645,1,0,0:0:0:0:
256,194,79377,1,0,0:0:0:0:
256,194,80658,1,0,0:0:0:0:
256,194,81206,1,8,0:0:0:0:
256,194,81572,1,0,0:0:0:0:
256,194,82487,1,0,0:0:0:0:
256,194,83036,1,8,0:0:0:0:
256,194,83950,1,0,0:0:0:0:
256,194,84499,1,8,0:0:0:0:
256,194,85414,1,8,0:0:0:0:
256,194,85963,1,0,0:0:0:0:
256,194,86694,1,8,0:0:0:0:
256,194,87060,1,0,0:0:0:0:
256,194,87426,1,12,0:0:0:0:
256,192,87792,12,0,91084,0:0:0:0:
