osu file format v14

[General]
AudioFilename: audio.mp3
AudioLeadIn: 0
PreviewTime: 44412
Countdown: 0
SampleSet: Soft
StackLeniency: 0.7
Mode: 0
LetterboxInBreaks: 0
WidescreenStoryboard: 0

[Editor]
Bookmarks: 46726,84698
DistanceSpacing: 0.5
BeatDivisor: 4
GridSize: 4
TimelineZoom: 1.3

[Metadata]
Title:Sweet Dreams (11t dnb mix)
TitleUnicode:Sweet Dreams (11t dnb mix)
Artist:Nishino Kana
ArtistUnicode:西野カナ
Creator:Moway
Version:Insane
Source:
Tags:eleventea
BeatmapID:1000757
BeatmapSetID:467810

[Difficulty]
HPDrainRate:6.2
CircleSize:4.2
OverallDifficulty:8
ApproachRate:9.1
SliderMultiplier:1.6
SliderTickRate:1

[Events]
//Background and Video events
0,0,"bga.jpg",0,0
//Break Periods
//Storyboard Layer 0 (Background)
//Storyboard Layer 1 (Fail)
//Storyboard Layer 2 (Pass)
//Storyboard Layer 3 (Foreground)
//Storyboard Sound Samples

[TimingPoints]
526.648229506472,342.857142857143,4,2,0,100,1,0
21098,-66.6666666666667,4,2,0,100,0,0
22469,-90.9090909090909,4,2,0,100,0,0
31383,-66.6666666666667,4,2,0,100,0,0
33440,-90.9090909090909,4,2,0,100,0,0
38926,-111.111111111111,4,2,0,100,0,0
41155,-90.9090909090909,4,2,0,100,0,0
44412,-100,4,2,0,100,0,0
50155,-80,4,2,0,100,0,0
50412,-66.6666666666667,4,2,0,100,0,0
50926,-57.1428571428571,4,2,0,100,0,0
51269,-100,4,2,0,100,0,0
51526,-80,4,2,0,100,0,0
51783,-66.6666666666667,4,2,0,100,0,0
52298,-57.1428571428571,4,2,0,100,0,0
54012,-90.9090909090909,4,2,0,100,0,0
55383,-80,4,2,0,100,0,0
56069,-66.6666666666667,4,2,0,100,0,0
56755,-90.9090909090909,4,2,0,100,0,0
58126,-80,4,2,0,100,0,0
58812,-66.6666666666667,4,2,0,100,0,0
59498,-90.9090909090909,4,2,0,100,0,0
60869,-80,4,2,0,100,0,0
61555,-66.6666666666667,4,2,0,100,0,0
62240,-90.9090909090909,4,2,0,100,0,0
63612,-80,4,2,0,100,0,0
66355,-90.9090909090909,4,2,0,100,0,0
69098,-100,4,2,0,100,0,0
78012,-66.6666666666667,4,2,0,100,0,0
80069,-90.9090909090909,4,2,0,100,0,0
88983,-66.6666666666667,4,2,0,100,0,0
91040,-90.9090909090909,4,2,0,100,0,0
96526,-111.111111111111,4,2,0,100,0,0
98755,-90.9090909090909,4,2,0,100,0,0
102012,-100,4,2,0,100,0,0
107755,-80,4,2,0,100,0,0
108012,-66.6666666666667,4,2,0,100,0,0
108869,-100,4,2,0,100,0,0
109126,-80,4,2,0,100,0,0
109383,-66.6666666666667,4,2,0,100,0,0
111612,-90.9090909090909,4,2,0,100,0,0
112983,-80,4,2,0,100,0,0
113669,-66.6666666666667,4,2,0,100,0,0
114355,-90.9090909090909,4,2,0,100,0,0
115726,-80,4,2,0,100,0,0
116412,-66.6666666666667,4,2,0,100,0,0
117098,-90.9090909090909,4,2,0,100,0,0
118469,-80,4,2,0,100,0,0
119155,-66.6666666666667,4,2,0,100,0,0
119840,-90.9090909090909,4,2,0,100,0,0
121212,-80,4,2,0,100,0,0
123955,-90.9090909090909,4,2,0,100,0,0
126698,-80,4,2,0,100,0,0
127040,-90.9090909090909,4,2,0,100,0,0
134583,-66.6666666666667,4,2,0,100,0,0
134926,-90.9090909090909,4,2,0,100,0,0

[Colours]
Combo1 : 255,128,255
Combo2 : 0,128,192
Combo3 : 255,128,64
Combo4 : 0,128,0

[HitObjects]
186,266,526,6,0,L|269:263,1,80
381,169,869,2,0,P|342:155|301:163,1,80
286,169,1126,1,0,0:0:0:0:
269,179,1212,1,0,0:0:0:0:
120,301,1383,1,0,0:0:0:0:
165,215,1555,1,0,0:0:0:0:
69,220,1726,1,0,0:0:0:0:
249,255,1898,6,0,P|255:204|250:176,1,80
173,114,2240,2,0,L|91:111,1,80
15,106,2498,1,0,0:0:0:0:
15,106,2583,1,0,0:0:0:0:
141,31,2755,1,0,0:0:0:0:
87,197,2926,1,0,0:0:0:0:
141,31,3098,1,0,0:0:0:0:
87,197,3269,6,0,B|80:242|80:242|89:281,1,80
186,358,3612,1,0,0:0:0:0:
212,190,3783,2,0,L|218:140,1,40
186,358,3955,1,0,0:0:0:0:
284,288,4126,1,0,0:0:0:0:
129,160,4298,1,0,0:0:0:0:
161,275,4469,6,0,P|200:260|225:233,1,80
116,148,4812,1,0,0:0:0:0:
69,261,4983,1,0,0:0:0:0:
27,118,5155,2,0,L|17:79,2,40
69,261,5498,1,0,0:0:0:0:
111,70,5669,1,0,0:0:0:0:
69,261,5840,1,0,0:0:0:0:
186,214,6012,6,0,L|285:212,1,80
415,164,6355,1,0,0:0:0:0:
361,258,6526,1,0,0:0:0:0:
361,258,6612,1,0,0:0:0:0:
361,258,6698,1,0,0:0:0:0:
337,101,6869,1,0,0:0:0:0:
443,243,7040,2,0,P|455:293|442:321,1,80
468,110,7383,5,0,0:0:0:0:
368,191,7555,1,0,0:0:0:0:
468,110,7726,1,0,0:0:0:0:
368,191,7898,2,0,L|319:181,1,40
204,145,8069,1,0,0:0:0:0:
321,89,8240,1,0,0:0:0:0:
264,253,8412,1,0,0:0:0:0:
243,71,8583,1,0,0:0:0:0:
184,226,8755,6,0,P|182:268|203:305,1,80
398,313,9098,2,0,L|315:322,1,80
253,361,9355,1,0,0:0:0:0:
253,361,9440,1,0,0:0:0:0:
331,245,9612,1,0,0:0:0:0:
202,194,9783,1,0,0:0:0:0:
115,302,9955,6,0,P|170:293|198:296,1,80
336,222,10298,1,0,0:0:0:0:
198,180,10469,2,0,P|188:140|197:99,1,80
209,73,10726,1,0,0:0:0:0:
230,48,10812,1,0,0:0:0:0:
249,280,10983,2,0,L|206:292,1,40
74,321,11155,1,0,0:0:0:0:
298,136,11326,1,0,0:0:0:0:
130,188,11498,5,0,0:0:0:0:
104,95,11669,1,0,0:0:0:0:
196,119,11840,1,0,0:0:0:0:
130,188,12012,2,0,L|110:233,2,40
167,47,12355,1,0,0:0:0:0:
198,240,12526,1,0,0:0:0:0:
167,47,12698,1,0,0:0:0:0:
254,162,12869,5,0,0:0:0:0:
339,205,13040,1,0,0:0:0:0:
425,162,13212,1,0,0:0:0:0:
235,162,13383,2,0,L|188:162,2,40
356,126,13726,1,0,0:0:0:0:
201,81,13898,1,0,0:0:0:0:
239,235,14069,1,0,0:0:0:0:
356,126,14240,5,0,0:0:0:0:
294,52,14412,1,0,0:0:0:0:
217,109,14583,1,0,0:0:0:0:
279,183,14755,2,0,P|302:197|326:200,2,40
125,125,15098,1,0,0:0:0:0:
328,121,15269,1,0,0:0:0:0:
225,65,15440,6,0,B|217:108|217:108|224:146,1,80
297,205,15783,1,0,0:0:0:0:
388,174,15955,1,0,0:0:0:0:
376,78,16126,2,0,P|366:55|372:34,2,40
427,256,16469,1,0,0:0:0:0:
447,120,16640,1,0,0:0:0:0:
342,272,16812,1,0,0:0:0:0:
286,60,16983,5,0,0:0:0:0:
206,66,17326,1,0,0:0:0:0:
126,72,17669,5,0,0:0:0:0:
286,60,17840,1,0,0:0:0:0:
126,72,18012,1,0,0:0:0:0:
286,60,18183,1,0,0:0:0:0:
126,72,18355,5,0,0:0:0:0:
132,152,18698,1,0,0:0:0:0:
138,232,19040,5,0,0:0:0:0:
126,72,19212,1,0,0:0:0:0:
138,232,19383,1,0,0:0:0:0:
126,72,19555,1,0,0:0:0:0:
138,232,19726,5,0,0:0:0:0:
264,277,19898,1,0,0:0:0:0:
358,104,20069,5,0,0:0:0:0:
232,149,20240,1,0,0:0:0:0:
355,291,20412,5,0,0:0:0:0:
273,60,20583,1,0,0:0:0:0:
277,246,20755,5,0,0:0:0:0:
359,15,20926,1,0,0:0:0:0:
215,156,21098,5,0,0:0:0:0:
182,178,21183,1,0,0:0:0:0:
142,173,21269,1,0,0:0:0:0:
120,139,21355,1,0,0:0:0:0:
133,101,21440,2,0,P|136:81|134:41,1,60.0000022888184
31,183,21612,5,0,0:0:0:0:
31,183,21698,1,0,0:0:0:0:
31,183,21783,2,0,P|28:203|30:243,1,60.0000022888184
188,304,21955,5,0,0:0:0:0:
188,304,22040,1,0,0:0:0:0:
188,304,22126,2,0,P|191:284|188:244,1,60.0000022888184
175,67,22298,6,0,P|172:87|177:128,1,60.0000022888184
292,214,22469,6,0,P|337:216|381:214,1,88.000002685547
462,149,22812,1,0,0:0:0:0:
368,103,22983,2,0,P|356:80|354:63,2,44.0000013427735
469,238,23326,1,0,0:0:0:0:
445,62,23498,1,0,0:0:0:0:
382,204,23669,1,0,0:0:0:0:
489,147,23840,5,0,0:0:0:0:
346,88,24012,1,0,0:0:0:0:
459,28,24183,1,0,0:0:0:0:
402,165,24355,2,0,L|381:205,1,44.0000013427735
284,182,24526,1,0,0:0:0:0:
365,75,24698,1,0,0:0:0:0:
445,261,24869,1,0,0:0:0:0:
244,239,25040,1,0,0:0:0:0:
365,75,25212,6,0,B|377:122|377:122|365:165,1,88.000002685547
320,300,25555,1,0,0:0:0:0:
230,226,25726,2,0,P|208:213|193:185,2,44.0000013427735
396,241,26069,1,0,0:0:0:0:
262,160,26240,1,0,0:0:0:0:
467,152,26412,6,0,P|433:155|379:149,1,88.000002685547
242,144,26755,1,0,0:0:0:0:
348,78,26926,1,0,0:0:0:0:
313,209,27098,2,0,P|309:231|313:256,1,44.0000013427735
401,324,27269,1,0,0:0:0:0:
389,176,27440,1,0,0:0:0:0:
321,330,27612,1,0,0:0:0:0:
469,170,27783,1,0,0:0:0:0:
305,240,27955,5,0,0:0:0:0:
243,133,28126,1,0,0:0:0:0:
352,76,28298,2,0,P|368:117|357:164,1,88.000002685547
305,240,28555,1,0,0:0:0:0:
305,240,28640,1,0,0:0:0:0:
156,204,28812,1,0,0:0:0:0:
279,124,28983,1,0,0:0:0:0:
153,101,29155,1,0,0:0:0:0:
255,218,29326,6,0,P|301:216|347:220,1,88.000002685547
419,151,29669,1,0,0:0:0:0:
379,300,29840,2,0,L|366:349,2,44.0000013427735
424,136,30183,1,0,0:0:0:0:
339,225,30355,1,0,0:0:0:0:
303,107,30526,1,0,0:0:0:0:
429,222,30698,5,0,0:0:0:0:
391,43,30869,1,0,0:0:0:0:
356,170,31040,1,0,0:0:0:0:
471,82,31212,1,0,0:0:0:0:
291,233,31383,6,0,P|266:219|256:191,1,60.0000022888184
266,246,31555,6,0,P|251:221|256:192,1,60.0000022888184
238,243,31726,6,0,P|237:214|256:191,1,60.0000022888184
214,228,31898,6,0,P|228:203|256:192,1,60.0000022888184
384,296,32069,5,0,0:0:0:0:
312,305,32412,1,0,0:0:0:0:
240,311,32755,1,0,0:0:0:0:
168,318,33098,6,0,L|156:282,7,30.0000011444092
168,318,33440,6,0,L|275:307,1,88.000002685547
422,304,33783,1,0,0:0:0:0:
320,251,33955,2,0,P|293:245|262:230,1,44.0000013427735
406,200,34126,1,0,0:0:0:0:
340,349,34298,1,0,0:0:0:0:
414,181,34469,1,0,0:0:0:0:
446,324,34640,1,0,0:0:0:0:
285,268,34812,5,0,0:0:0:0:
397,254,34983,1,0,0:0:0:0:
328,163,35155,1,0,0:0:0:0:
285,268,35326,1,0,0:0:0:0:
277,288,35412,1,0,0:0:0:0:
270,309,35498,1,0,0:0:0:0:
335,140,35669,1,0,0:0:0:0:
385,305,35840,1,0,0:0:0:0:
241,107,36012,1,0,0:0:0:0:
386,224,36183,5,0,0:0:0:0:
478,276,36355,1,0,0:0:0:0:
512,176,36526,1,0,0:0:0:0:
366,229,36698,2,0,P|342:229|321:222,2,44.0000013427735
420,139,37040,1,0,0:0:0:0:
368,327,37212,1,0,0:0:0:0:
286,101,37383,6,0,L|272:10,1,88.000002685547
231,247,37726,2,0,L|217:338,1,88.000002685547
406,232,38069,2,0,P|430:233|457:228,2,44.0000013427735
208,170,38412,1,0,0:0:0:0:
404,150,38583,1,0,0:0:0:0:
220,82,38755,1,0,0:0:0:0:
416,62,38926,6,0,B|445:62|445:62|455:58|466:60|466:60|493:60,1,71.9999978027344
300,309,39269,6,0,B|329:309|329:309|339:313|350:311|350:311|377:311,1,71.9999978027344
195,54,39612,6,0,B|224:54|224:54|234:50|245:52|245:52|272:52,1,71.9999978027344
79,301,39955,6,0,B|108:301|108:301|118:305|129:303|129:303|156:303,1,71.9999978027344
398,45,40298,6,0,B|407:82|407:82|396:122,1,71.9999978027344
256,350,40640,6,0,B|247:313|247:313|258:273,1,71.9999978027344
181,55,40983,5,0,0:0:0:0:
118,173,41155,2,0,P|113:192|119:217,1,44.0000013427735
247,169,41326,1,0,0:0:0:0:
89,61,41498,1,0,0:0:0:0:
41,260,41669,6,0,B|86:203|144:221|144:221|204:244,1,176.000005371094
404,317,42183,2,0,P|350:301|308:232,1,132.00000402832
401,224,42526,5,0,0:0:0:0:
240,334,42698,1,0,0:0:0:0:
165,90,42869,1,0,0:0:0:0:
165,90,43212,5,0,0:0:0:0:
134,180,43383,1,0,0:0:0:0:
165,90,43555,5,0,0:0:0:0:
190,261,43726,1,0,0:0:0:0:
165,90,43898,5,0,0:0:0:0:
279,307,44069,1,0,0:0:0:0:
412,100,44240,1,0,0:0:0:0:
165,90,44412,6,0,B|248:90,1,80
245,90,44669,2,0,P|229:134|240:208,1,120
153,337,45098,2,0,P|160:285|149:254,1,80
151,259,45355,2,0,B|198:281|198:281|285:281,1,120
468,212,45783,6,0,B|431:201|431:201|387:212,1,80
390,211,46040,2,0,P|409:256|350:244,1,120
268,194,46469,1,0,0:0:0:0:
194,162,46640,1,0,0:0:0:0:
203,241,46812,1,0,0:0:0:0:
268,194,46983,1,0,0:0:0:0:
194,162,47155,6,0,P|177:129|189:90,1,80
189,89,47412,2,0,B|237:89|237:89|270:100|270:100|310:100,1,120
436,248,47840,2,0,L|356:248,1,80
356,248,48098,2,0,B|340:296|340:296|268:296,1,120
92,298,48526,6,0,P|84:254|91:215,1,80
180,45,48869,2,0,P|188:89|181:128,1,80
92,298,49212,2,0,L|5:290,1,80
102,116,49555,2,0,L|189:124,1,80
330,115,49898,6,0,P|354:150|333:172,1,80
359,185,50155,6,0,P|381:139|350:91,1,100
399,91,50412,6,0,P|423:137|420:160,1,60.0000022888184
326,254,50583,1,0,0:0:0:0:
325,42,50755,1,0,0:0:0:0:
393,275,50926,6,0,P|326:326|257:241,1,210.000002002716
182,115,51269,6,0,P|158:150|179:172,1,80
153,185,51526,6,0,P|131:139|162:91,1,100
113,91,51783,6,0,P|89:137|92:160,1,60.0000022888184
186,254,51954,1,0,0:0:0:0:
187,42,52126,1,0,0:0:0:0:
119,275,52298,6,0,P|186:326|255:241,1,210.000002002716
256,56,52640,5,0,0:0:0:0:
123,124,52812,1,0,0:0:0:0:
310,136,52983,1,0,0:0:0:0:
163,38,53155,1,0,0:0:0:0:
134,266,53326,5,0,0:0:0:0:
262,29,53498,1,0,0:0:0:0:
291,257,53669,1,0,0:0:0:0:
86,125,53840,1,0,0:0:0:0:
219,174,54012,5,0,0:0:0:0:
259,188,54097,1,0,0:0:0:0:
302,180,54183,1,0,0:0:0:0:
333,150,54269,1,0,0:0:0:0:
345,108,54354,1,0,0:0:0:0:
332,67,54440,1,0,0:0:0:0:
300,38,54526,1,0,0:0:0:0:
257,30,54611,1,0,0:0:0:0:
217,46,54698,6,0,L|201:109,1,44.0000013427735
284,294,54869,2,0,L|295:252,1,44.0000013427735
273,111,55040,1,0,0:0:0:0:
210,198,55211,1,0,0:0:0:0:
141,41,55383,6,0,P|98:35|127:100,1,150
109,159,55726,2,0,P|168:143|124:99,1,150
35,138,56069,6,0,B|10:168|24:199|24:199|69:236,1,120.000004577637
233,239,56326,2,0,P|164:239|129:278,1,120.000004577637
9,283,56583,2,0,L|58:316,1,60.0000022888184
223,340,56755,5,0,0:0:0:0:
163,162,56926,1,0,0:0:0:0:
223,340,57098,1,0,0:0:0:0:
163,162,57269,2,0,L|207:154,1,44.0000013427735
387,206,57440,2,0,P|338:204|297:214,1,88.000002685547
124,259,57698,2,0,P|173:261|214:251,1,88.000002685547
261,135,57955,2,0,L|273:89,1,44.0000013427735
403,67,58126,6,0,B|425:117|425:117|406:174|345:150,1,150
297,236,58469,2,0,B|275:186|275:186|294:129|355:153,1,150
467,193,58812,6,0,B|434:229|386:230|386:230|407:252,1,120.000004577637
359,363,59069,2,0,P|313:326|349:293,1,120.000004577637
495,338,59326,2,0,L|436:349,1,60.0000022888184
224,365,59498,5,0,0:0:0:0:
268,185,59669,1,0,0:0:0:0:
268,136,59755,1,0,0:0:0:0:
228,108,59840,1,0,0:0:0:0:
179,107,59926,1,0,0:0:0:0:
146,142,60012,2,0,L|132:194,1,44.0000013427735
98,337,60183,2,0,P|57:342|38:306,1,88.000002685547
0,183,60440,2,0,P|40:177|59:213,1,88.000002685547
186,281,60698,1,0,0:0:0:0:
186,281,60783,1,0,0:0:0:0:
186,281,60869,6,0,B|230:178|230:178|181:198,1,150
132,133,61212,2,0,B|88:236|88:236|137:216,1,150
262,107,61555,6,0,B|287:42|287:42|234:65,1,120.000004577637
171,62,61812,2,0,P|143:25|176:39,1,120.000004577637
262,107,62069,2,0,L|234:172,1,60.0000022888184
166,327,62240,5,0,0:0:0:0:
140,175,62412,2,0,L|130:124,2,44.0000013427735
166,327,62755,1,0,0:0:0:0:
166,327,62840,1,0,0:0:0:0:
166,327,62926,2,0,L|211:319,1,44.0000013427735
347,251,63098,1,0,0:0:0:0:
347,251,63183,1,0,0:0:0:0:
347,251,63269,2,0,L|302:259,1,44.0000013427735
144,244,63440,1,0,0:0:0:0:
144,244,63526,1,0,0:0:0:0:
144,244,63612,6,0,B|93:221|69:169|98:132|98:132|169:158,1,200
371,114,64126,2,0,B|422:137|446:189|417:226|417:226|346:200,1,200
260,173,64555,1,0,0:0:0:0:
260,173,64640,2,0,L|236:239,1,50
199,343,64812,5,0,0:0:0:0:
148,196,65155,5,0,0:0:0:0:
199,343,65326,1,0,0:0:0:0:
148,196,65498,1,0,0:0:0:0:
199,343,65669,1,0,0:0:0:0:
238,338,65755,1,0,0:0:0:0:
277,333,65840,1,0,0:0:0:0:
316,329,65926,1,0,0:0:0:0:
355,325,66012,1,0,0:0:0:0:
167,348,66183,5,0,0:0:0:0:
388,318,66355,2,0,P|407:280|394:236,1,88.000002685547
373,238,66612,1,0,0:0:0:0:
350,238,66698,1,0,0:0:0:0:
222,274,66869,1,0,0:0:0:0:
296,167,67040,2,0,P|297:137|292:119,2,44.0000013427735
285,350,67383,1,0,0:0:0:0:
65,184,69098,6,0,P|105:170|165:183,1,80
159,182,69355,1,0,0:0:0:0:
173,195,69440,1,0,0:0:0:0:
258,318,69612,2,0,L|217:318,1,40
126,322,69783,2,0,P|114:284|122:233,1,80
117,244,70040,2,0,B|131:206|131:206|118:163,1,80
119,168,70298,2,0,L|61:178,1,40
193,105,70469,6,0,L|218:195,1,80
214,182,70726,1,0,0:0:0:0:
214,182,70812,1,0,0:0:0:0:
250,312,70983,2,0,L|288:300,1,40
361,257,71155,2,0,P|316:228|288:229,1,80
225,172,71412,2,0,P|270:143|298:144,1,80
198,251,71669,2,0,L|176:292,1,40
53,279,71840,5,0,0:0:0:0:
120,155,72012,2,0,P|127:131|124:109,1,40
35,188,72183,1,0,0:0:0:0:
136,330,72355,1,0,0:0:0:0:
169,343,72440,1,0,0:0:0:0:
204,339,72526,2,0,L|282:325,1,80
238,252,72783,2,0,L|316:238,1,80
406,220,73040,2,0,L|415:280,1,40
365,333,73212,5,0,0:0:0:0:
340,163,73383,2,0,L|334:123,2,40
273,289,73726,1,0,0:0:0:0:
273,289,73812,1,0,0:0:0:0:
273,289,73898,2,0,B|241:316|241:316|195:316,1,80
63,292,74155,2,0,B|95:265|95:265|141:265,1,80
206,233,74412,2,0,L|222:184,1,40
144,114,74583,5,0,0:0:0:0:
69,184,74755,1,0,0:0:0:0:
69,184,74840,1,0,0:0:0:0:
69,184,74926,1,0,0:0:0:0:
46,84,75098,1,0,0:0:0:0:
46,84,75183,1,0,0:0:0:0:
46,84,75269,2,0,P|87:91|99:60,1,80
152,38,75526,2,0,P|111:31|99:62,1,80
165,125,75783,2,0,L|165:176,1,40
161,255,75955,6,0,B|157:293|157:293|98:267,1,80
101,266,76212,1,0,0:0:0:0:
83,256,76298,1,0,0:0:0:0:
231,308,76469,2,0,L|285:299,1,40
350,272,76640,2,0,P|326:239|287:222,1,80
166,236,76898,2,0,P|201:218|224:186,1,80
276,111,77155,2,0,P|286:131|286:161,1,40
228,324,77326,6,0,L|144:321,1,80
93,233,77583,1,0,0:0:0:0:
93,233,77669,2,0,L|177:236,1,80
256,192,77926,5,0,0:0:0:0:
256,192,78012,2,0,P|253:156|264:134,1,60.0000022888184
256,192,78183,6,0,P|291:189|314:200,1,60.0000022888184
256,192,78355,6,0,P|258:227|248:250,1,60.0000022888184
256,192,78526,6,0,P|220:194|198:184,1,60.0000022888184
43,105,78698,5,0,0:0:0:0:
114,111,79040,1,0,0:0:0:0:
185,117,79383,1,0,0:0:0:0:
257,118,79726,6,0,L|303:101,7,30.0000011444092
257,118,80112,6,0,L|235:221,1,88.000002685547
165,274,80412,1,0,0:0:0:0:
142,133,80583,2,0,L|136:90,2,44.0000013427735
94,214,80926,1,0,0:0:0:0:
226,172,81098,1,0,0:0:0:0:
56,125,81269,1,0,0:0:0:0:
34,286,81440,5,0,0:0:0:0:
134,150,81612,1,0,0:0:0:0:
15,205,81783,1,0,0:0:0:0:
121,284,81955,2,0,P|148:287|175:281,1,44.0000013427735
211,203,82126,1,0,0:0:0:0:
66,160,82298,1,0,0:0:0:0:
223,94,82469,1,0,0:0:0:0:
54,51,82641,1,0,0:0:0:0:
145,150,82812,5,0,0:0:0:0:
147,22,82983,1,0,0:0:0:0:
62,136,83155,1,0,0:0:0:0:
113,235,83326,1,0,0:0:0:0:
113,235,83412,1,0,0:0:0:0:
113,235,83498,1,0,0:0:0:0:
218,195,83669,1,0,0:0:0:0:
142,157,83840,1,0,0:0:0:0:
37,268,84012,6,0,B|25:314|25:314|37:356,1,88.000002685547
36,183,84355,2,0,B|48:229|48:229|36:267,1,88.000002685547
36,98,84698,2,0,B|24:144|24:144|36:186,1,88.000002685547
31,54,85040,2,0,L|36:98,1,44.0000013427735
133,170,85212,1,0,0:0:0:0:
227,96,85383,1,0,0:0:0:0:
134,20,85555,5,0,0:0:0:0:
133,149,85726,1,0,0:0:0:0:
52,56,85898,2,0,P|42:94|53:146,1,88.000002685547
246,149,86240,1,0,0:0:0:0:
150,100,86412,1,0,0:0:0:0:
95,228,86583,2,0,L|192:217,1,88.000002685547
344,96,86926,5,0,0:0:0:0:
222,37,87098,1,0,0:0:0:0:
294,179,87269,2,0,P|302:228|291:275,1,88.000002685547
227,113,87612,1,0,0:0:0:0:
198,312,87783,1,0,0:0:0:0:
385,236,87955,1,0,0:0:0:0:
218,213,88126,2,0,L|161:206,1,44.0000013427735
40,186,88298,5,0,0:0:0:0:
220,117,88469,1,0,0:0:0:0:
355,297,88640,1,0,0:0:0:0:
175,228,88811,1,0,0:0:0:0:
364,104,88983,6,0,P|391:93|406:67,1,60.0000022888184
364,104,89155,6,0,P|382:81|381:52,1,60.0000022888184
364,104,89326,6,0,P|369:75|354:49,1,60.0000022888184
364,105,89498,6,0,P|354:77|329:62,1,60.0000022888184
193,48,89669,5,0,0:0:0:0:
168,115,90012,1,0,0:0:0:0:
143,182,90355,1,0,0:0:0:0:
118,249,90698,6,0,L|76:256,7,30.0000011444092
118,249,91040,6,0,B|166:260|166:260|185:253|208:225|188:192,1,132.00000402832
133,127,91383,1,0,0:0:0:0:
96,325,91555,2,0,L|90:368,2,44.0000013427735
49,173,91898,1,0,0:0:0:0:
187,280,92069,1,0,0:0:0:0:
16,268,92240,1,0,0:0:0:0:
158,169,92412,5,0,0:0:0:0:
197,300,92583,1,0,0:0:0:0:
254,205,92755,1,0,0:0:0:0:
85,205,92926,2,0,P|75:176|74:161,2,44.0000013427735
206,330,93269,1,0,0:0:0:0:
147,111,93440,1,0,0:0:0:0:
102,303,93612,1,0,0:0:0:0:
280,259,93783,5,0,0:0:0:0:
175,212,93955,1,0,0:0:0:0:
267,145,94126,1,0,0:0:0:0:
204,295,94298,2,0,P|194:319|180:334,1,44.0000013427735
82,340,94469,1,0,0:0:0:0:
225,291,94640,1,0,0:0:0:0:
68,243,94812,1,0,0:0:0:0:
182,332,94983,6,0,P|226:324|269:337,1,88.000002685547
382,261,95326,1,0,0:0:0:0:
276,212,95498,1,0,0:0:0:0:
346,338,95669,2,0,P|360:356|347:368,1,44.0000013427735
226,343,95840,1,0,0:0:0:0:
404,257,96012,1,0,0:0:0:0:
197,340,96183,1,0,0:0:0:0:
433,260,96355,1,0,0:0:0:0:
166,335,96526,6,0,B|135:334|135:334|119:325|86:329,1,71.9999978027344
232,101,96869,6,0,B|201:101|201:101|185:111|152:107,1,71.9999978027344
371,351,97212,6,0,B|340:350|340:350|324:341|300:344,1,71.9999978027344
459,63,97555,6,0,B|428:63|428:63|412:73|388:69,1,71.9999978027344
176,103,97898,6,0,B|181:71|181:71|174:54|181:31,1,71.9999978027344
336,281,98240,6,0,B|331:313|331:313|338:330|331:353,1,71.9999978027344
336,103,98583,5,0,0:0:0:0:
209,201,98755,2,0,P|185:208|160:206,1,44.0000013427735
55,114,98926,1,0,0:0:0:0:
185,24,99098,1,0,0:0:0:0:
304,258,99269,6,0,B|347:247|361:194|339:147|339:147|290:175,1,176.000005371094
116,220,99783,2,0,B|55:238|55:238|128:285,1,132.00000402832
214,256,100126,5,0,0:0:0:0:
171,45,100298,1,0,0:0:0:0:
214,256,100469,1,0,0:0:0:0:
171,45,100812,5,0,0:0:0:0:
96,119,100983,1,0,0:0:0:0:
114,223,101155,1,0,0:0:0:0:
214,256,101326,2,0,P|246:223|262:284,1,132.00000402832
204,329,101669,2,0,B|175:334|155:320|155:320|129:332|129:332|108:321|79:329,1,132.00000402832
387,318,102012,5,0,0:0:0:0:
125,66,102698,1,0,0:0:0:0:
387,66,103383,6,0,B|397:110|397:110|384:145,1,80
384,142,103640,2,0,P|331:113|277:138,1,120
201,63,104069,1,0,0:0:0:0:
168,163,104240,1,0,0:0:0:0:
201,63,104412,1,0,0:0:0:0:
168,163,104583,1,0,0:0:0:0:
237,243,104755,6,0,L|317:242,1,80
316,242,105012,2,0,B|301:184|301:184|317:122,1,120
444,247,105440,2,0,L|426:330,1,80
427,325,105698,2,0,B|370:307|357:333|301:314,1,120
82,257,106126,6,0,B|38:255|38:255|7:277,1,80
223,146,106469,2,0,B|267:148|267:148|298:126,1,80
80,91,106812,2,0,P|63:131|69:173,1,80
225,312,107155,2,0,P|242:272|236:230,1,80
303,76,107498,6,0,L|409:65,1,80
398,90,107755,6,0,L|293:102,1,100
282,131,108012,6,0,L|342:126,1,60.0000022888184
483,90,108183,1,0,0:0:0:0:
236,49,108355,2,0,L|209:34,3,30.0000011444092
236,49,108526,2,0,B|233:97|201:111|201:111|218:147|218:147|186:163|196:201,1,180.000006866455
209,308,108869,6,0,L|103:319,1,80
114,294,109126,6,0,L|219:282,1,100
230,253,109383,6,0,L|170:258,1,60.0000022888184
29,294,109554,1,0,0:0:0:0:
276,335,109726,2,0,L|303:350,3,30.0000011444092
276,335,109897,2,0,B|279:287|311:273|311:273|294:237|294:237|326:221|316:183,1,180.000006866455
290,41,110240,5,0,0:0:0:0:
213,221,110412,1,0,0:0:0:0:
170,11,110583,1,0,0:0:0:0:
99,281,110755,1,0,0:0:0:0:
306,81,110926,5,0,0:0:0:0:
126,158,111098,1,0,0:0:0:0:
336,201,111269,1,0,0:0:0:0:
66,272,111441,1,0,0:0:0:0:
215,340,111612,5,0,0:0:0:0:
236,344,111698,1,0,0:0:0:0:
257,342,111783,1,0,0:0:0:0:
278,337,111869,1,0,0:0:0:0:
295,323,111955,5,0,0:0:0:0:
324,290,112040,1,0,0:0:0:0:
337,247,112126,1,0,0:0:0:0:
350,204,112212,1,0,0:0:0:0:
355,160,112298,6,0,L|363:109,1,44.0000013427735
293,15,112469,2,0,L|286:58,1,44.0000013427735
438,177,112640,1,0,0:0:0:0:
380,28,112812,1,0,0:0:0:0:
244,140,112983,6,0,B|136:160|136:160|168:124,1,150
289,66,113326,2,0,P|326:111|297:209,1,150
244,235,113669,6,0,L|126:257,1,120.000004577637
315,314,113926,2,0,B|371:301|371:301|316:269,1,120.000004577637
310,196,114183,2,0,L|258:164,1,60.0000022888184
133,77,114355,5,0,0:0:0:0:
149,233,114526,1,0,0:0:0:0:
149,233,114612,1,0,0:0:0:0:
149,233,114698,2,0,P|167:186|157:152,1,88.000002685547
198,305,114955,1,0,0:0:0:0:
198,305,115040,2,0,L|302:332,1,88.000002685547
372,342,115298,2,0,P|407:313|374:294,1,88.000002685547
312,222,115555,2,0,L|264:210,1,44.0000013427735
100,177,115726,6,0,B|60:162|60:162|114:141|166:153,1,150
353,89,116069,2,0,B|393:104|393:104|339:125|287:113,1,150
158,81,116412,6,0,B|171:45|166:10|166:10|184:13|205:48,1,120.000004577637
231,169,116669,2,0,B|255:198|288:211|288:211|276:225|236:226,1,120.000004577637
117,188,116926,2,0,B|79:194|51:216|51:216|45:199,1,60.0000022888184
279,77,117098,5,0,0:0:0:0:
360,174,117269,1,0,0:0:0:0:
360,174,117355,1,0,0:0:0:0:
360,174,117440,2,0,P|367:210|363:226,1,44.0000013427735
281,337,117612,2,0,P|274:301|278:285,1,44.0000013427735
255,127,117783,2,0,B|274:181|274:181|256:212,1,88.000002685547
181,283,118040,2,0,B|124:272|124:272|106:240,1,88.000002685547
82,139,118298,2,0,B|119:95|119:95,1,44.0000013427735
242,42,118469,6,0,B|298:33|330:79|330:79|361:42,1,150
351,150,118812,2,0,B|295:159|263:113|263:113|232:150,1,150
165,199,119155,6,0,P|166:251|214:226,1,120.000004577637
165,199,119412,2,0,P|128:236|180:252,1,120.000004577637
165,199,119669,2,0,P|111:220|123:243,1,60.0000022888184
190,342,119840,5,0,0:0:0:0:
341,319,120012,2,0,L|401:307,2,44.0000013427735
190,342,120355,2,0,L|146:350,1,44.0000013427735
50,335,120526,1,0,0:0:0:0:
45,313,120612,1,0,0:0:0:0:
40,291,120698,1,0,0:0:0:0:
35,269,120783,1,0,0:0:0:0:
30,247,120869,5,0,0:0:0:0:
73,254,120955,1,0,0:0:0:0:
115,261,121040,1,0,0:0:0:0:
157,272,121126,1,0,0:0:0:0:
200,281,121212,6,0,B|244:283|297:252|297:252|317:294|269:344,1,200
312,103,121726,2,0,B|268:101|215:132|215:132|195:90|243:40,1,200
385,41,122155,1,0,0:0:0:0:
385,41,122240,2,0,L|396:117,1,50
414,269,122412,5,0,0:0:0:0:
414,269,122755,1,0,0:0:0:0:
256,294,122926,1,0,0:0:0:0:
314,144,123098,1,0,0:0:0:0:
328,238,123269,1,0,0:0:0:0:
331,262,123355,1,0,0:0:0:0:
335,286,123440,1,0,0:0:0:0:
339,310,123526,1,0,0:0:0:0:
343,334,123612,1,0,0:0:0:0:
415,158,123783,1,0,0:0:0:0:
240,233,123955,6,0,P|191:244|156:234,1,88.000002685547
155,233,124212,1,0,0:0:0:0:
155,233,124298,1,0,0:0:0:0:
275,133,124469,1,0,0:0:0:0:
295,303,124640,2,0,L|300:347,2,44.0000013427735
268,44,124983,1,0,0:0:0:0:
190,102,125669,5,0,0:0:0:0:
162,212,125840,1,0,0:0:0:0:
79,74,126012,1,0,0:0:0:0:
248,176,126183,2,0,L|296:168,1,44.0000013427735
249,30,126355,1,0,0:0:0:0:
50,184,126526,1,0,0:0:0:0:
50,184,126612,1,0,0:0:0:0:
50,184,126698,6,0,P|44:238|112:214,1,150
188,178,127040,6,0,P|194:221|185:264,1,88.000002685547
109,137,127383,1,0,0:0:0:0:
235,103,127555,1,0,0:0:0:0:
151,58,127726,1,0,0:0:0:0:
269,198,127898,6,0,B|312:214|312:214|361:200,1,88.000002685547
465,154,128240,1,0,0:0:0:0:
376,89,128412,1,0,0:0:0:0:
429,240,128583,2,0,P|436:286|429:337,1,88.000002685547
283,208,128926,1,0,0:0:0:0:
283,208,129012,1,0,0:0:0:0:
283,208,129098,2,0,L|269:154,1,44.0000013427735
226,54,129269,2,0,L|214:96,1,44.0000013427735
176,200,129440,6,0,L|76:188,1,88.000002685547
280,294,129783,2,0,L|367:304,1,88.000002685547
174,276,130126,1,0,0:0:0:0:
296,168,130298,2,0,P|302:144|300:117,2,44.0000013427735
174,276,130640,6,0,B|153:302|153:302|169:360,1,88.000002685547
166,125,130983,1,0,0:0:0:0:
80,204,131155,1,0,0:0:0:0:
87,112,131326,1,0,0:0:0:0:
69,285,131498,1,0,0:0:0:0:
167,202,131669,1,0,0:0:0:0:
5,178,131840,1,0,0:0:0:0:
176,112,132012,1,0,0:0:0:0:
15,280,132183,6,0,P|55:274|110:280,1,88.000002685547
332,208,132526,2,0,P|292:214|237:208,1,88.000002685547
124,144,132869,1,0,0:0:0:0:
208,57,133040,1,0,0:0:0:0:
208,57,133126,1,0,0:0:0:0:
208,57,133212,2,0,L|226:116,1,44.0000013427735
283,305,133383,5,0,0:0:0:0:
283,305,133726,1,0,0:0:0:0:
296,193,133898,1,0,0:0:0:0:
283,305,134069,2,0,P|313:332|353:305,1,88.000002685547
390,153,134412,1,0,0:0:0:0:
283,305,134583,6,0,P|313:325|365:273,1,120.000004577637
146,263,134926,6,0,L|54:254,1,88.000002685547
275,172,135269,2,0,L|367:163,1,88.000002685547
136,104,135612,1,0,0:0:0:0:
252,264,135783,1,0,0:0:0:0:
252,264,135869,1,0,0:0:0:0:
252,264,135955,2,0,B|278:303|278:303|266:349,1,88.000002685547
101,195,136298,5,0,0:0:0:0:
297,144,136469,1,0,0:0:0:0:
28,123,136640,5,0,0:0:0:0:
224,174,136811,1,0,0:0:0:0:
107,33,136983,6,0,L|110:86,1,44.0000013427735
182,300,137155,2,0,L|179:247,1,44.0000013427735
220,70,137326,1,0,0:0:0:0:
261,56,137412,1,0,0:0:0:0:
305,57,137498,1,0,0:0:0:0:
344,75,137583,1,0,0:0:0:0:
378,103,137669,5,0,0:0:0:0:
378,103,138012,1,0,0:0:0:0:
378,103,138355,1,0,0:0:0:0:
336,180,138526,1,0,0:0:0:0:
336,180,138612,1,0,0:0:0:0:
336,180,138698,1,0,0:0:0:0:
367,261,138869,5,0,0:0:0:0:
367,261,139212,1,0,0:0:0:0:
336,180,139383,1,0,0:0:0:0:
369,272,139555,2,0,P|320:267|269:276,1,88.000002685547
109,331,139898,1,0,0:0:0:0:
152,333,139983,1,0,0:0:0:0:
194,322,140069,2,0,L|205:269,1,44.0000013427735
112,183,140240,2,0,L|120:226,1,44.0000013427735
279,347,140412,5,0,0:0:0:0:
279,347,140755,1,0,0:0:0:0:
279,347,141098,1,0,0:0:0:0:
243,266,141269,1,0,0:0:0:0:
243,266,141355,1,0,0:0:0:0:
243,266,141440,1,0,0:0:0:0:
330,277,141612,5,0,0:0:0:0:
330,277,141955,1,0,0:0:0:0:
196,339,142126,2,0,B|171:345|171:345|104:330,1,88.000002685547
53,169,142469,2,0,L|55:269,1,88.000002685547
134,114,142812,2,0,P|137:138|157:157,1,44.0000013427735
232,212,142983,2,0,L|293:211,1,44.0000013427735
360,152,143155,5,0,0:0:0:0:
360,152,143498,1,0,0:0:0:0:
360,152,143840,1,0,0:0:0:0:
289,98,144012,1,0,0:0:0:0:
289,98,144098,1,0,0:0:0:0:
289,98,144183,1,0,0:0:0:0:
219,152,144355,5,0,0:0:0:0:
219,152,144698,1,0,0:0:0:0:
289,98,144869,1,0,0:0:0:0:
210,164,145040,2,0,L|177:78,1,88.000002685547
239,17,145383,1,0,0:0:0:0:
114,157,145555,2,0,L|103:214,1,44.0000013427735
207,329,145726,2,0,L|198:285,1,44.0000013427735
74,329,145898,5,0,0:0:0:0:
74,329,146240,1,0,0:0:0:0:
74,329,146583,1,0,0:0:0:0:
204,209,146755,1,0,0:0:0:0:
204,209,146840,1,0,0:0:0:0:
204,209,146926,2,0,L|154:193,1,44.0000013427735
34,157,147098,2,0,L|44:206,1,44.0000013427735
74,329,147269,5,0,0:0:0:0:
124,117,147440,1,0,0:0:0:0:
242,241,147612,5,0,0:0:0:0:
192,29,147783,1,0,0:0:0:0:
42,240,147955,6,0,L|89:233,1,44.0000013427735
290,221,148126,2,0,L|243:214,1,44.0000013427735
152,124,148298,5,0,0:0:0:0:
110,110,148383,1,0,0:0:0:0:
110,66,148469,1,0,0:0:0:0:
152,53,148555,1,0,0:0:0:0:
178,88,148640,1,0,0:0:0:0:
