osu file format v14

[General]
AudioFilename: Nishino Kana - Story.mp3
AudioLeadIn: 1004
PreviewTime: 11892
Countdown: 0
SampleSet: Soft
StackLeniency: 0.7
Mode: 0
LetterboxInBreaks: 1
EpilepsyWarning: 1
WidescreenStoryboard: 0

[Editor]
Bookmarks: -1018,500,2018,6575,8094,9613,11702,12651,24803,58221,60120,61259,73411,81006,83284,85563,94677,109867,113284,131132,133031,134170,146322,147841,148126,148221,153917,156196,158474,176702,182778,184867,185816,196449,197968,210120,217715,219993,222272,226829,231386,234424,235943
DistanceSpacing: 1
BeatDivisor: 8
GridSize: 4
TimelineZoom: 1.6

[Metadata]
Title:Story
TitleUnicode:Story
Artist:Nishino Kana
ArtistUnicode:西野カナ
Creator:Kanari
Version:End
Source:
Tags:Believe
BeatmapID:672696
BeatmapSetID:299910

[Difficulty]
HPDrainRate:6.5
CircleSize:4
OverallDifficulty:6
ApproachRate:8
SliderMultiplier:2.8
SliderTickRate:1

[Events]
//Background and Video events
0,0,"Background.jpg",0,0
//Break Periods
2,700,8094
2,85763,93158
2,186016,196449
2,222471,226079
//Storyboard Layer 0 (Background)
//Storyboard Layer 1 (Fail)
//Storyboard Layer 2 (Pass)
//Storyboard Layer 3 (Foreground)
//Storyboard Sound Samples

[TimingPoints]
500,759.493670886076,4,2,1,30,1,0
12651,-100,4,2,1,70,0,1
18727,-100,4,2,1,50,0,1
19107,-100,4,2,1,70,0,1
21765,-100,4,2,2,70,0,1
22430,-100,4,2,1,70,0,1
22620,-100,4,2,2,70,0,1
23949,-100,4,2,1,70,0,1
24139,-100,4,2,2,70,0,1
24803,-100,4,2,1,60,0,0
36955,-100,4,2,1,30,0,0
37240,-100,4,2,1,60,0,0
49107,-100,4,2,1,40,0,0
49487,-100,4,2,1,60,0,0
58221,-100,4,2,1,40,0,0
61259,-100,4,2,1,70,0,1
67335,-100,4,2,1,50,0,1
67715,-100,4,2,1,70,0,1
73316,-100,4,2,1,70,0,0
73411,-100,4,2,1,70,0,1
79487,-100,4,2,1,50,0,1
79867,-100,4,2,1,70,0,1
84044,-133.333333333333,4,2,1,70,0,1
85563,-100,4,2,1,70,0,0
109867,-100,4,2,1,40,0,0
110246,-100,4,2,1,60,0,0
122018,-100,4,2,1,40,0,0
122208,-100,4,2,1,60,0,0
134170,-100,4,2,1,70,0,1
140246,-100,4,2,1,60,0,1
140626,-100,4,2,1,70,0,1
146227,-100,4,2,1,70,0,0
146322,-100,4,2,1,60,0,1
146702,-100,4,2,1,70,0,1
152398,-100,4,2,1,60,0,1
152778,-100,4,2,1,70,0,1
158379,-100,4,2,1,70,0,0
158474,-100,4,2,1,70,0,1
158854,-100,4,2,1,70,0,0
159234,-100,4,2,1,70,0,0
170626,-100,4,2,1,60,0,0
171006,-100,4,2,1,70,0,0
173664,-100,4,2,1,50,0,0
173854,-100,4,2,1,70,0,0
179740,-100,4,2,2,70,0,0
180500,-100,4,2,1,70,0,0
180689,-100,4,2,2,70,0,0
182018,-100,4,2,1,70,0,0
185816,-100,4,2,1,70,0,1
186196,-100,4,2,1,70,0,0
197968,-100,4,2,1,80,0,1
201006,-100,4,2,1,50,0,1
201196,-100,4,2,1,80,0,1
204044,-100,4,2,1,70,0,1
204139,-100,4,2,1,80,0,1
207082,-100,4,2,1,60,0,1
207462,-100,4,2,1,80,0,1
210025,-100,4,2,1,80,0,0
210120,-100,4,2,1,70,0,1
210500,-100,4,2,1,80,0,1
213158,-100,4,2,1,50,0,1
213253,-100,4,2,1,80,0,1
216196,-100,4,2,1,70,0,1
216575,-100,4,2,1,80,0,1
219234,-100,4,2,1,60,0,1
219613,-100,4,2,1,80,0,1
222272,-100,4,2,1,40,0,0
226829,-100,4,2,1,20,0,0
229867,-100,4,2,1,15,0,0
231386,-100,4,2,1,30,0,0
231575,-100,4,2,1,25,0,0
232145,-100,4,2,1,20,0,0
232905,-100,4,2,1,15,0,0
233664,-100,4,2,1,10,0,0
234424,-100,4,2,1,5,0,0

[Colours]
Combo1 : 209,164,255
Combo2 : 255,172,172
Combo3 : 255,185,220

[HitObjects]
256,192,500,5,2,0:0:0:0:
256,192,9613,12,4,12651,0:0:0:0:
256,192,13031,5,2,0:0:0:0:
164,88,13411,2,0,P|104:48|32:64,1,140,8|2,0:0|0:0,0:0:0:0:
48,136,13981,1,0,0:0:0:0:
68,212,14170,2,0,P|128:252|200:236,1,140,0|2,0:0|0:0,0:0:0:0:
256,192,14740,1,0,0:0:0:0:
320,142,14930,2,0,P|387:132|444:172,1,140,0|2,0:0|0:0,0:0:0:0:
448,256,15500,1,0,0:0:0:0:
364,240,15689,6,0,L|400:100,1,140,0|2,0:0|0:0,0:0:0:0:
452,36,16259,2,0,P|408:20|364:32,1,70,0|8,0:0|0:0,0:0:0:0:
256,120,16829,2,0,L|256:276,1,140,2|0,0:0|0:0,0:0:0:0:
104,336,17588,2,0,P|69:337|38:323,1,70,2|0,0:0|0:0,0:0:0:0:
88,256,17968,2,0,P|122:255|154:269,2,70,8|0|2,0:0|0:0|0:0,0:0:0:0:
104,336,18537,1,0,0:0:0:0:
182,347,18727,6,0,P|222:315|224:232,1,140,4|2,0:0|0:0,0:0:0:0:
154,269,19297,1,0,0:0:0:0:
152,188,19487,2,0,P|180:156|220:148,1,70,8|0,0:0|0:0,0:0:0:0:
284,172,19867,2,0,P|312:200|320:228,1,70,2|0,0:0|0:0,0:0:0:0:
392,284,20246,2,0,L|392:360,2,70,0|0|2,0:0|0:0|0:0,0:0:0:0:
460,228,20816,2,0,P|470:194|495:171,2,70,0|8|0,0:0|0:0|0:0,0:0:0:0:
372,196,21386,2,0,P|392:152|408:132,1,70,2|0,0:0|0:0,0:0:0:0:
484,92,21765,6,0,P|448:44|288:124,2,280,2|8|2,0:0|0:0|0:0,0:0:0:0:
408,296,23664,1,2,0:0:0:0:
132,356,24044,2,0,L|92:280,1,70,8|2,0:0|0:0,0:0:0:0:
220,224,24424,2,0,L|260:300,1,70,2|2,0:0|0:0,0:0:0:0:
132,212,24803,6,0,P|176:144|232:136,1,140,4|2,0:0|0:0,0:0:0:0:
220,224,25373,1,0,0:0:0:0:
168,288,25563,2,0,P|104:292|52:240,1,140,8|2,0:0|0:0,0:0:0:0:
132,212,26132,1,0,0:0:0:0:
132,212,26322,2,0,P|196:204|248:256,1,140,0|2,0:0|0:0,0:0:0:0:
328,236,26892,2,0,P|296:180|268:160,1,70,0|8,0:0|0:0,0:0:0:0:
224,132,27272,2,0,P|184:120|148:128,1,70,0|2,0:0|0:0,0:0:0:0:
84,80,27651,1,0,0:0:0:0:
156,36,27841,6,0,P|224:36|288:72,1,140,0|2,0:0|0:0,0:0:0:0:
312,148,28411,1,0,0:0:0:0:
368,88,28601,2,0,P|408:36|488:32,2,140,8|2|0,0:0|0:0|0:0,0:0:0:0:
464,124,29550,2,0,L|464:200,1,70,0|2,0:0|0:0,0:0:0:0:
488,292,29930,2,0,P|452:300|412:288,1,70,0|8,0:0|0:0,0:0:0:0:
332,284,30310,1,0,0:0:0:0:
252,252,30500,2,0,P|253:184|308:144,1,140,2|0,0:0|0:0,0:0:0:0:
272,340,31070,6,0,P|212:332|196:312,1,70,0|2,0:0|0:0,0:0:0:0:
172,248,31449,1,0,0:0:0:0:
220,180,31639,1,8,0:0:0:0:
252,252,31829,1,0,0:0:0:0:
207,327,32018,2,0,P|135:331|87:275,1,140,2|0,0:0|0:0,0:0:0:0:
40,216,32588,1,0,0:0:0:0:
88,144,32778,2,0,P|136:96|204:102,2,140,2|8|2,0:0|0:0|0:0,0:0:0:0:
164,176,33727,1,0,0:0:0:0:
240,208,33917,6,0,P|192:256|124:250,1,140,0|2,0:0|0:0,0:0:0:0:
164,176,34487,1,0,0:0:0:0:
236,128,34677,2,0,P|280:136|312:172,1,70,8|0,0:0|0:0,0:0:0:0:
320,232,35056,1,2,0:0:0:0:
240,208,35246,1,0,0:0:0:0:
164,176,35436,2,0,P|148:112|216:48,2,140,0|2|8,0:0|0:0|0:0,0:0:0:0:
236,128,36386,1,0,0:0:0:0:
275,338,36765,1,0,0:0:0:0:
275,338,36860,1,0,0:0:0:0:
275,338,36955,5,4,0:0:0:0:
456,144,37335,2,0,P|412:192|452:240,1,140,2|8,0:0|0:0,0:0:0:0:
456,324,37905,2,0,P|416:316|372:280,2,70,0|2|0,0:0|0:0|0:0,0:0:0:0:
452,240,38474,1,0,0:0:0:0:
367,221,38664,2,0,P|336:235|316:264,2,70,0|2|0,0:0|0:0|0:0,0:0:0:0:
391,301,39234,2,0,P|344:348|272:336,1,140,8|2,0:0|0:0,0:0:0:0:
180,240,39803,1,0,0:0:0:0:
316,264,39993,5,0,0:0:0:0:
316,264,40373,2,0,P|337:235|368:221,1,70,2|0,0:0|0:0,0:0:0:0:
452,212,40753,2,0,P|436:168|404:148,1,70,8|0,0:0|0:0,0:0:0:0:
336,140,41132,2,0,P|304:148|272:180,1,70,2|0,0:0|0:0,0:0:0:0:
192,188,41512,1,0,0:0:0:0:
132,128,41702,1,0,0:0:0:0:
216,108,41892,2,0,P|256:76|288:68,1,70,2|0,0:0|0:0,0:0:0:0:
336,140,42272,2,0,P|296:172|264:180,2,70,8|0|0,0:0|0:0|0:0,0:0:0:0:
292,48,42841,1,0,0:0:0:0:
194,24,43031,6,0,P|137:60|132:128,1,140,0|2,0:0|0:0,0:0:0:0:
216,108,43601,1,0,0:0:0:0:
295,87,43791,2,0,P|290:154|233:191,2,140,8|2|0,0:0|0:0|0:0,0:0:0:0:
216,108,44740,1,0,0:0:0:0:
216,108,44930,2,0,L|152:72,1,70,2|0,0:0|0:0,0:0:0:0:
80,32,45310,1,8,0:0:0:0:
20,92,45500,2,0,L|80:128,1,70,0|2,0:0|0:0,0:0:0:0:
152,168,45879,1,0,0:0:0:0:
232,192,46069,6,0,P|204:240|176:252,1,70
152,168,46449,1,2,0:0:0:0:
216,108,46639,2,0,P|228:75|255:53,1,70,0|8,0:0|0:0,0:0:0:0:
296,128,47018,1,0,0:0:0:0:
296,128,47208,2,0,P|328:140|350:167,1,70,2|0,0:0|0:0,0:0:0:0:
424,216,47588,2,0,P|327:252|280:216,1,140,0|2,0:0|0:0,0:0:0:0:
384,92,48348,2,0,P|480:55|528:92,1,140,8|2,0:0|0:0,0:0:0:0:
424,216,49107,6,0,P|331:264|304:252,1,140,4|2,0:0|0:0,0:0:0:0:
256,168,49677,1,0,0:0:0:0:
320,108,49867,2,0,P|341:136|343:171,1,70,8|0,0:0|0:0,0:0:0:0:
168,170,50246,2,0,P|171:135|192:108,1,70,2|0,0:0|0:0,0:0:0:0:
256,168,50626,1,0,0:0:0:0:
299,247,50816,1,0,0:0:0:0:
388,248,51006,2,0,P|385:213|365:186,1,70,2|0,0:0|0:0,0:0:0:0:
320,108,51386,1,0,0:0:0:0:
256,56,51575,2,0,L|256:16,2,35,0|0|2,0:0|0:0|0:0,0:0:0:0:
192,108,51955,2,0,P|171:136|169:171,1,70
256,168,52335,5,0,0:0:0:0:
210,239,52525,2,0,P|144:254|96:208,1,140,2|8,0:0|0:0,0:0:0:0:
16,172,53094,2,0,P|4:220|16:260,1,70,0|2,0:0|0:0,0:0:0:0:
72,300,53474,1,0,0:0:0:0:
72,300,53664,2,0,B|104:344|164:288|204:328,1,140,0|2,0:0|0:0,0:0:0:0:
210,239,54234,1,0,0:0:0:0:
256,168,54424,1,8,0:0:0:0:
256,84,54613,1,0,0:0:0:0:
220,8,54803,2,0,P|256:0|292:8,2,70,2|0|0,0:0|0:0|0:0,0:0:0:0:
256,84,55373,5,0,0:0:0:0:
256,128,55468,1,0,0:0:0:0:
256,168,55562,1,2,0:0:0:0:
301,239,55753,1,0,0:0:0:0:
309,326,55943,2,0,B|348:288|408:344|440:300,1,140,8|2,0:0|0:0,0:0:0:0:
480,136,56702,6,0,P|444:128|412:136,1,70
364,208,57082,1,0,0:0:0:0:
448,212,57272,1,2,0:0:0:0:
331,132,57462,2,0,P|302:149|284:179,1,70,8|0,0:0|0:0,0:0:0:0:
256,348,57840,1,2,0:0:0:0:
368,288,58031,1,0,0:0:0:0:
176,244,58221,1,4,0:0:0:0:
256,192,58411,12,4,61259,0:0:0:0:
256,192,61639,5,2,0:0:0:0:
300,120,61829,1,0,0:0:0:0:
368,68,62018,2,0,P|440:48|496:88,1,140,8|2,0:0|0:0,0:0:0:0:
424,136,62588,1,0,0:0:0:0:
356,188,62778,2,0,P|414:222|479:200,1,140,0|2,0:0|0:0,0:0:0:0:
424,136,63348,1,0,0:0:0:0:
368,68,63537,1,8,0:0:0:0:
300,120,63727,2,0,P|272:152|268:180,1,70,0|2,0:0|0:0,0:0:0:0:
356,188,64107,1,0,0:0:0:0:
304,252,64297,6,0,P|220:252|188:204,1,140,0|2,0:0|0:0,0:0:0:0:
200,128,64867,1,0,0:0:0:0:
268,179,65056,2,0,L|212:312,1,140,8|2,0:0|0:0,0:0:0:0:
148,356,65626,1,0,0:0:0:0:
80,308,65816,2,0,L|25:178,1,140,0|2,0:0|0:0,0:0:0:0:
24,96,66386,2,0,P|64:104|88:128,1,70,0|8,0:0|0:0,0:0:0:0:
128,196,66765,1,0,0:0:0:0:
128,196,66955,2,0,P|156:164|148:108,1,70,2|0,0:0|0:0,0:0:0:0:
189,68,67335,6,0,P|121:67|84:123,1,140,4|2,0:0|0:0,0:0:0:0:
132,256,67905,1,0,0:0:0:0:
258,192,68094,1,8,0:0:0:0:
204,320,68284,1,0,0:0:0:0:
340,288,68474,1,2,0:0:0:0:
258,192,68664,2,0,L|188:188,2,70
304,180,69139,1,0,0:0:0:0:
340,152,69234,1,2,0:0:0:0:
322,68,69424,1,0,0:0:0:0:
322,68,69613,2,0,P|390:67|427:123,1,140,8|2,0:0|0:0,0:0:0:0:
480,188,70183,1,0,0:0:0:0:
427,260,70373,6,0,P|390:316|322:315,1,140,0|2,0:0|0:0,0:0:0:0:
348,236,70943,2,0,L|304:176,1,70,0|8,0:0|0:0,0:0:0:0:
256,112,71322,1,0,0:0:0:0:
220,36,71512,2,0,P|256:28|296:36,1,70,2|0,0:0|0:0,0:0:0:0:
256,112,71892,1,0,0:0:0:0:
205,179,72082,2,0,L|164:236,1,70,0|2,0:0|0:0,0:0:0:0:
189,315,72462,1,0,0:0:0:0:
189,315,72651,2,0,P|121:316|84:260,1,140,8|2,0:0|0:0,0:0:0:0:
36,192,73220,1,0,0:0:0:0:
84,123,73411,6,0,P|121:67|192:64,1,140,4|2,0:0|0:0,0:0:0:0:
272,44,73981,2,0,P|272:92|248:124,1,70,0|8,0:0|0:0,0:0:0:0:
236,192,74360,2,0,P|192:164|180:132,1,70,0|2,0:0|0:0,0:0:0:0:
261,110,74740,1,0,0:0:0:0:
328,160,74930,2,0,P|332:224|312:248,1,70
308,260,75215,1,0,0:0:0:0:
276,284,75310,1,2,0:0:0:0:
132,372,75689,2,0,P|112:332|120:276,1,70,8|0,0:0|0:0,0:0:0:0:
100,224,76069,2,0,P|144:228|176:256,1,70,2|0,0:0|0:0,0:0:0:0:
204,316,76449,6,0,P|236:288|232:192,1,140,0|2,0:0|0:0,0:0:0:0:
164,152,77018,1,0,0:0:0:0:
212,84,77208,2,0,L|212:8,1,70,8|0,0:0|0:0,0:0:0:0:
300,14,77588,2,0,L|300:84,1,70,2|0,0:0|0:0,0:0:0:0:
348,152,77968,2,0,B|396:120|384:64|384:64|436:48,1,140,0|2,0:0|0:0,0:0:0:0:
468,120,78537,1,0,0:0:0:0:
428,192,78727,2,0,P|392:228|348:240,1,70,8|0,0:0|0:0,0:0:0:0:
432,300,79107,2,0,P|454:273|484:256,1,70,2|0,0:0|0:0,0:0:0:0:
508,340,79487,6,0,P|480:372|380:368,1,140,4|2,0:0|0:0,0:0:0:0:
332,312,80056,1,0,0:0:0:0:
332,312,80246,2,0,P|324:272|332:240,1,70,8|0,0:0|0:0,0:0:0:0:
256,204,80626,2,0,B|228:148|284:116|256:64,1,140,2|0,0:0|0:0,0:0:0:0:
196,12,81196,5,0,0:0:0:0:
180,92,81386,1,2,0:0:0:0:
258,68,81575,1,0,0:0:0:0:
196,12,81765,2,0,P|152:16|116:36,1,70,8|0,0:0|0:0,0:0:0:0:
100,104,82145,1,2,0:0:0:0:
156,176,82335,1,0,0:0:0:0:
156,176,82525,6,0,P|104:196|52:184,1,105,4|0,0:0|0:0,0:0:0:0:
32,220,82905,2,0,P|37:271|18:319,1,105,2|0,0:0|0:0,0:0:0:0:
4,360,83284,1,8,0:0:0:0:
172,360,83664,1,2,0:0:0:0:
144,276,83854,1,0,0:0:0:0:
204,216,84044,2,0,P|256:164|300:220,2,157.500006008148,0|0|2,0:0|0:0|0:0,0:0:0:0:
144,276,85373,1,0,0:0:0:0:
172,360,85563,1,4,0:0:0:0:
256,192,94677,12,4,97715,0:0:0:0:
256,192,98094,5,2,0:0:0:0:
196,132,98284,1,0,0:0:0:0:
168,212,98474,2,0,P|188:256|228:272,1,70,8|0,0:0|0:0,0:0:0:0:
256,336,98854,1,2,0:0:0:0:
306,266,99044,2,0,P|333:244|344:212,1,70
316,132,99424,5,0,0:0:0:0:
256,192,99613,1,2,0:0:0:0:
306,266,99803,2,0,P|333:244|344:212,1,70,0|8,0:0|0:0,0:0:0:0:
316,132,100183,1,0,0:0:0:0:
396,152,100373,2,0,P|420:200|396:284,1,140,2|0,0:0|0:0,0:0:0:0:
408,364,100943,5,0,0:0:0:0:
480,320,101132,2,0,P|504:252|496:164,1,140,2|8,0:0|0:0,0:0:0:0:
476,104,101702,2,0,P|448:68|408:60,1,70,0|2,0:0|0:0,0:0:0:0:
352,100,102082,2,0,P|380:136|420:144,1,70
426,60,102462,1,0,0:0:0:0:
352,20,102651,2,0,P|312:24|276:76,1,105,2|0,0:0|0:0,0:0:0:0:
252,112,103031,2,0,P|216:108|188:88,1,70,8|0,0:0|0:0,0:0:0:0:
128,28,103411,1,2,0:0:0:0:
40,44,103601,1,0,0:0:0:0:
96,104,103791,6,0,B|64:136|124:204|92:248,1,140,0|2,0:0|0:0,0:0:0:0:
40,300,104360,1,0,0:0:0:0:
124,312,104550,2,0,P|148:336|156:376,1,70,8|0,0:0|0:0,0:0:0:0:
220,316,104930,2,0,P|192:268|164:252,1,70,2|0,0:0|0:0,0:0:0:0:
132,156,105310,1,0,0:0:0:0:
212,180,105500,1,0,0:0:0:0:
192,100,105689,2,0,P|256:76|320:100,1,140,2|8,0:0|0:0,0:0:0:0:
296,180,106259,1,0,0:0:0:0:
380,156,106449,1,2,0:0:0:0:
320,100,106639,1,0,0:0:0:0:
296,180,106829,6,0,P|340:236|408:240,1,140,0|2,0:0|0:0,0:0:0:0:
380,156,107398,1,0,0:0:0:0:
460,176,107588,2,0,P|484:208|488:256,1,70,8|0,0:0|0:0,0:0:0:0:
404,241,107968,1,2,0:0:0:0:
380,156,108158,1,0,0:0:0:0:
302,123,108348,2,0,P|256:21|210:124,1,280,0|8,0:0|0:0,0:0:0:0:
107,241,109487,1,0,0:0:0:0:
107,241,109677,1,0,0:0:0:0:
107,241,109772,1,0,0:0:0:0:
107,241,109867,6,0,P|108:280|24:336,1,140,4|2,0:0|0:0,0:0:0:0:
24,252,110436,1,0,0:0:0:0:
24,252,110626,2,0,L|148:348,1,140,8|2,0:0|0:0,0:0:0:0:
216,352,111196,1,0,0:0:0:0:
180,276,111386,2,0,L|116:228,1,70
196,192,111765,1,2,0:0:0:0:
256,136,111955,1,0,0:0:0:0:
316,196,112145,2,0,P|340:144|324:88,1,105,8|0,0:0|0:0,0:0:0:0:
316,60,112525,2,0,P|264:36|188:64,1,140
80,192,113284,5,2,0:0:0:0:
28,260,113474,1,0,0:0:0:0:
112,268,113664,2,0,P|148:244|160:208,1,70,8|0,0:0|0:0,0:0:0:0:
148,140,114045,1,2,0:0:0:0:
172,60,114235,1,0,0:0:0:0:
172,60,114424,2,0,P|142:42|107:40,1,70,0|2,0:0|0:0,0:0:0:0:
68,108,114803,1,2,0:0:0:0:
148,140,114993,1,0,0:0:0:0:
148,140,115183,2,0,P|216:164|236:236,1,140,8|2,0:0|0:0,0:0:0:0:
236,308,115753,1,0,0:0:0:0:
368,208,115943,5,0,0:0:0:0:
156,224,116322,1,2,0:0:0:0:
312,272,116702,2,0,P|280:208|320:140,1,140,8|2,0:0|0:0,0:0:0:0:
368,208,117272,1,0,0:0:0:0:
422,274,117462,2,0,P|454:214|428:152,1,140,0|2,0:0|0:0,0:0:0:0:
368,208,118031,1,0,0:0:0:0:
352,124,118221,2,0,P|384:80|440:72,1,105,8|0,0:0|0:0,0:0:0:0:
472,84,118601,1,2,0:0:0:0:
427,151,118791,1,0,0:0:0:0:
368,208,118981,6,0,P|300:200|272:132,1,140,0|2,0:0|0:0,0:0:0:0:
256,56,119550,1,0,0:0:0:0:
192,112,119740,1,8,0:0:0:0:
271,140,119930,1,0,0:0:0:0:
256,56,120120,1,2,0:0:0:0:
176,28,120310,1,0,0:0:0:0:
116,84,120500,6,0,P|140:180|180:192,1,140,0|2,0:0|0:0,0:0:0:0:
342,191,121259,2,0,P|397:151|396:84,1,140,8|2,0:0|0:0,0:0:0:0:
300,40,121829,1,0,0:0:0:0:
260,72,121924,1,0,0:0:0:0:
244,112,122018,5,4,0:0:0:0:
260,208,122208,1,0,0:0:0:0:
260,208,122398,2,0,P|272:244|308:268,1,70,2|0,0:0|0:0,0:0:0:0:
342,192,122778,1,8,0:0:0:0:
388,124,122968,2,0,P|414:146|424:179,1,70,0|2,0:0|0:0,0:0:0:0:
342,192,123348,1,0,0:0:0:0:
396,256,123537,6,0,P|468:248|504:192,1,140,0|2,0:0|0:0,0:0:0:0:
424,179,124107,1,0,0:0:0:0:
342,192,124297,2,0,P|312:240|312:268,1,70,8|0,0:0|0:0,0:0:0:0:
352,328,124677,1,2,0:0:0:0:
396,256,124867,1,0,0:0:0:0:
342,191,125056,6,0,P|319:218|310:251,2,70,0|0|2,0:0|0:0|0:0,0:0:0:0:
376,116,125626,1,0,0:0:0:0:
292,124,125816,2,0,P|256:116|220:124,1,70,8|0,0:0|0:0,0:0:0:0:
136,116,126196,1,2,0:0:0:0:
169,191,126386,2,0,P|192:218|201:251,1,70
196,336,126765,1,0,0:0:0:0:
120,304,126955,1,0,0:0:0:0:
120,304,127145,2,0,P|108:236|48:236,1,140
84,148,127715,1,2,0:0:0:0:
169,192,127905,1,0,0:0:0:0:
208,120,128094,6,0,P|256:80|304:128,1,140,0|2,0:0|0:0,0:0:0:0:
343,192,128664,1,0,0:0:0:0:
416,143,128855,2,0,P|451:140|484:152,1,70,8|0,0:0|0:0,0:0:0:0:
488,236,129234,2,0,P|453:239|420:227,1,70,2|0,0:0|0:0,0:0:0:0:
344,192,129613,2,0,P|340:272|408:312,2,140,0|2|8,0:0|0:0|0:0,0:0:0:0:
360,64,130563,5,0,0:0:0:0:
280,116,130753,1,2,0:0:0:0:
420,136,130943,1,0,0:0:0:0:
344,192,131132,1,4,0:0:0:0:
256,192,131227,12,4,134170,0:0:0:0:
256,52,134550,6,0,P|228:32|192:28,1,70,2|0,0:0|0:0,0:0:0:0:
156,100,134930,2,0,P|104:124|84:120,1,70,8|0,0:0|0:0,0:0:0:0:
12,116,135310,1,2,0:0:0:0:
44,192,135500,1,0,0:0:0:0:
88,264,135689,2,0,P|120:236|124:204,1,70
188,152,136069,1,2,0:0:0:0:
212,236,136259,2,0,L|212:320,1,70,0|8,0:0|0:0,0:0:0:0:
256,380,136639,1,0,0:0:0:0:
300,306,136829,2,0,L|300:236,1,70,2|0,0:0|0:0,0:0:0:0:
256,164,137208,5,0,0:0:0:0:
212,236,137398,1,0,0:0:0:0:
300,236,137588,2,0,P|332:200|336:156,1,70,2|0,0:0|0:0,0:0:0:0:
361,100,137968,2,0,P|294:108|255:164,1,140,8|2,0:0|0:0,0:0:0:0:
337,180,138537,1,0,0:0:0:0:
337,180,138727,2,0,L|264:56,1,140,0|2,0:0|0:0,0:0:0:0:
212,124,139297,2,0,L|252:192,1,70,0|8,0:0|0:0,0:0:0:0:
164,200,139677,1,0,0:0:0:0:
128,124,139867,1,2,0:0:0:0:
212,124,140056,1,0,0:0:0:0:
164,200,140246,6,0,P|92:200|48:152,1,140,4|2,0:0|0:0,0:0:0:0:
64,68,140816,1,0,0:0:0:0:
128,124,141006,2,0,L|68:256,1,140,8|2,0:0|0:0,0:0:0:0:
36,328,141575,1,0,0:0:0:0:
120,344,141765,2,0,L|148:280,1,70
176,196,142145,2,0,P|216:212|224:240,1,70,2|0,0:0|0:0,0:0:0:0:
224,320,142525,2,0,P|259:324|300:320,1,70
287,235,142905,2,0,P|303:204|336:196,1,70,2|0,0:0|0:0,0:0:0:0:
368,272,143284,6,0,P|420:220|360:124,1,175
348,116,143854,2,0,L|304:96,1,35,2|0,0:0|0:0,0:0:0:0:
276,92,144044,2,0,B|224:92|209:50|209:50|168:29|136:57,1,140,8|2,0:0|0:0,0:0:0:0:
72,48,144613,2,0,P|100:116|168:132,1,140,2|0,0:0|0:0,0:0:0:0:
220,192,145183,1,2,0:0:0:0:
240,112,145373,1,0,0:0:0:0:
159,133,145563,1,8,0:0:0:0:
296,228,145943,1,2,0:0:0:0:
236,284,146132,1,0,0:0:0:0:
159,250,146322,6,0,P|95:272|72:336,1,140,4|2,0:0|0:0,0:0:0:0:
156,332,146892,1,0,0:0:0:0:
156,332,147082,2,0,P|184:360|284:360,1,140,8|2,0:0|0:0,0:0:0:0:
360,340,147651,2,0,P|344:304|316:284,1,70,0|0,0:0|0:0,0:0:0:0:
276,216,148030,1,0,0:0:0:0:
248,244,148125,1,0,0:0:0:0:
236,284,148221,5,2,0:0:0:0:
320,285,148411,1,0,0:0:0:0:
360,212,148601,2,0,P|340:156|308:140,1,70,8|0,0:0|0:0,0:0:0:0:
256,112,148981,1,0,0:0:0:0:
256,28,149170,1,0,0:0:0:0:
328,72,149360,6,0,P|384:92|432:164,1,140,0|2,0:0|0:0,0:0:0:0:
360,212,149930,2,0,P|340:156|308:140,1,70,0|8,0:0|0:0,0:0:0:0:
256,112,150310,1,0,0:0:0:0:
178,150,150500,2,0,P|156:177|152:212,1,70,2|0,0:0|0:0,0:0:0:0:
220,260,150879,2,0,P|256:308|288:256,2,140,0|2|8,0:0|0:0|0:0,0:0:0:0:
256,96,152018,1,2,0:0:0:0:
200,32,152208,1,0,0:0:0:0:
116,24,152398,6,0,P|48:24|0:76,1,140,4|2,0:0|0:0,0:0:0:0:
80,100,152968,1,0,0:0:0:0:
116,176,153158,2,0,L|152:260,1,70,8|0,0:0|0:0,0:0:0:0:
100,316,153537,1,2,0:0:0:0:
60,240,153727,1,0,0:0:0:0:
0,288,153917,2,0,P|8:328|28:356,2,70,0|0|2,0:0|0:0|0:0,0:0:0:0:
100,316,154487,2,0,P|160:328|184:356,1,70,0|8,0:0|0:0,0:0:0:0:
212,264,154867,1,0,0:0:0:0:
212,180,155056,2,0,L|212:108,1,70,2|0,0:0|0:0,0:0:0:0:
300,110,155436,6,0,L|300:180,1,70
372,224,155816,1,2,0:0:0:0:
296,264,156006,1,0,0:0:0:0:
346,332,156196,2,0,P|377:316|412:316,1,70,8|0,0:0|0:0,0:0:0:0:
480,364,156575,1,2,0:0:0:0:
480,280,156765,1,0,0:0:0:0:
480,280,156955,2,0,B|460:236|404:236|404:236|324:192|368:116,1,210
303,72,157715,2,0,P|400:62|440:152,1,210
357,142,158474,6,0,P|259:152|220:62,1,210,4|0,0:0|0:0,0:0:0:0:
140,36,159234,2,0,P|132:108|164:180,1,140,8|2,0:0|0:0,0:0:0:0:
204,240,159803,2,0,P|128:252|80:208,1,140
156,169,160373,1,2,0:0:0:0:
240,164,160563,2,0,P|268:184|288:228,1,70,0|8,0:0|0:0,0:0:0:0:
204,240,160943,1,0,0:0:0:0:
156,169,161132,1,2,0:0:0:0:
196,96,161322,1,0,0:0:0:0:
280,88,161512,6,0,P|332:120|372:200,1,140,0|2,0:0|0:0,0:0:0:0:
376,272,162082,2,0,P|416:264|440:232,1,70,0|8,0:0|0:0,0:0:0:0:
448,160,162462,1,0,0:0:0:0:
369,187,162651,1,2,0:0:0:0:
300,240,162841,2,0,P|292:276|304:308,1,70
376,272,163221,1,0,0:0:0:0:
369,187,163411,2,0,P|312:156|244:176,1,140,2|8,0:0|0:0,0:0:0:0:
300,240,163981,1,0,0:0:0:0:
96,336,164360,1,0,0:0:0:0:
96,336,164550,6,0,P|84:260|28:228,1,140,0|2,0:0|0:0,0:0:0:0:
40,144,165120,2,0,P|104:168|120:188,1,70,0|8,0:0|0:0,0:0:0:0:
184,148,165500,1,0,0:0:0:0:
256,104,165689,1,2,0:0:0:0:
256,188,165879,2,0,B|224:256|288:256|256:324,2,140
256,104,166829,1,8,0:0:0:0:
328,148,167018,1,0,0:0:0:0:
408,167,167208,2,0,P|437:149|472:144,1,70,2|0,0:0|0:0,0:0:0:0:
472,228,167588,6,0,P|408:260|344:228,1,140,0|2,0:0|0:0,0:0:0:0:
328,148,168158,1,0,0:0:0:0:
408,168,168348,2,0,L|412:316,1,140,8|2,0:0|0:0,0:0:0:0:
256,244,169107,1,0,0:0:0:0:
192,180,169297,1,0,0:0:0:0:
104,168,169487,2,0,L|100:316,1,140,2|8,0:0|0:0,0:0:0:0:
188,300,170056,1,0,0:0:0:0:
256,244,170246,1,2,0:0:0:0:
192,180,170436,1,0,0:0:0:0:
272,160,170626,6,0,P|324:184|340:268,1,140,4|2,0:0|0:0,0:0:0:0:
352,344,171196,2,0,P|300:332|276:312,1,70,0|8,0:0|0:0,0:0:0:0:
256,244,171575,1,0,0:0:0:0:
192,180,171765,2,0,P|152:192|116:212,1,70,2|0,0:0|0:0,0:0:0:0:
48,232,172145,2,0,P|64:156|116:128,1,140,0|2,0:0|0:0,0:0:0:0:
200,92,172715,1,0,0:0:0:0:
192,180,172905,1,8,0:0:0:0:
114,128,173094,1,0,0:0:0:0:
136,48,173284,2,0,P|192:16|264:48,1,140,2|4,0:0|0:0,0:0:0:0:
263,117,173854,6,0,P|229:110|200:92,1,70,0|2,0:0|0:0,0:0:0:0:
258,41,174234,1,0,0:0:0:0:
324,68,174424,2,0,P|344:116|304:188,1,140,8|2,0:0|0:0,0:0:0:0:
396,212,174993,1,0,0:0:0:0:
476,188,175183,2,0,P|441:129|461:64,1,140,0|2,0:0|0:0,0:0:0:0:
392,16,175753,1,0,0:0:0:0:
324,68,175943,2,0,P|344:116|304:188,1,140,8|2,0:0|0:0,0:0:0:0:
263,117,176512,1,0,0:0:0:0:
216,188,176702,6,0,P|224:236|240:256,1,70
328,284,177082,2,0,P|320:236|304:216,1,70,2|0,0:0|0:0,0:0:0:0:
396,364,177462,1,8,0:0:0:0:
472,304,177651,1,0,0:0:0:0:
404,232,177841,1,2,0:0:0:0:
415,132,178031,2,0,P|448:142|476:164,1,70
404,232,178411,5,0,0:0:0:0:
324,172,178601,1,2,0:0:0:0:
416,132,178791,1,0,0:0:0:0:
404,232,178981,2,0,P|328:272|268:256,1,140,8|2,0:0|0:0,0:0:0:0:
212,192,179550,1,0,0:0:0:0:
160,108,179740,6,0,P|84:68|24:84,1,140,0|2,0:0|0:0,0:0:0:0:
56,120,180215,1,2,0:0:0:0:
80,164,180310,1,2,0:0:0:0:
132,248,180500,1,10,0:0:0:0:
212,192,180689,1,2,0:0:0:0:
160,108,180879,1,2,0:0:0:0:
80,164,181069,2,0,L|16:208,1,70,2|2,0:0|0:0,0:0:0:0:
74,288,181449,2,0,L|138:244,1,70,2|2,0:0|0:0,0:0:0:0:
212,192,181829,1,2,0:0:0:0:
252,104,182018,1,8,0:0:0:0:
360,192,182208,5,0,0:0:0:0:
432,312,182398,1,2,0:0:0:0:
256,344,182588,1,0,0:0:0:0:
256,192,182778,12,4,185816,0:0:0:0:
256,192,197968,5,4,0:0:0:0:
372,36,198348,1,2,0:0:0:0:
468,44,198537,1,0,0:0:0:0:
504,136,198727,2,0,P|480:160|444:172,1,70,8|0,0:0|0:0,0:0:0:0:
356,124,199107,2,0,P|284:136|256:196,1,140,2|0,0:0|0:0,0:0:0:0:
352,216,199677,1,0,0:0:0:0:
444,244,199867,2,0,P|411:302|344:311,1,140,2|8,0:0|0:0,0:0:0:0:
352,216,200436,1,0,0:0:0:0:
252,216,200626,2,0,L|168:216,1,70,2|0,0:0|0:0,0:0:0:0:
216,308,201006,5,4,0:0:0:0:
120,288,201196,1,0,0:0:0:0:
120,288,201386,2,0,P|92:240|96:208,1,70,2|0,0:0|0:0,0:0:0:0:
83,137,201765,2,0,P|148:156|182:216,1,140,8|2,0:0|0:0,0:0:0:0:
256,280,202335,1,0,0:0:0:0:
329,216,202525,2,0,P|363:156|428:137,1,140,0|2,0:0|0:0,0:0:0:0:
512,188,203094,1,0,0:0:0:0:
428,236,203284,2,0,L|336:128,1,140,8|2,0:0|0:0,0:0:0:0:
304,36,203854,1,0,0:0:0:0:
212,36,204044,5,4,0:0:0:0:
174,129,204234,1,0,0:0:0:0:
174,129,204424,2,0,L|84:236,1,140,2|8,0:0|0:0,0:0:0:0:
36,148,204993,2,0,L|88:88,1,70,0|2,0:0|0:0,0:0:0:0:
174,129,205373,1,0,0:0:0:0:
256,180,205563,2,0,P|224:216|192:224,1,70
174,129,205943,1,2,0:0:0:0:
256,76,206132,1,0,0:0:0:0:
337,129,206322,2,0,P|353:181|316:256,1,140,8|2,0:0|0:0,0:0:0:0:
220,276,206892,1,0,0:0:0:0:
256,180,207082,6,0,B|296:172|348:212|396:200,1,140,4|2,0:0|0:0,0:0:0:0:
492,196,207651,2,0,P|488:240|464:272,1,70,0|8,0:0|0:0,0:0:0:0:
392,200,208031,2,0,P|404:144|428:120,1,70,0|2,0:0|0:0,0:0:0:0:
492,196,208411,1,0,0:0:0:0:
464,292,208601,1,0,0:0:0:0:
368,304,208791,1,0,0:0:0:0:
296,236,208981,2,0,P|276:288|296:372,1,140,2|8,0:0|0:0,0:0:0:0:
201,346,209550,1,0,0:0:0:0:
120,288,209740,2,0,P|152:256|188:248,1,70,2|0,0:0|0:0,0:0:0:0:
201,346,210120,6,0,P|112:388|52:368,1,140,4|2,0:0|0:0,0:0:0:0:
12,304,210689,1,0,0:0:0:0:
29,193,210879,2,0,P|90:225|120:288,1,140,8|2,0:0|0:0,0:0:0:0:
208,244,211449,1,0,0:0:0:0:
152,164,211639,2,0,P|120:132|96:124,1,70
52,104,211924,1,0,0:0:0:0:
40,56,212018,1,2,0:0:0:0:
136,48,212208,2,0,P|172:64|196:84,1,70,0|8,0:0|0:0,0:0:0:0:
152,164,212588,1,0,0:0:0:0:
208,244,212778,2,0,L|176:320,1,70,2|0,0:0|0:0,0:0:0:0:
256,372,213158,6,0,L|256:320,2,35,4|0|0,0:0|0:0|0:0,0:0:0:0:
331,308,213537,2,0,L|304:244,1,70,2|0,0:0|0:0,0:0:0:0:
360,164,213917,1,8,0:0:0:0:
376,48,214107,2,0,P|340:64|316:84,1,70,0|2,0:0|0:0,0:0:0:0:
360,164,214487,2,0,P|392:132|416:124,1,70
510,122,214867,1,0,0:0:0:0:
510,122,215056,2,0,P|496:188|435:220,1,140,2|8,0:0|0:0,0:0:0:0:
339,228,215626,2,0,P|342:193|360:164,1,70,0|2,0:0|0:0,0:0:0:0:
436,220,216006,1,0,0:0:0:0:
388,304,216196,6,0,P|296:308|264:276,1,140,4|2,0:0|0:0,0:0:0:0:
216,196,216765,1,0,0:0:0:0:
296,140,216955,1,8,0:0:0:0:
340,228,217145,1,0,0:0:0:0:
265,278,217335,2,0,P|224:292|156:272,1,105,2|0,0:0|0:0,0:0:0:0:
116,264,217715,2,0,P|84:296|140:360,2,140,0|2|8,0:0|0:0|0:0,0:0:0:0:
204,220,218664,1,0,0:0:0:0:
120,168,218854,2,0,P|64:180|0:256,2,140,2|4|2,0:0|0:0|0:0,0:0:0:0:
116,264,219803,5,0,0:0:0:0:
204,220,219993,2,0,P|212:136|152:80,1,140,8|2,0:0|0:0,0:0:0:0:
84,76,220563,1,0,0:0:0:0:
120,168,220753,2,0,B|172:128|280:192|332:144,1,210
288,52,221512,2,0,P|404:80|404:224,1,280,0|4,0:0|0:0,0:0:0:0:
132,192,226829,6,0,B|193:244|300:208|408:108|284:-4|240:48|153:60|152:168|294:244|376:200,1,560,2|2,0:0|0:0,0:0:0:0:
424,276,228537,1,0,0:0:0:0:
452,148,228727,1,2,0:0:0:0:
500,224,228917,1,0,0:0:0:0:
88,32,229867,5,2,0:0:0:0:
35,127,230056,1,0,0:0:0:0:
144,118,230246,1,2,0:0:0:0:
50,70,230436,1,0,0:0:0:0:
340,192,231006,6,0,B|416:196|403:248|467:260,1,140,2|4,0:0|0:0,0:0:0:0:
256,192,231575,12,2,235943,0:0:0:0:
