osu file format v14

[General]
AudioFilename: Nishino Kana - Story.mp3
AudioLeadIn: 1004
PreviewTime: 11892
Countdown: 0
SampleSet: Soft
StackLeniency: 0.7
Mode: 0
LetterboxInBreaks: 1
EpilepsyWarning: 1
WidescreenStoryboard: 0

[Editor]
Bookmarks: -1018,500,2018,6575,8094,9613,11702,12651,24803,58221,60120,61259,73411,81006,83284,85563,94677,97715,98474,109867,113284,131132,133031,134170,146322,147841,148126,148221,153917,156196,158474,176702,182778,184867,185816,196449,197968,210120,217715,219993,222272,226829,231386,234424,235943
DistanceSpacing: 1
BeatDivisor: 8
GridSize: 4
TimelineZoom: 1

[Metadata]
Title:Story
TitleUnicode:Story
Artist:Nishino Kana
ArtistUnicode:西野カナ
Creator:Kanari
Version:Beginning
Source:
Tags:Believe
BeatmapID:672695
BeatmapSetID:299910

[Difficulty]
HPDrainRate:3
CircleSize:3
OverallDifficulty:2
ApproachRate:3
SliderMultiplier:1.8
SliderTickRate:1

[Events]
//Background and Video events
0,0,"Background.jpg",0,0
//Break Periods
2,879,8094
2,85762,93158
2,186016,196528
2,222471,225389
//Storyboard Layer 0 (Background)
//Storyboard Layer 1 (Fail)
//Storyboard Layer 2 (Pass)
//Storyboard Layer 3 (Foreground)
//Storyboard Sound Samples

[TimingPoints]
500,759.493670886076,4,2,1,20,1,0
12651,-100,4,2,1,70,0,1
18727,-100,4,2,1,50,0,1
19487,-100,4,2,1,70,0,1
21765,-100,4,2,2,70,0,1
24044,-100,4,2,1,70,0,1
24803,-100,4,2,1,60,0,0
36955,-100,4,2,1,30,0,0
37335,-100,4,2,1,60,0,0
49107,-100,4,2,1,40,0,0
49487,-100,4,2,1,60,0,0
58221,-100,4,2,1,40,0,0
61259,-100,4,2,1,70,0,1
67335,-100,4,2,1,50,0,1
67715,-100,4,2,1,70,0,1
73316,-100,4,2,1,70,0,0
73411,-100,4,2,1,70,0,1
79487,-100,4,2,1,50,0,1
80246,-100,4,2,1,70,0,1
85563,-100,4,2,1,70,0,0
109867,-100,4,2,1,40,0,0
110246,-100,4,2,1,60,0,0
122018,-100,4,2,1,40,0,0
122778,-100,4,2,1,60,0,0
134170,-100,4,2,1,70,0,1
140246,-100,4,2,1,60,0,1
140626,-100,4,2,1,70,0,1
146227,-100,4,2,1,70,0,0
146322,-100,4,2,1,60,0,1
147082,-100,4,2,1,70,0,1
152398,-100,4,2,1,60,0,1
152778,-100,4,2,1,70,0,1
158379,-100,4,2,1,70,0,0
158474,-100,4,2,1,70,0,1
158854,-100,4,2,1,70,0,0
159234,-100,4,2,1,70,0,0
170626,-100,4,2,1,60,0,0
179740,-100,4,2,2,70,0,0
180500,-100,4,2,1,70,0,0
180879,-100,4,2,2,70,0,0
185816,-100,4,2,1,70,0,1
186196,-100,4,2,1,70,0,0
197968,-100,4,2,1,80,0,1
204044,-100,4,2,1,60,0,1
204803,-100,4,2,1,80,0,1
210025,-100,4,2,1,80,0,0
210120,-100,4,2,1,70,0,1
210879,-100,4,2,1,80,0,1
216196,-100,4,2,1,60,0,1
216575,-100,4,2,1,80,0,1
222272,-100,4,2,1,30,0,0
231386,-100,4,2,1,20,0,0
232905,-100,4,2,1,10,0,0
234424,-100,4,2,1,5,0,0

[Colours]
Combo1 : 209,164,255
Combo2 : 255,172,172
Combo3 : 255,185,220

[HitObjects]
256,192,500,5,2,0:0:0:0:
256,192,9613,12,4,12651,0:0:0:0:
52,131,14170,6,0,P|109:64|194:36,1,180,0|8,0:0|0:0,0:0:0:0:
256,100,15310,1,2,0:0:0:0:
318,36,15689,2,0,P|402:64|460:132,1,180,0|8,0:0|0:0,0:0:0:0:
320,248,17208,2,0,P|256:300|192:244,1,180,0|8,0:0|0:0,0:0:0:0:
120,192,18348,1,2,0:0:0:0:
100,104,18727,6,0,P|36:160|48:248,1,180,4|8,0:0|0:0,0:0:0:0:
120,192,19867,1,2,0:0:0:0:
192,136,20246,2,0,P|204:222|140:279,1,180,0|8,0:0|0:0,0:0:0:0:
120,192,21386,1,2,0:0:0:0:
52,252,21765,6,0,B|32:328|88:376|152:376|152:376|228:320|320:360,1,360,2|2,0:0|0:0,0:0:0:0:
460,252,24044,2,0,P|516:192|460:132,2,180,8|4|8,0:0|0:0|0:0,0:0:0:0:
436,340,25943,6,0,P|388:316|376:264,1,90,2|0,0:0|0:0,0:0:0:0:
284,284,26702,2,0,P|263:323|223:339,2,90,2|8|2,0:0|0:0|0:0,0:0:0:0:
348,220,27841,2,0,P|265:195|200:252,1,180,0|8,0:0|0:0,0:0:0:0:
216,340,28981,1,2,0:0:0:0:
284,284,29360,6,0,L|236:100,1,180,0|8,0:0|0:0,0:0:0:0:
76,32,30879,2,0,B|116:116|20:116|56:204,1,180,0|8,0:0|0:0,0:0:0:0:
68,288,32018,1,2,0:0:0:0:
156,260,32398,6,0,P|160:212|140:172,2,90,0|2|8,0:0|0:0|0:0,0:0:0:0:
212,332,33537,2,0,L|308:332,1,90,2|0,0:0|0:0,0:0:0:0:
356,260,34297,2,0,P|352:212|372:172,2,90,2|8|2,0:0|0:0|0:0,0:0:0:0:
440,232,35436,2,0,P|452:128|396:88,2,180,0|8|4,0:0|0:0|0:0,0:0:0:0:
256,236,37715,6,0,B|184:224|184:308|88:296,1,180
213,154,39234,2,0,P|257:144|300:156,1,90,8|2,0:0|0:0,0:0:0:0:
256,236,39993,6,0,B|368:284|432:152|360:88|360:88|456:32|456:32,1,360
472,124,41892,1,2,0:0:0:0:
472,216,42272,2,0,P|428:292|348:336,1,180,8|0,0:0|0:0,0:0:0:0:
256,180,43791,5,8,0:0:0:0:
162,335,44550,2,0,P|84:292|40:216,1,180,0|8,0:0|0:0,0:0:0:0:
40,32,46069,6,0,P|84:40|120:84,1,90,0|2,0:0|0:0,0:0:0:0:
114,163,46829,2,0,P|71:155|40:124,1,90,8|2,0:0|0:0,0:0:0:0:
115,71,47588,2,0,P|188:108|200:200,1,180,0|8,0:0|0:0,0:0:0:0:
256,368,49107,5,4,0:0:0:0:
311,198,49867,2,0,P|320:112|397:71,1,180,8|0,0:0|0:0,0:0:0:0:
397,163,51006,1,2,0:0:0:0:
396,256,51386,2,0,P|472:214|481:128,1,180,8|0,0:0|0:0,0:0:0:0:
397,163,52525,6,0,P|340:176|312:216,1,90,2|8,0:0|0:0,0:0:0:0:
396,256,53284,2,0,L|444:344,2,90,2|0|2,0:0|0:0|0:0,0:0:0:0:
321,198,54424,2,0,P|352:169|402:163,1,90,8|2,0:0|0:0,0:0:0:0:
396,256,55183,6,0,B|340:332|232:288|224:212|224:212|152:184|92:244,1,360
88,144,57082,2,0,P|136:124|180:120,2,90,2|8|2,0:0|0:0|0:0,0:0:0:0:
256,192,58221,12,4,61259,0:0:0:0:
40,72,62778,5,0,0:0:0:0:
176,192,63537,2,0,B|236:164|296:236|351:192,2,180,8|0|8,0:0|0:0|0:0,0:0:0:0:
40,312,65816,2,0,P|120:352|208:340,1,180,0|8,0:0|0:0,0:0:0:0:
256,264,66955,6,0,L|256:164,2,90,0|4|0,0:0|0:0|0:0,0:0:0:0:
304,340,68094,2,0,P|391:352|471:312,1,180,8|0,0:0|0:0,0:0:0:0:
464,224,69234,1,0,0:0:0:0:
440,135,69613,2,0,B|380:132|348:204|364:248|364:248|300:220|256:248,2,270,8|0|0,0:0|0:0|0:0,0:0:0:0:
472,52,72272,6,0,P|424:48|380:60,1,90,0|8,0:0|0:0,0:0:0:0:
304,100,73031,2,0,L|208:100,1,90,0|4,0:0|0:0,0:0:0:0:
212,192,73791,2,0,L|304:192,2,90,0|8|0,0:0|0:0|0:0,0:0:0:0:
214,100,74930,5,0,0:0:0:0:
132,60,75310,2,0,P|88:49|44:54,2,90,0|8|0,0:0|0:0|0:0,0:0:0:0:
214,100,76449,2,0,P|176:164|72:136,2,180,0|8|0,0:0|0:0|0:0,0:0:0:0:
256,276,78727,1,8,0:0:0:0:
298,100,79487,6,0,P|336:164|440:136,2,180,4|8|0,0:0|0:0|0:0,0:0:0:0:
128,36,81765,2,0,B|64:92|136:140|80:200,1,180
36,280,82905,2,0,P|100:292|136:268,2,90,0|8|0,0:0|0:0|0:0,0:0:0:0:
80,200,84044,6,0,P|164:196|216:272,2,180,0|8|4,0:0|0:0|0:0,0:0:0:0:
256,192,94677,12,4,97715,0:0:0:0:
256,192,99234,6,0,P|200:128|108:112,2,180,0|8|0,0:0|0:0|0:0,0:0:0:0:
344,352,101513,2,0,P|416:304|432:216,1,180,8|0,0:0|0:0,0:0:0:0:
392,136,102651,1,2,0:0:0:0:
320,80,103032,2,0,B|252:64|240:140|132:112,2,180,8|0|8,0:0|0:0|0:0,0:0:0:0:
432,216,105310,6,0,P|416:302|344:352,1,180,0|8,0:0|0:0,0:0:0:0:
168,316,106829,2,0,P|120:304|76:308,1,90,0|2,0:0|0:0,0:0:0:0:
20,240,107588,2,0,L|32:148,1,90,8|2,0:0|0:0,0:0:0:0:
40,60,108348,2,0,B|96:40|148:96|216:68,1,180,0|8,0:0|0:0,0:0:0:0:
344,192,109867,6,0,P|416:156|444:232,2,180,4|8|0,0:0|0:0|0:0,0:0:0:0:
256,348,112145,1,8,0:0:0:0:
168,192,112905,2,0,P|96:156|68:232,2,180,0|8|0,0:0|0:0|0:0,0:0:0:0:
336,252,115183,1,8,0:0:0:0:
428,96,115943,5,0,0:0:0:0:
256,36,116702,2,0,B|212:124|296:124|252:212,1,180,8|0,0:0|0:0,0:0:0:0:
218,291,117841,2,0,P|181:268|164:228,2,90,2|8|2,0:0|0:0|0:0,0:0:0:0:
289,352,118981,2,0,P|313:270|254:208,1,180,0|8,0:0|0:0,0:0:0:0:
164,220,120120,1,2,0:0:0:0:
218,291,120500,2,0,L|400:240,1,180,0|8,0:0|0:0,0:0:0:0:
476,84,122018,6,0,B|421:89|400:48|400:48|352:72|312:40,2,180,4|8|0,0:0|0:0|0:0,0:0:0:0:
312,156,124297,2,0,P|256:212|196:152,1,180,8|0,0:0|0:0,0:0:0:0:
116,116,125436,6,0,L|76:32,2,90,2|8|2,0:0|0:0|0:0,0:0:0:0:
44,168,126575,2,0,L|84:252,1,90,0|2,0:0|0:0,0:0:0:0:
88,340,127335,2,0,P|168:300|168:216,1,180,8|0,0:0|0:0,0:0:0:0:
256,188,128474,6,0,L|256:84,2,90,2|8|0,0:0|0:0|0:0,0:0:0:0:
342,218,129613,2,0,P|346:303|424:340,1,180,0|8,0:0|0:0,0:0:0:0:
256,192,131132,12,4,134170,0:0:0:0:
256,192,135689,6,0,P|284:156|304:116,1,90,0|2,0:0|0:0,0:0:0:0:
376,64,136449,2,0,P|448:16|516:64,2,180,8|0|8,0:0|0:0|0:0,0:0:0:0:
304,116,138348,1,2,0:0:0:0:
256,192,138727,2,0,B|204:228|304:320|252:364,2,180,0|0|4,0:0|0:0|0:0,0:0:0:0:
208,116,140626,6,0,P|164:152|152:200,2,90,2|8|2,0:0|0:0|0:0,0:0:0:0:
259,42,141765,2,0,P|300:118|256:192,1,180,0|8,0:0|0:0,0:0:0:0:
208,116,142905,2,0,L|116:116,1,90,2|0,0:0|0:0,0:0:0:0:
74,196,143664,6,0,L|164:196,1,90,2|8,0:0|0:0,0:0:0:0:
116,276,144424,2,0,L|24:276,2,90,2|0|2,0:0|0:0|0:0,0:0:0:0:
164,196,145563,2,0,P|216:268|172:356,2,180,8|4|8,0:0|0:0|0:0,0:0:0:0:
256,40,147841,2,0,L|256:136,2,90,2|0|8,0:0|0:0|0:0,0:0:0:0:
348,196,149360,6,0,P|296:268|340:356,2,180,0|8|0,0:0|0:0|0:0,0:0:0:0:
256,40,151639,1,8,0:0:0:0:
212,120,152018,6,0,P|256:132|300:120,2,90,2|4|2,0:0|0:0|0:0,0:0:0:0:
164,44,153158,2,0,P|116:112|156:192,1,180,8|0,0:0|0:0,0:0:0:0:
240,220,154297,2,0,P|208:268|176:276,2,90,2|8|2,0:0|0:0|0:0,0:0:0:0:
155,189,155436,6,0,P|217:130|300:152,1,180,0|8,0:0|0:0,0:0:0:0:
240,220,156575,1,2,0:0:0:0:
176,280,156955,2,0,B|224:328|304:308|324:240|324:240|412:192|488:256,1,360,0|4,0:0|0:0,0:0:0:0:
472,76,159234,6,0,P|440:44|396:40,2,90,8|2|0,0:0|0:0|0:0,0:0:0:0:
400,124,160373,2,0,L|360:204,1,90,2|8,0:0|0:0,0:0:0:0:
300,272,161132,2,0,L|300:372,1,90,2|0,0:0|0:0,0:0:0:0:
212,362,161892,6,0,L|212:272,1,90,2|8,0:0|0:0,0:0:0:0:
152,204,162651,2,0,L|112:124,1,90,2|0,0:0|0:0,0:0:0:0:
40,76,163411,2,0,P|72:44|116:40,2,90,2|8|2,0:0|0:0|0:0,0:0:0:0:
112,124,164550,6,0,B|184:128|212:72|204:32|204:32|248:32,2,180,0|8|0,0:0|0:0|0:0,0:0:0:0:
24,144,166449,2,0,P|56:200|80:208,2,90,2|8|2,0:0|0:0|0:0,0:0:0:0:
112,124,167588,6,0,P|184:88|208:88,1,90,0|2,0:0|0:0,0:0:0:0:
188,176,168348,1,8,0:0:0:0:
196,264,168727,2,0,P|140:324|36:320,2,180,2|2|2,0:0|0:0|0:0,0:0:0:0:
256,196,170626,6,0,B|304:120|212:112|256:24,1,180,4|0,0:0|0:0,0:0:0:0:
412,116,172145,1,0,0:0:0:0:
492,276,172905,2,0,P|408:308|328:276,1,180,8|0,0:0|0:0,0:0:0:0:
332,96,174424,2,0,P|256:56|176:100,2,180,8|0|8,0:0|0:0|0:0,0:0:0:0:
256,144,176322,1,2,0:0:0:0:
180,192,176702,6,0,P|257:233|334:193,1,180,0|8,0:0|0:0,0:0:0:0:
256,144,177841,1,2,0:0:0:0:
180,96,178221,2,0,P|132:108|100:144,1,90
44,204,178981,2,0,L|40:296,1,90,8|2,0:0|0:0,0:0:0:0:
116,344,179740,6,0,P|160:356|204:344,1,90,2|2,0:0|0:0,0:0:0:0:
256,272,180500,1,8,0:0:0:0:
309,345,180879,2,0,P|353:355|396:344,2,90,2|2|2,0:0|0:0|0:0,0:0:0:0:
256,192,182018,12,4,185816,0:0:0:0:
212,192,197968,6,0,L|212:100,1,90,4|2,0:0|0:0,0:0:0:0:
148,40,198727,2,0,P|104:20|60:28,1,90,8|2,0:0|0:0,0:0:0:0:
92,112,199487,1,0,0:0:0:0:
119,197,199867,2,0,P|75:203|36:184,2,90,2|8|2,0:0|0:0|0:0,0:0:0:0:
92,112,201006,6,0,P|176:128|208:212,1,180,0|8,0:0|0:0,0:0:0:0:
208,300,202145,1,2,0:0:0:0:
288,344,202525,2,0,P|376:344|456:300,1,180,0|8,0:0|0:0,0:0:0:0:
380,252,203664,1,2,0:0:0:0:
303,208,204044,6,0,P|335:128|420:116,1,180,4|8,0:0|0:0,0:0:0:0:
475,184,205183,2,0,P|436:203|392:197,2,90,2|0|2,0:0|0:0|0:0,0:0:0:0:
420,116,206322,1,8,0:0:0:0:
364,44,206702,2,0,P|403:25|448:28,2,90,2|0|2,0:0|0:0|0:0,0:0:0:0:
300,102,207841,6,0,L|300:192,1,90,8|2,0:0|0:0,0:0:0:0:
212,192,208601,2,0,L|212:102,2,90,0|2|8,0:0|0:0|0:0,0:0:0:0:
256,272,209740,1,2,0:0:0:0:
252,364,210120,6,0,P|156:336|160:268,1,180,4|8,0:0|0:0,0:0:0:0:
136,184,211259,2,0,P|96:208|72:248,2,90,2|0|2,0:0|0:0|0:0,0:0:0:0:
205,125,212398,2,0,P|220:211|158:271,2,180,8|0|8,0:0|0:0|0:0,0:0:0:0:
164,48,214297,1,2,0:0:0:0:
256,52,214677,2,0,P|300:104|312:224,1,180,0|8,0:0|0:0,0:0:0:0:
260,284,215816,6,0,P|296:304|344:300,1,90,2|4,0:0|0:0,0:0:0:0:
315,212,216575,1,2,0:0:0:0:
224,200,216955,2,0,P|172:248|192:348,2,180,8|0|8,0:0|0:0|0:0,0:0:0:0:
316,212,218854,1,2,0:0:0:0:
260,284,219234,2,0,L|72:244,1,180,0|8,0:0|0:0,0:0:0:0:
112,68,220753,6,0,L|300:108,2,180,0|8|4,0:0|0:0|0:0,0:0:0:0:
112,128,226829,6,0,P|256:36|404:128,2,360,2|2|2,0:0|0:0|0:0,0:0:0:0:
256,356,231006,2,0,L|256:256,1,90,2|4,0:0|0:0,0:0:0:0:
256,192,231575,12,2,235943,0:0:0:0:
