osu file format v14

[General]
AudioFilename: Nihino Kana Songs Compilation.mp3
AudioLeadIn: 0
PreviewTime: 523888
Countdown: 0
SampleSet: Soft
StackLeniency: 0.7
Mode: 0
LetterboxInBreaks: 1
WidescreenStoryboard: 0

[Editor]
Bookmarks: 14361,92824,279202,355151,456830,572594,729282,750948,1103807,1453923,1482423
DistanceSpacing: 1.2
BeatDivisor: 4
GridSize: 16
TimelineZoom: 1.5

[Metadata]
Title:Songs Compilation
TitleUnicode:Songs Compilation
Artist:Nishino Kana
ArtistUnicode:西野カナ
Creator:Bless
Version:Collab
Source:
Tags:Andrea osuplayer111 ykcarrot Mythol vivicat Dark_Ai My Baby 君って Wishing Flower I'll be there Story Always Day 7 Dear… beloved SAKURA, I love you? 君に会いたくなるから Thinking of you もっと… 私たち Just the way you are 君の声を feat.VERBAL Happy Half Year!! missing you Rainbow 会いたくて 会いたくて Style. Best Friend 遠くても feat.WISE Christmas Love if LOVE IS BLIND Distance Yours only, feat. WISE ~maison de m-flo~ GO FOR IT!! Believe
BeatmapID:425639
BeatmapSetID:176777

[Difficulty]
HPDrainRate:5
CircleSize:4
OverallDifficulty:7
ApproachRate:8
SliderMultiplier:2.2
SliderTickRate:1

[Events]
//Background and Video events
0,0,"BG.jpg",0,0
//Break Periods
2,93024,97526
2,99516,278452
2,355351,456080
2,463382,521021
2,539617,545727
2,550205,569021
2,572794,728532
2,751282,1103057
2,1125545,1151518
2,1161443,1185108
2,1188109,1450806
//Storyboard Layer 0 (Background)
//Storyboard Layer 1 (Fail)
//Storyboard Layer 2 (Pass)
//Storyboard Layer 3 (Foreground)
//Storyboard Layer 4 (Overlay)
//Storyboard Sound Samples

[TimingPoints]
517,923.076923076923,4,2,1,35,1,0
58209,-100,4,2,1,40,0,0
59593,-83.3333333333333,4,2,1,50,0,0
60516,-83.3333333333333,4,2,2,50,0,0
60747,-83.3333333333333,4,2,1,50,0,0
64209,-83.3333333333333,4,2,2,50,0,0
64440,-83.3333333333333,4,2,1,50,0,0
67901,-83.3333333333333,4,2,2,50,0,0
68132,-83.3333333333333,4,2,1,50,0,0
71593,-83.3333333333333,4,2,2,50,0,0
71824,-83.3333333333333,4,2,1,50,0,0
75286,-83.3333333333333,4,2,2,50,0,0
75517,-83.3333333333333,4,2,1,50,0,0
78978,-83.3333333333333,4,2,2,50,0,0
79209,-83.3333333333333,4,2,1,50,0,0
82670,-83.3333333333333,4,2,2,50,0,0
82901,-83.3333333333333,4,2,1,50,0,0
86363,-83.3333333333333,4,2,2,50,0,0
86593,-83.3333333333333,4,2,1,50,0,0
87286,-100,4,2,1,50,0,0
90055,-100,4,2,1,40,0,0
90978,-100,4,2,1,30,0,0
91901,-100,4,2,1,20,0,0
95151,833.333333333333,4,2,1,70,1,0
132727,821.917808219178,4,2,1,70,1,0
172596,800,4,2,1,70,1,0
234479,800,4,2,1,70,1,0
279202,759.493670886076,4,2,1,60,1,0
279202,-83.3333333333333,4,2,1,60,0,0
282239,-83.3333333333333,4,2,2,60,0,0
294391,-100,4,2,2,60,0,0
306923,-66.6666666666667,4,2,1,60,0,0
307303,-100,4,2,2,60,0,0
309961,-66.6666666666667,4,2,1,60,0,0
310341,-100,4,2,2,60,0,0
330847,-83.3333333333333,4,2,2,60,0,0
353632,-100,4,2,1,60,0,0
367541,750,4,2,1,70,1,0
418645,750,4,2,1,70,1,0
456830,705.882352941176,4,2,3,50,1,0
460712,-100,4,2,3,35,0,0
461065,-100,4,2,3,50,0,0
521771,-100,4,2,1,50,0,0
523888,-133.333333333333,4,2,1,50,0,0
524594,-100,4,2,1,50,0,0
524947,-100,4,2,3,60,0,0
569859,-100,4,2,3,5,0,0
574911,689.655172413793,4,2,1,70,1,0
609885,681.818181818182,4,2,1,70,1,0
640459,681.818181818182,4,2,1,70,1,0
673006,674.157303370787,4,2,1,70,1,0
729282,666.666666666667,4,2,2,60,1,0
730615,-100,4,2,1,60,0,0
734948,-100,4,2,2,50,0,0
735282,-100,4,2,1,60,0,0
739948,-100,4,2,2,50,0,0
740115,-100,4,2,1,60,0,0
740282,-100,4,2,2,50,0,0
740615,-100,4,2,1,60,0,0
745615,-100,4,2,2,50,0,0
745948,-100,4,2,1,60,0,0
758523,666.666666666667,4,2,1,60,1,0
811198,652.173913043478,4,2,1,60,1,0
852518,631.578947368421,4,2,1,60,1,0
882858,618.556701030928,4,2,1,60,1,0
925711,612.244897959184,4,2,1,60,1,0
976068,582.52427184466,4,2,1,60,1,0
1004310,545.454545454546,4,2,1,60,1,0
1052872,530.973451327434,4,2,1,60,1,0
1101756,512.820512820513,4,2,1,50,1,0
1103807,-133.333333333333,4,2,1,50,0,0
1104832,-133.333333333333,4,2,2,50,0,0
1104961,-133.333333333333,4,2,1,50,0,0
1106884,-133.333333333333,4,2,2,50,0,0
1107012,-133.333333333333,4,2,1,50,0,0
1198896,500,4,2,1,60,1,0
1307346,491.803278688525,4,2,1,60,1,0
1367293,487.80487804878,4,2,1,60,1,0
1410834,468.75,4,2,1,60,1,0
1453281,428.571428571429,4,2,2,60,1,0
1454995,-125,4,2,1,70,0,0
1455423,-125,4,2,3,70,0,0
1482423,-125,4,2,1,50,0,0
1491887,428.571428571429,4,2,1,60,1,0
1558955,408.163265306122,4,2,1,60,1,0
1593810,397.350993377483,4,2,1,60,1,0

[Colours]
Combo1 : 0,183,183
Combo2 : 255,128,192
Combo3 : 0,128,255
Combo4 : 255,128,64

[HitObjects]
256,144,14363,6,0,P|231:191|256:240,1,110,2|0,0:0|0:0,0:0:0:0:
400,192,15286,2,0,L|336:192,1,55,4|0,1:2|0:0,0:0:0:0:
176,192,15747,1,0,0:0:0:0:
345,162,15978,1,2,0:0:0:0:
176,224,16209,1,8,0:0:0:0:
346,129,16440,2,0,P|318:122|288:128,1,55
172,255,16901,5,0,1:0:0:0:
228,79,17132,2,0,P|176:63|124:79,1,110,0|0,1:0|0:0,0:0:0:0:
72,143,17824,1,2,0:0:0:0:
176,143,18055,1,8,0:0:0:0:
72,143,18516,5,0,0:0:0:0:
228,79,18747,1,0,0:0:0:0:
384,144,18978,2,0,L|439:144,1,55,0|0,1:0|0:0,0:0:0:0:
245,234,19440,1,0,0:0:0:0:
377,59,19670,1,2,0:0:0:0:
407,306,19901,2,0,P|431:318|463:318,2,55,8|0|0,0:0|0:0|0:0,0:0:0:0:
288,280,20593,1,0,1:0:0:0:
105,112,20824,2,0,P|157:112|197:72,1,110,0|0,1:0|0:0,0:0:0:0:
384,236,21517,1,2,0:0:0:0:
364,316,21747,1,8,0:0:0:0:
324,176,21978,1,0,0:0:0:0:
384,236,22209,1,2,0:0:0:0:
300,256,22440,1,0,0:0:0:0:
324,176,22670,6,0,P|336:136|324:96,2,82.5,0|0|2,1:0|0:0|0:0,0:0:0:0:
252,136,23593,1,8,0:0:0:0:
325,97,23824,1,0,0:0:0:0:
396,136,24055,1,0,0:0:0:0:
324,176,24286,1,0,1:0:0:0:
252,136,24517,2,0,L|192:136,2,55,0|0|0,1:0|0:0|0:0,0:0:0:0:
396,136,25209,1,2,0:0:0:0:
376,56,25440,2,0,P|324:36|276:56,1,110,8|0,0:0|0:0,0:0:0:0:
164,180,26363,5,0,1:0:0:0:
204,108,26593,1,0,0:0:0:0:
244,180,26824,1,0,0:0:0:0:
124,249,27055,1,2,0:0:0:0:
81,178,27286,1,8,0:0:0:0:
164,180,27517,1,0,0:0:0:0:
166,319,27747,1,0,0:0:0:0:
84,318,27978,1,0,1:0:0:0:
124,249,28209,1,0,1:0:0:0:
208,248,28440,2,0,L|264:248,2,55,0|0|2,0:0|0:0|0:0,0:0:0:0:
124,248,29132,1,8,1:3:0:0:
80,176,29363,1,8,1:3:0:0:
124,108,29593,1,4,1:3:0:0:
124,108,30055,6,0,P|176:92|228:108,1,110,0|0,1:0|0:0,0:0:0:0:
296,152,30747,1,2,0:0:0:0:
364,108,30978,1,8,0:0:0:0:
436,152,31209,1,0,0:0:0:0:
408,228,31440,1,0,0:0:0:0:
324,228,31670,1,0,1:0:0:0:
296,152,31901,2,0,P|244:136|192:152,1,110,0|0,1:0|0:0,0:0:0:0:
164,228,32593,1,2,0:0:0:0:
244,216,32824,1,8,0:0:0:0:
296,152,33055,1,0,0:0:0:0:
256,80,33286,6,0,L|256:24,2,55,0|0|0,0:0|0:0|1:0,0:0:0:0:
216,232,33978,1,0,0:0:0:0:
276,168,34209,2,0,L|352:168,1,55,0|2,0:0|0:0,0:0:0:0:
260,124,34670,2,0,L|192:144,1,55,8|0,0:0|0:0,0:0:0:0:
136,180,35132,1,0,0:0:0:0:
168,256,35363,2,0,L|236:264,1,55,0|0,1:0|1:0,0:0:0:0:
296,228,35824,2,0,L|336:180,2,55,0|0|2,0:0|0:0|0:0,0:0:0:0:
312,308,36517,1,8,0:0:0:0:
200,188,36978,5,0,0:0:0:0:
248,120,37209,1,0,0:0:0:0:
324,156,37440,2,0,L|384:180,2,55,0|0|0,1:0|0:0|0:0,0:0:0:0:
244,144,38132,1,2,0:0:0:0:
172,184,38363,2,0,L|248:276,1,110,8|0,0:0|0:0,0:0:0:0:
316,232,39055,1,0,1:0:0:0:
388,188,39286,2,0,L|420:144,2,55,0|0|0,1:0|0:0|0:0,0:0:0:0:
376,268,39978,1,2,0:0:0:0:
292,276,40209,1,8,0:0:0:0:
220,232,40440,2,0,L|188:176,2,55
292,192,41132,6,0,L|388:112,1,110,0|0,1:0|0:0,0:0:0:0:
456,148,41824,1,2,0:0:0:0:
440,228,42055,2,0,L|344:280,1,110,8|0,0:0|0:0,0:0:0:0:
260,292,42747,1,0,1:0:0:0:
260,292,42978,1,0,1:0:0:0:
164,156,43440,2,0,L|220:128,1,55,0|0,0:0|1:0,0:0:0:0:
296,144,43901,1,8,1:3:0:0:
356,200,44132,1,8,1:3:0:0:
400,268,44363,2,0,L|344:300,1,55,4|0,1:3|0:0,0:0:0:0:
296,356,44824,1,4,1:0:0:0:
164,260,45286,5,0,0:0:0:0:
200,184,45516,1,0,0:0:0:0:
276,216,45747,2,0,L|312:268,1,55,8|0,0:0|0:0,0:0:0:0:
364,200,46209,2,0,L|328:132,1,55,0|0,0:0|1:0,0:0:0:0:
416,120,46670,2,0,L|300:116,1,110,0|0,1:0|0:0,0:0:0:0:
224,128,47363,2,0,L|184:168,2,55,0|8|0,1:0|0:0|0:0,0:0:0:0:
256,292,48286,5,0,0:0:0:0:
256,292,48516,2,0,L|344:272,2,82.5,0|0|0,1:0|0:0|0:0,0:0:0:0:
324,132,49440,2,0,L|276:104,1,55,8|0,0:0|1:0,0:0:0:0:
196,88,49901,2,0,L|192:152,1,55,0|0,0:0|1:0,0:0:0:0:
160,220,50363,2,0,L|272:268,1,110,0|0,1:0|0:0,0:0:0:0:
300,192,51055,1,0,1:0:0:0:
380,216,51286,2,0,L|396:156,1,55,8|8,1:3|1:3,0:0:0:0:
336,104,51747,2,0,L|308:156,1,55,4|4,1:3|1:3,0:0:0:0:
96,240,52209,5,4,1:0:0:0:
180,236,52440,2,0,L|292:232,1,110
344,296,53132,2,0,L|412:284,1,55,8|0,0:0|0:0,0:0:0:0:
288,188,53593,2,0,L|352:172,2,55,0|0|0,0:0|1:0|1:0,0:0:0:0:
204,180,54286,1,0,0:0:0:0:
140,232,54516,2,0,L|204:272,1,55,0|0,0:0|1:0,0:0:0:0:
268,268,54978,1,8,0:0:0:0:
348,276,55209,1,0,0:0:0:0:
396,208,55440,1,0,0:0:0:0:
368,132,55670,1,0,0:0:0:0:
292,100,55901,1,4,1:0:0:0:
256,192,56016,12,0,57747,1:0:0:0:
256,192,57978,5,0,1:0:0:0:
256,192,58209,1,0,1:0:0:0:
256,192,58440,1,0,1:0:0:0:
256,192,58670,2,0,L|256:360,1,165,4|0,1:2|0:0,0:0:0:0:
216,240,59593,6,0,L|352:220,1,131.99999597168,4|0,1:0|0:0,0:0:0:0:
272,148,60286,1,2,0:0:0:0:
148,120,60516,1,8,0:0:0:0:
360,248,60978,1,0,0:0:0:0:
400,132,61209,1,0,1:0:0:0:
304,116,61440,2,0,L|224:116,2,65.9999979858399,0|0|0,1:0|0:0|0:0,0:0:0:0:
344,184,62132,1,0,1:0:0:0:
336,264,62363,1,8,0:0:0:0:
180,240,62824,5,0,0:0:0:0:
112,200,63055,1,0,0:0:0:0:
120,120,63286,2,0,L|268:116,1,131.99999597168,0|0,1:0|0:0,0:0:0:0:
324,148,63978,1,2,0:0:0:0:
272,208,64209,2,0,L|216:248,1,65.9999979858399,8|0,0:0|1:0,0:0:0:0:
284,288,64670,2,0,L|348:248,1,65.9999979858399,0|0,0:0|1:0,0:0:0:0:
384,188,65132,1,0,1:0:0:0:
420,256,65363,1,0,0:0:0:0:
344,240,65593,1,0,0:0:0:0:
408,192,65824,1,0,0:0:0:0:
368,124,66055,1,8,0:3:0:0:
368,124,66286,1,8,0:3:0:0:
368,124,66517,2,0,L|292:120,1,65.9999979858399,4|0,0:3|0:0,0:0:0:0:
228,152,66978,6,0,L|172:240,2,98.9999969787599,0|0|2,1:0|0:0|0:0,0:0:0:0:
228,232,67901,2,0,L|172:144,2,98.9999969787599,8|0|0,0:0|0:0|1:0,0:0:0:0:
308,240,68824,1,0,1:0:0:0:
344,168,69055,2,0,L|456:92,1,131.99999597168,0|0,0:0|1:0,0:0:0:0:
496,160,69747,1,8,0:0:0:0:
448,224,69978,1,0,0:0:0:0:
368,220,70209,1,0,0:0:0:0:
304,172,70440,1,0,0:0:0:0:
344,104,70670,6,0,L|224:128,2,98.9999969787599,0|0|2,1:0|0:0|0:0,0:0:0:0:
284,184,71593,2,0,L|352:144,1,65.9999979858399,8|0,0:0|1:0,0:0:0:0:
372,244,72055,2,0,L|316:288,1,65.9999979858399,0|0,0:0|1:0,0:0:0:0:
203,246,72517,1,0,1:0:0:0:
310,246,72747,1,0,0:0:0:0:
310,139,72978,1,0,0:0:0:0:
203,139,73209,1,0,0:0:0:0:
256,236,73440,1,8,1:3:0:0:
300,192,73670,1,0,0:0:0:0:
256,148,73901,1,0,0:0:0:0:
212,192,74132,1,0,0:0:0:0:
256,236,74363,6,0,L|256:100,1,131.99999597168,4|0,1:0|0:0,0:0:0:0:
256,60,75055,1,2,0:0:0:0:
160,84,75286,1,8,0:0:0:0:
160,84,75747,1,0,0:0:0:0:
96,160,75978,1,0,1:0:0:0:
172,224,76209,2,0,L|280:224,2,98.9999969787599,0|0|0,1:0|0:0|1:0,0:0:0:0:
96,284,77132,1,8,0:0:0:0:
192,304,77363,1,0,0:0:0:0:
288,276,77593,1,0,0:0:0:0:
348,196,77824,1,0,0:0:0:0:
340,180,78055,6,0,L|212:140,1,131.99999597168,0|0,1:0|0:0,0:0:0:0:
120,112,78747,1,2,0:0:0:0:
184,188,78978,2,0,L|268:152,1,65.9999979858399,8|0,0:0|1:0,0:0:0:0:
340,192,79440,2,0,L|292:244,1,65.9999979858399,0|0,0:0|1:0,0:0:0:0:
316,144,79901,2,0,L|176:128,1,131.99999597168,0|0,1:0|0:0,0:0:0:0:
100,180,80593,1,0,0:0:0:0:
112,280,80824,1,8,0:3:0:0:
204,240,81055,1,8,0:3:0:0:
304,244,81286,1,4,0:3:0:0:
428,172,81747,6,0,L|300:128,1,131.99999597168,0|0,1:0|0:0,0:0:0:0:
204,112,82440,1,2,0:0:0:0:
112,76,82670,2,0,L|116:144,2,65.9999979858399,8|0|0,0:0|0:0|0:0,0:0:0:0:
184,144,83363,1,0,1:0:0:0:
280,160,83593,1,0,1:0:0:0:
368,116,83824,2,0,L|376:252,1,131.99999597168,0|0,0:0|1:0,0:0:0:0:
276,256,84516,2,0,L|132:264,1,131.99999597168,8|0,0:0|0:0,0:0:0:0:
92,176,85209,1,0,0:0:0:0:
176,120,85440,5,0,1:0:0:0:
188,220,85670,1,0,0:0:0:0:
280,188,85901,1,0,0:0:0:0:
360,248,86132,1,2,0:0:0:0:
316,160,86363,2,0,L|352:88,1,65.9999979858399,8|0,0:0|1:0,0:0:0:0:
424,160,86824,2,0,L|392:224,1,65.9999979858399,0|0,0:0|1:0,0:0:0:0:
316,248,87286,2,0,L|204:264,1,110,0|0,1:0|0:0,0:0:0:0:
124,256,87978,1,0,0:0:0:0:
148,176,88209,2,0,L|180:120,1,55,8|0,1:3|0:0,0:0:0:0:
256,132,88670,2,0,L|292:196,1,55
256,192,89132,1,4,1:3:0:0:
256,192,89247,12,0,92824,0:0:0:0:
256,192,98276,5,0,0:0:0:0:
256,192,98484,1,0,0:0:0:0:
340,88,98900,2,0,L|348:208,1,110
376,160,279202,6,0,P|384:192|376:224,1,65.9999979858399,2|0,0:0|0:0,0:0:0:0:
228,120,279581,2,0,P|244:91|273:74,1,65.9999979858399
284,264,279961,2,0,P|267:292|238:309,1,65.9999979858399,2|0,0:0|0:0,0:0:0:0:
118,202,280341,2,0,P|110:170|118:137,1,65.9999979858399,2|0,0:0|0:0,0:0:0:0:
256,192,280720,5,2,0:0:0:0:
256,192,280815,1,0,0:0:0:0:
256,192,280910,1,0,0:0:0:0:
256,192,281005,1,0,0:0:0:0:
256,192,281100,1,2,0:0:0:0:
256,92,281290,5,0,0:0:0:0:
256,92,281385,1,0,0:0:0:0:
256,92,281480,2,0,L|256:68,8,16.49999949646,2|0|0|0|0|0|0|0|2,0:0|0:0|0:0|0:0|0:0|0:0|0:0|0:0|0:0,0:0:0:0:
256,192,282050,1,2,0:0:0:0:
316,268,282239,6,0,P|256:292|196:268,1,131.99999597168,2|0,0:0|0:0,0:0:0:0:
132,192,282809,1,0,0:0:0:0:
188,112,282999,2,0,L|232:56,1,65.9999979858399,0|0,1:0|0:0,0:0:0:0:
256,192,283379,2,0,L|212:248,1,65.9999979858399,2|0,0:0|0:0,0:0:0:0:
128,292,283758,1,0,0:0:0:0:
132,192,283948,1,2,0:0:0:0:
188,112,284138,2,0,P|252:88|308:112,1,131.99999597168,2|0,0:0|1:0,0:0:0:0:
436,192,284708,1,2,0:0:0:0:
308,112,284898,1,0,0:0:0:0:
340,204,285088,1,2,0:0:0:0:
404,104,285277,6,0,L|444:48,2,65.9999979858399,2|0|0,0:0|0:0|0:0,0:0:0:0:
340,204,285847,1,0,0:0:0:0:
404,104,286037,2,0,P|372:40|320:16,1,131.99999597168,0|2,1:0|0:0,0:0:0:0:
308,112,286607,1,2,0:0:0:0:
352,304,286986,1,2,0:0:0:0:
352,304,287176,2,0,P|292:280|232:304,1,131.99999597168,2|0,0:0|1:0,0:0:0:0:
152,364,287746,1,2,0:0:0:0:
72,304,287936,1,0,0:0:0:0:
152,364,288126,1,2,0:0:0:0:
232,304,288315,6,0,P|292:280|352:304,1,131.99999597168,2|0,0:0|0:0,0:0:0:0:
432,364,288885,1,0,0:0:0:0:
512,308,289075,1,0,1:0:0:0:
432,364,289265,1,0,0:0:0:0:
432,248,289455,1,2,0:0:0:0:
432,364,289645,1,2,0:0:0:0:
352,304,289834,2,0,L|288:292,1,65.9999979858399,0|2,0:0|0:0,0:0:0:0:
176,212,290214,2,0,P|244:212|296:176,1,131.99999597168,2|0,0:0|1:0,0:0:0:0:
372,112,290784,1,2,0:0:0:0:
388,208,290974,1,0,0:0:0:0:
296,176,291164,1,2,0:0:0:0:
280,80,291353,6,0,P|196:40|128:108,1,197.99999395752,2|0,0:0|0:0,0:0:0:0:
64,180,292113,2,0,P|128:204|188:184,1,131.99999597168,0|2,1:0|0:0,0:0:0:0:
272,132,292683,2,0,L|320:180,1,65.9999979858399
318,178,293252,1,0,0:0:0:0:
368,92,293442,1,0,0:0:0:0:
416,180,293632,2,0,L|484:180,2,65.9999979858399,0|0|0,1:0|0:0|0:0,0:0:0:0:
416,180,294391,1,2,0:0:0:0:
416,180,294961,5,0,0:0:0:0:
352,232,295151,1,0,1:0:0:0:
288,180,295341,2,0,L|288:120,1,55,0|2,0:0|0:0,0:0:0:0:
208,48,295720,2,0,P|156:28|108:48,1,110,0|0,0:0|3:0,0:0:0:0:
56,140,296290,2,0,L|56:196,1,55,2|0,0:0|0:0,0:0:0:0:
160,167,296670,2,0,L|160:107,1,55,0|2,1:0|0:0,0:0:0:0:
264,140,297050,1,0,0:0:0:0:
322,198,297239,2,0,L|322:254,1,55,2|2,0:0|0:0,0:0:0:0:
322,253,297809,1,0,0:0:0:0:
322,253,298189,6,0,P|340:304|392:328,2,110,0|2|0,1:0|0:0|0:0,0:0:0:0:
368,152,299138,1,0,3:0:0:0:
432,244,299328,1,2,0:0:0:0:
322,253,299518,1,0,0:0:0:0:
272,188,299708,2,0,L|212:188,1,55,0|2,1:0|0:0,0:0:0:0:
68,256,300277,1,2,0:0:0:0:
68,256,300467,2,0,P|120:232|137:183,1,110,2|0,0:0|0:0,0:0:0:0:
200,32,301227,6,0,P|256:24|308:32,1,110,0|2,1:0|0:0,0:0:0:0:
380,72,301796,1,0,0:0:0:0:
424,144,301986,2,0,P|444:128|456:100,2,55,0|0|2,0:0|3:0|0:0,0:0:0:0:
356,192,302556,2,0,L|356:252,1,55,0|0,0:0|1:0,0:0:0:0:
356,328,302936,1,2,0:0:0:0:
256,260,303126,1,0,0:0:0:0:
276,340,303315,1,2,0:0:0:0:
340,244,303505,6,0,P|360:196|340:144,1,110,2|0,0:0|0:0,0:0:0:0:
264,108,304075,1,0,0:0:0:0:
188,144,304265,2,0,P|168:196|188:244,1,110,0|2,1:0|0:0,0:0:0:0:
264,276,304834,1,0,0:0:0:0:
340,244,305024,2,0,L|400:244,1,55,0|0,0:0|3:0,0:0:0:0:
476,136,305404,2,0,L|420:136,1,55,2|0,0:0|0:0,0:0:0:0:
340,136,305784,1,0,1:0:0:0:
396,244,305974,1,2,0:0:0:0:
340,136,306164,1,0,0:0:0:0:
344,288,306353,1,2,0:0:0:0:
340,136,306543,1,4,0:0:0:0:
340,136,306923,6,0,B|316:92|340:56|340:56|368:92|356:120,1,123.750004720688,2|0,0:0|0:0,0:0:0:0:
340,136,307303,6,0,P|312:180|256:196,1,110,0|2,1:0|0:0,0:0:0:0:
260,112,307872,1,0,0:0:0:0:
160,156,308062,1,0,0:0:0:0:
260,112,308252,1,0,3:0:0:0:
168,48,308442,1,2,0:0:0:0:
260,112,308632,1,0,0:0:0:0:
160,156,308822,2,0,L|96:156,1,55,0|2,1:0|0:0,0:0:0:0:
52,252,309202,2,0,L|108:252,2,55,0|2|2,0:0|0:0|0:0,0:0:0:0:
52,252,309961,6,0,B|28:296|52:332|52:332|80:296|68:268,1,123.750004720688,2|0,0:0|0:0,0:0:0:0:
52,252,310341,6,0,L|52:196,1,55,0|0,1:0|0:0,0:0:0:0:
148,144,310720,2,0,L|148:200,1,55,2|0,0:0|0:0,0:0:0:0:
212,252,311100,1,0,0:0:0:0:
344,252,311290,1,0,3:0:0:0:
237,174,311480,1,2,0:0:0:0:
278,300,311670,1,0,0:0:0:0:
319,174,311860,1,0,1:0:0:0:
237,174,312050,2,0,P|179:174|144:208,1,110,2|2,0:0|0:0,0:0:0:0:
212,252,312619,5,2,0:0:0:0:
212,252,312999,1,0,0:0:0:0:
212,252,313379,1,0,1:0:0:0:
264,316,313569,1,0,0:0:0:0:
256,216,313758,1,2,0:0:0:0:
224,352,313948,2,0,P|172:372|120:356,1,110,0|0,0:0|3:0,0:0:0:0:
60,304,314518,1,2,0:0:0:0:
172,212,314708,2,0,L|212:252,1,55,0|0,0:0|1:0,0:0:0:0:
116,260,315088,2,0,P|96:208|116:160,1,110,2|2,0:0|0:0,0:0:0:0:
168,96,315657,5,2,0:0:0:0:
168,96,316037,2,0,L|224:96,1,55
288,148,316417,2,0,P|304:96|288:44,2,110,0|2|0,1:0|0:0|0:0,0:0:0:0:
184,220,317366,1,0,3:0:0:0:
168,96,317556,1,2,0:0:0:0:
168,96,317936,1,0,1:0:0:0:
184,220,318126,1,2,0:0:0:0:
240,120,318315,1,0,0:0:0:0:
128,164,318505,1,2,0:0:0:0:
256,192,318695,6,0,L|304:224,2,55,4|0|0,0:0|0:0|0:0,0:0:0:0:
184,152,319265,1,0,0:0:0:0:
124,208,319455,2,0,P|104:260|124:308,1,110,0|2,1:0|0:0,0:0:0:0:
188,256,320024,1,0,3:0:0:0:
200,176,320214,2,0,L|165:133,1,55,0|0,0:0|3:0,0:0:0:0:
208,40,320594,2,0,L|243:82,1,55,2|0,0:0|0:0,0:0:0:0:
200,176,320974,1,0,1:0:0:0:
69,182,321164,1,2,0:0:0:0:
170,99,321353,1,0,3:0:0:0:
136,226,321543,1,2,0:0:0:0:
90,104,321733,5,2,0:0:0:0:
90,104,322113,1,0,0:0:0:0:
90,104,322493,2,0,P|95:160|131:200,1,110,0|2,1:0|0:0,0:0:0:0:
204,232,323062,1,0,3:0:0:0:
288,232,323252,1,0,0:0:0:0:
244,112,323442,1,0,3:0:0:0:
204,232,323632,1,2,0:0:0:0:
316,152,323822,1,0,0:0:0:0:
172,152,324012,2,0,L|112:180,1,55,0|2,1:0|0:0,0:0:0:0:
128,64,324391,2,0,L|178:41,1,55,0|2,0:0|0:0,0:0:0:0:
408,176,324771,6,0,L|356:200,1,55,2|0,0:0|0:0,0:0:0:0:
364,72,325151,2,0,L|416:48,1,55
300,136,325531,2,0,P|244:136|208:96,1,110,0|2,1:0|0:0,0:0:0:0:
280,56,326100,1,0,3:0:0:0:
212,204,326290,2,0,L|184:252,1,55,0|0,0:0|3:0,0:0:0:0:
96,168,326670,2,0,L|124:119,1,55,2|0,0:0|0:0,0:0:0:0:
164,48,327050,1,0,1:0:0:0:
248,136,327239,1,2,0:0:0:0:
164,48,327429,1,0,0:0:0:0:
160,136,327619,1,2,0:0:0:0:
256,44,327809,5,2,0:0:0:0:
256,44,328189,2,0,L|316:44,1,55
424,104,328569,2,0,P|400:156|352:172,1,110,0|2,1:0|0:0,0:0:0:0:
256,192,329138,12,8,330088,0:0:0:0:
256,192,330277,5,0,0:0:0:0:
340,164,330467,2,0,P|344:192|340:220,1,55,8|0,0:0|0:0,0:0:0:0:
192,252,330847,6,0,P|168:192|192:132,1,131.99999597168,4|0,0:0|0:0,0:0:0:0:
348,76,331417,1,0,0:0:0:0:
296,140,331607,2,0,L|256:192,1,65.9999979858399,0|0,1:0|0:0,0:0:0:0:
116,248,331986,2,0,L|156:196,1,65.9999979858399,2|0,0:0|3:0,0:0:0:0:
256,192,332366,1,0,0:0:0:0:
212,280,332556,1,2,0:0:0:0:
116,248,332746,2,0,P|72:200|72:136,1,131.99999597168,2|0,0:0|1:0,0:0:0:0:
224,80,333315,1,2,0:0:0:0:
156,168,333505,1,0,0:0:0:0:
116,64,333695,1,2,0:0:0:0:
244,168,333885,6,0,P|271:187|283:220,2,65.9999979858399,2|0|0,0:0|0:0|0:0,0:0:0:0:
204,236,334455,1,0,0:0:0:0:
260,292,334645,2,0,P|320:288|360:232,1,131.99999597168,0|2,1:0|0:0,0:0:0:0:
376,156,335214,2,0,P|383:220|440:256,1,131.99999597168,0|2,3:0|0:0,0:0:0:0:
452,176,335784,1,2,0:0:0:0:
440,76,335974,2,0,L|372:76,1,65.9999979858399,0|0,0:0|1:0,0:0:0:0:
296,76,336353,1,2,0:0:0:0:
310,156,336543,2,0,L|378:156,1,65.9999979858399,0|2,0:0|0:0,0:0:0:0:
476,168,336923,6,0,P|448:232|392:256,1,131.99999597168,2|0,0:0|0:0,0:0:0:0:
316,256,337493,1,0,0:0:0:0:
220,204,337683,2,0,L|220:136,1,65.9999979858399,0|0,1:0|0:0,0:0:0:0:
316,256,338062,2,0,L|316:324,1,65.9999979858399,2|0,0:0|3:0,0:0:0:0:
232,376,338442,1,0,0:0:0:0:
148,324,338632,1,2,0:0:0:0:
232,272,338822,2,0,P|276:228|276:160,1,131.99999597168,2|0,0:0|1:0,0:0:0:0:
180,184,339391,1,2,0:0:0:0:
232,272,339581,1,0,0:0:0:0:
328,244,339771,1,2,0:0:0:0:
276,160,339961,5,2,0:0:0:0:
224,80,340151,2,0,L|156:80,1,65.9999979858399
328,244,340531,1,0,0:0:0:0:
276,160,340720,2,0,L|208:160,1,65.9999979858399,0|0,1:0|0:0,0:0:0:0:
380,328,341100,1,2,0:0:0:0:
328,244,341290,2,0,L|196:244,1,131.99999597168,0|2,3:0|0:0,0:0:0:0:
96,244,341860,1,2,0:0:0:0:
196,244,342050,1,0,0:0:0:0:
88,212,342239,1,0,1:0:0:0:
204,276,342429,1,2,0:0:0:0:
80,176,342619,2,0,P|72:144|80:108,1,65.9999979858399,0|2,0:0|0:0,0:0:0:0:
224,56,342999,6,0,P|204:120|148:144,1,131.99999597168,2|0,0:0|0:0,0:0:0:0:
144,64,343569,1,0,0:0:0:0:
288,8,343758,1,0,1:0:0:0:
252,132,343948,1,0,0:0:0:0:
224,56,344138,1,2,0:0:0:0:
280,208,344327,1,0,3:0:0:0:
312,80,344517,2,0,L|380:80,1,65.9999979858399,0|2,0:0|0:0,0:0:0:0:
440,132,344898,1,2,0:0:0:0:
440,132,345277,1,0,1:0:0:0:
500,80,345467,1,2,0:0:0:0:
500,184,345657,1,0,0:0:0:0:
379,80,345847,1,2,0:0:0:0:
380,184,346037,6,0,P|348:240|284:252,2,131.99999597168,2|0|0,0:0|0:0|1:0,0:0:0:0:
300,172,346986,1,0,0:0:0:0:
260,72,347176,2,0,L|296:16,2,65.9999979858399,2|0|0,0:0|3:0|0:0,0:0:0:0:
212,136,347746,1,2,0:0:0:0:
104,136,347936,2,0,L|68:192,1,65.9999979858399,2|0,0:0|0:0,0:0:0:0:
108,260,348315,1,0,1:0:0:0:
192,228,348505,1,2,0:0:0:0:
160,320,348695,1,0,0:0:0:0:
140,168,348885,1,2,0:0:0:0:
160,320,349075,6,0,P|220:344|280:320,1,131.99999597168,2|0,0:0|0:0,0:0:0:0:
332,228,349645,1,0,0:0:0:0:
432,196,349834,2,0,L|432:264,1,65.9999979858399,0|0,1:0|0:0,0:0:0:0:
332,228,350214,1,2,0:0:0:0:
432,196,350404,1,0,3:0:0:0:
332,124,350594,2,0,L|332:56,1,65.9999979858399,0|2,0:0|0:0,0:0:0:0:
332,58,350974,1,2,0:0:0:0:
180,148,351164,2,0,L|180:216,1,65.9999979858399,0|0,0:0|1:0,0:0:0:0:
180,214,351543,1,2,0:0:0:0:
224,312,351733,2,0,P|256:320|288:312,1,65.9999979858399,0|2,0:0|0:0,0:0:0:0:
316,180,352113,6,0,P|256:156|196:180,2,131.99999597168,2|0|0,0:0|0:0|1:0,0:0:0:0:
256,268,353062,1,0,0:0:0:0:
152,260,353252,1,2,0:0:0:0:
100,168,353442,1,0,3:0:0:0:
152,92,353632,2,0,P|228:60|300:92,1,165,2|0,0:0|0:0,0:0:0:0:
300,260,354391,2,0,P|220:292|152:260,1,165,2|0,0:0|0:0,0:0:0:0:
228,176,355151,1,4,0:0:0:0:
256,188,456830,5,0,1:0:0:0:
360,316,457182,2,0,L|352:256,1,55,0|0,0:0|1:0,0:0:0:0:
420,192,457535,2,0,L|420:76,1,110,8|0,0:0|0:0,0:0:0:0:
340,108,458065,1,0,0:0:0:0:
260,124,458241,2,0,L|172:136,1,82.5,0|2,1:0|0:0,0:0:0:0:
152,168,458594,2,0,L|152:240,1,55
348,192,458947,2,0,L|240:264,1,110,8|0,0:0|0:0,0:0:0:0:
172,248,459477,1,0,0:0:0:0:
92,272,459653,1,0,1:0:0:0:
72,108,460006,5,0,0:0:0:0:
132,164,460182,1,0,1:0:0:0:
212,140,460359,2,0,L|328:136,1,110,8|2,0:0|0:0,0:0:0:0:
396,168,460888,1,2,0:0:0:0:
348,236,461065,2,0,L|280:288,2,82.5,0|2|2,1:0|0:0|0:0,0:0:0:0:
268,260,461771,1,8,0:0:0:0:
140,156,462124,1,0,0:0:0:0:
220,136,462300,1,0,0:0:0:0:
200,216,462477,2,0,L|164:324,1,110,0|0,1:0|0:0,0:0:0:0:
236,360,463006,1,0,0:0:0:0:
308,316,463182,1,0,0:0:0:0:
256,192,521771,12,0,523182,0:0:0:0:
196,184,523888,6,0,L|280:184,1,82.5000031471254,2|0,0:0|0:0,0:0:0:0:
424,64,524594,2,0,L|408:116,1,55,4|0,0:0|0:0,0:0:0:0:
384,176,524947,1,2,0:0:0:0:
300,232,525124,1,2,0:0:0:0:
268,156,525300,2,0,L|144:128,1,110,8|0,0:0|0:0,0:0:0:0:
96,184,525830,1,0,1:0:0:0:
160,236,526006,2,0,L|240:288,2,82.5,0|2|2,1:0|0:0|0:0,0:0:0:0:
120,164,526712,2,0,L|232:136,1,110,8|0,0:0|0:0,0:0:0:0:
288,136,527241,2,0,L|332:180,1,55,0|0,0:0|1:0,0:0:0:0:
232,200,531300,2,0,L|296:200,1,55
304,120,531653,2,0,L|372:108,2,55
224,144,532182,1,0,0:0:0:0:
308,244,532359,2,0,L|184:288,2,110
260,176,533241,1,0,0:0:0:0:
192,220,533418,1,0,0:0:0:0:
112,228,533594,1,0,0:0:0:0:
160,296,533771,2,0,L|272:276,1,110
324,212,534300,2,0,L|288:152,1,55
224,120,534653,2,0,L|236:176,1,55
260,216,535006,1,0,0:0:0:0:
280,296,535182,2,0,L|392:288,2,110
200,324,536065,1,0,0:0:0:0:
148,260,536241,2,0,L|128:204,1,55
136,124,536594,2,0,L|256:120,1,110
312,168,537124,1,0,0:0:0:0:
256,324,537300,1,0,0:0:0:0:
316,268,537477,1,0,0:0:0:0:
236,260,537653,1,0,0:0:0:0:
308,300,537830,1,0,0:0:0:0:
324,220,538006,1,0,0:0:0:0:
328,56,538359,1,0,0:0:0:0:
328,56,538535,1,0,0:0:0:0:
328,56,538712,2,0,L|224:104,2,110
176,180,546477,5,0,0:0:0:0:
176,180,546653,1,0,0:0:0:0:
176,180,546830,2,0,L|304:180,1,110
336,112,547359,1,0,0:0:0:0:
384,180,547535,2,0,L|356:244,1,55
288,272,547888,2,0,L|180:300,1,110
104,264,548418,1,0,0:0:0:0:
116,184,548594,2,0,L|216:132,1,110
296,152,549124,1,0,0:0:0:0:
376,172,549300,2,0,L|484:208,2,110,0|0|0,0:0|0:0|0:0,0:0:0:0:
256,192,569771,5,0,0:0:0:0:
256,192,569859,12,0,572594,0:0:0:0:
316,168,729282,6,0,P|349:171|376:190,1,55,2|0,0:0|0:0,0:0:0:0:
312,179,729615,6,0,P|345:183|372:201,1,55,2|0,0:0|0:0,0:0:0:0:
308,191,729948,6,0,P|297:233|240:256,1,110,0|0,1:0|0:0,0:0:0:0:
164,216,730448,1,0,1:0:0:0:
144,136,730615,2,0,P|204:140|240:188,1,110,8|0,0:0|0:0,0:0:0:0:
240,256,731115,1,0,0:0:0:0:
180,312,731282,2,0,L|136:352,1,55,0|0,0:0|1:0,0:0:0:0:
104,172,731615,2,0,L|152:128,1,55,0|0,0:0|1:0,0:0:0:0:
240,256,731948,1,8,0:0:0:0:
240,256,732282,5,0,0:0:0:0:
324,256,732448,1,0,0:0:0:0:
376,192,732615,2,0,L|408:144,1,55,0|0,1:0|0:0,0:0:0:0:
256,96,732948,2,0,L|224:140,1,55,0|0,0:0|1:0,0:0:0:0:
324,256,733282,2,0,P|376:276|424:256,1,110,8|0,0:0|0:0,0:0:0:0:
407,146,733782,2,0,L|407:90,1,55,0|0,1:0|0:0,0:0:0:0:
224,140,734115,2,0,L|224:196,1,55,0|0,1:0|0:0,0:0:0:0:
324,312,734448,2,0,L|324:252,1,55,0|8,1:0|0:0,0:0:0:0:
324,256,734948,5,2,0:0:0:0:
324,256,735115,1,2,0:0:0:0:
324,172,735282,2,0,P|360:132|416:132,1,110,0|0,1:0|0:0,0:0:0:0:
396,212,735782,1,0,1:0:0:0:
324,256,735948,2,0,P|288:296|232:296,1,110,8|0,0:0|0:0,0:0:0:0:
104,228,736448,2,0,L|75:179,1,55,0|0,1:0|0:0,0:0:0:0:
284,180,736782,2,0,L|255:228,1,55,0|0,1:0|0:0,0:0:0:0:
152,56,737115,2,0,L|208:56,1,55,0|8,1:0|0:0,0:0:0:0:
343,98,737615,6,0,P|300:125|284:181,2,110,0|0|0,0:0|1:0|0:0,0:0:0:0:
367,178,738448,1,0,1:0:0:0:
328,252,738615,1,8,0:0:0:0:
328,252,738948,1,0,1:0:0:0:
256,104,739282,1,8,0:0:0:0:
256,104,739448,1,8,0:0:0:0:
145,179,739782,5,8,0:0:0:0:
184,252,739948,2,0,L|140:296,1,55,2|8,0:0|0:0,0:0:0:0:
72,252,740282,2,0,L|32:292,1,55,2|0,0:0|0:0,0:0:0:0:
89,351,740615,1,0,1:0:0:0:
145,291,740782,1,0,0:0:0:0:
72,168,740948,1,0,0:0:0:0:
72,252,741115,1,0,1:0:0:0:
144,208,741282,2,0,P|200:208|240:176,1,110,8|0,0:0|0:0,0:0:0:0:
172,128,741782,1,0,0:0:0:0:
212,240,741948,2,0,L|232:292,1,55,0|0,0:0|1:0,0:0:0:0:
364,188,742282,2,0,L|305:177,1,55,0|0,0:0|1:0,0:0:0:0:
316,348,742615,6,0,P|364:328|384:268,2,110,8|0|0,0:0|0:0|1:0,0:0:0:0:
248,268,743448,2,0,L|312:268,1,55,0|0,0:0|0:0,0:0:0:0:
384,277,743782,1,0,1:0:0:0:
460,312,743948,2,0,P|472:344|492:364,2,55,8|0|0,0:0|0:0|0:0,0:0:0:0:
460,312,744448,1,0,1:0:0:0:
460,196,744615,2,0,L|488:136,1,55,0|0,0:0|1:0,0:0:0:0:
412,48,744948,2,0,L|384:104,1,55,0|0,0:0|1:0,0:0:0:0:
340,196,745281,1,8,0:0:0:0:
340,196,745615,5,2,0:0:0:0:
376,120,745782,1,2,0:0:0:0:
296,128,745948,2,0,L|264:76,2,55,0|0|0,1:0|0:0|0:0,0:0:0:0:
340,196,746448,1,0,1:0:0:0:
364,276,746615,2,0,P|356:332|312:356,1,110,8|0,0:0|0:0,0:0:0:0:
208,324,747115,1,0,1:0:0:0:
256,232,747282,2,0,L|284:280,1,55,0|0,0:0|1:0,0:0:0:0:
164,252,747615,2,0,L|136:204,1,55,0|0,0:0|1:0,0:0:0:0:
212,156,747948,1,8,0:0:0:0:
212,156,748282,6,0,B|184:112|184:112|184:52,2,110,0|0|0,0:0|1:0|0:0,0:0:0:0:
256,232,749115,1,0,1:0:0:0:
256,232,749448,2,0,L|324:232,1,55,0|0,0:0|1:0,0:0:0:0:
356,72,749948,1,8,0:0:0:0:
356,72,750115,1,8,0:0:0:0:
156,72,750448,1,8,0:0:0:0:
156,72,750615,1,8,0:0:0:0:
256,232,750948,1,8,0:0:0:0:
256,192,1103807,5,0,1:0:0:0:
256,92,1104063,1,2,0:0:0:0:
256,92,1104191,1,0,0:0:0:0:
256,92,1104320,2,0,L|340:92,2,82.5000031471254,2|0|8,0:0|0:0|0:0,0:0:0:0:
208,92,1104961,2,0,L|176:124,1,41.2500015735627
56,168,1105345,2,0,P|40:136|56:92,1,82.5000031471254,2|0,0:0|0:0,0:0:0:0:
156,176,1105858,1,0,1:0:0:0:
340,164,1106243,1,0,1:0:0:0:
284,192,1106371,2,0,L|264:276,1,82.5000031471254,2|0,0:0|1:0,0:0:0:0:
164,200,1106884,2,0,L|252:108,1,123.750004720688,8|0,0:0|0:0,0:0:0:0:
308,88,1107397,2,0,L|352:176,1,82.5000031471254
252,244,1107909,1,0,0:0:0:0:
132,220,1108166,1,0,0:0:0:0:
132,220,1108294,1,0,0:0:0:0:
132,220,1108422,1,0,0:0:0:0:
240,160,1108679,1,0,0:0:0:0:
328,248,1108935,2,0,L|396:188,1,82.5000031471254
368,292,1109448,1,0,0:0:0:0:
368,292,1109576,1,0,0:0:0:0:
368,292,1109704,1,0,0:0:0:0:
228,320,1109961,2,0,L|132:312,1,82.5000031471254
160,216,1110473,2,0,L|212:144,1,82.5000031471254
396,252,1110986,2,0,L|340:320,1,82.5000031471254
292,348,1111371,1,0,0:0:0:0:
228,320,1111499,1,0,0:0:0:0:
120,256,1111756,1,0,0:0:0:0:
236,216,1112012,1,0,0:0:0:0:
236,216,1112268,1,0,0:0:0:0:
236,216,1112397,1,0,0:0:0:0:
236,216,1112525,1,0,0:0:0:0:
156,120,1112781,1,0,0:0:0:0:
276,148,1113038,2,0,L|408:148,1,123.750004720688
344,176,1113550,2,0,L|336:272,1,82.5000031471254
212,252,1114063,1,0,0:0:0:0:
28,252,1114448,1,0,0:0:0:0:
28,252,1114576,2,0,L|108:200,1,82.5000031471254
196,132,1115089,1,0,0:0:0:0:
308,180,1115345,1,0,0:0:0:0:
328,304,1115602,2,0,L|416:280,1,82.5000031471254
448,164,1116114,1,0,0:0:0:0:
204,204,1116627,2,0,L|128:160,1,82.5000031471254
232,92,1117140,2,0,L|316:132,1,82.5000031471254
224,268,1117653,1,0,0:0:0:0:
224,268,1117782,1,0,0:0:0:0:
224,268,1118038,1,0,0:0:0:0:
224,268,1118166,2,0,L|320:124,1,165.000006294251
252,24,1118935,1,0,0:0:0:0:
352,96,1119191,2,0,L|392:172,1,82.5000031471254
390,169,1119576,1,0,0:0:0:0:
390,169,1119704,1,0,0:0:0:0:
336,280,1119961,1,0,0:0:0:0:
212,288,1120217,2,0,L|120:256,1,82.5000031471254
92,144,1120730,1,0,0:0:0:0:
216,124,1120986,1,0,0:0:0:0:
328,176,1121243,2,0,L|408:120,2,82.5000031471254,0|0|0,0:0|0:0|0:0,0:0:0:0:
228,248,1122012,1,0,0:0:0:0:
228,248,1122140,1,0,0:0:0:0:
228,248,1122268,2,0,L|96:272,1,123.750004720688
44,276,1122781,2,0,L|80:192,2,82.5000031471254,0|0|0,0:0|0:0|0:0,0:0:0:0:
156,328,1123550,1,0,0:0:0:0:
280,320,1123807,1,0,0:0:0:0:
320,204,1124063,1,0,0:0:0:0:
248,136,1124320,2,0,L|104:244,2,165.000006294251,0|0|0,0:0|0:0|0:0,0:0:0:0:
140,208,1152268,5,0,0:0:0:0:
140,208,1152397,1,0,0:0:0:0:
140,208,1152525,1,0,0:0:0:0:
264,216,1152781,1,0,0:0:0:0:
312,104,1153038,2,0,L|228:124,1,82.5000031471254
108,120,1153550,1,0,0:0:0:0:
96,244,1153807,1,0,0:0:0:0:
208,292,1154063,1,0,0:0:0:0:
208,292,1154191,1,0,0:0:0:0:
208,292,1154320,1,0,0:0:0:0:
312,224,1154576,1,0,0:0:0:0:
268,108,1154832,1,0,0:0:0:0:
160,172,1155089,2,0,L|104:244,1,82.5000031471254
220,292,1155602,1,0,0:0:0:0:
328,232,1155858,1,0,0:0:0:0:
332,108,1156114,1,0,0:0:0:0:
332,108,1156243,1,0,0:0:0:0:
332,108,1156371,2,0,L|232:120,2,82.5000031471254,0|0|0,0:0|0:0|0:0,0:0:0:0:
456,124,1157140,2,0,L|420:248,1,123.750004720688
396,288,1157653,2,0,L|296:292,1,82.5000031471254
188,284,1158166,1,0,0:0:0:0:
188,284,1158294,1,0,0:0:0:0:
188,284,1158422,1,0,0:0:0:0:
164,160,1158679,1,0,0:0:0:0:
280,112,1158935,1,0,0:0:0:0:
340,220,1159191,1,0,0:0:0:0:
284,332,1159448,1,0,0:0:0:0:
284,332,1159576,1,0,0:0:0:0:
284,332,1159704,2,0,L|272:244,2,82.5000031471254,0|0|0,0:0|0:0|0:0,0:0:0:0:
364,236,1160473,1,0,0:0:0:0:
336,116,1160730,2,0,L|244:124,1,82.5000031471254
144,184,1161243,1,0,0:0:0:0:
256,192,1185858,5,0,0:0:0:0:
256,192,1185986,12,0,1187909,0:0:0:0:
256,192,1451556,12,0,1453281,0:0:0:0:
256,192,1453923,5,4,3:0:0:0:
256,192,1454031,1,4,3:0:0:0:
256,192,1454138,1,2,0:0:0:0:
352,248,1454352,1,0,0:0:0:0:
256,304,1454566,1,0,0:0:0:0:
160,248,1454781,1,0,0:0:0:0:
256,192,1454995,6,0,L|256:104,1,88,4|0,0:0|0:0,0:0:0:0:
256,16,1455423,1,8,0:0:0:0:
352,60,1455638,1,2,0:0:0:0:
352,60,1455745,1,0,0:0:0:0:
352,60,1455852,2,0,L|352:148,1,88,0|2,0:0|0:0,0:0:0:0:
156,240,1456281,1,4,0:0:0:0:
316,280,1456495,1,0,0:0:0:0:
252,128,1456709,2,0,L|340:152,1,88,2|0,0:0|0:0,0:0:0:0:
504,96,1457138,1,8,0:0:0:0:
476,260,1457352,1,2,0:0:0:0:
476,260,1457566,2,0,L|412:188,1,88,0|2,0:0|0:0,0:0:0:0:
224,200,1457995,1,4,0:0:0:0:
140,260,1458423,6,0,L|264:128,1,176,2|8,0:0|0:0,0:0:0:0:
428,172,1459066,1,2,0:0:0:0:
312,292,1459281,2,0,L|216:304,1,88,0|2,0:0|0:0,0:0:0:0:
136,160,1459709,1,4,0:0:0:0:
300,168,1459923,1,0,0:0:0:0:
300,168,1460031,1,0,0:0:0:0:
300,168,1460138,1,2,0:0:0:0:
184,288,1460352,1,0,0:0:0:0:
116,136,1460566,1,8,0:0:0:0:
280,116,1460781,2,0,L|368:116,2,88,2|0|2,0:0|0:0|0:0,0:0:0:0:
192,256,1461423,2,0,L|288:256,1,88,4|0,0:0|0:0,0:0:0:0:
172,164,1461852,1,2,0:0:0:0:
336,184,1462066,1,0,0:0:0:0:
172,216,1462281,1,8,0:0:0:0:
300,192,1462495,2,0,L|396:192,2,88,2|0|2,0:0|0:0|0:0,0:0:0:0:
172,88,1463138,1,4,0:0:0:0:
108,240,1463352,1,0,0:0:0:0:
188,244,1463566,1,2,0:0:0:0:
344,192,1463781,1,0,0:0:0:0:
276,340,1463995,1,8,0:0:0:0:
116,308,1464209,1,2,0:0:0:0:
116,308,1464316,1,0,0:0:0:0:
116,308,1464423,2,0,L|72:232,1,88,0|2,0:0|0:0,0:0:0:0:
192,172,1464852,1,4,0:0:0:0:
336,252,1465066,1,0,0:0:0:0:
336,252,1465173,1,0,0:0:0:0:
336,252,1465281,2,0,L|336:160,1,88,2|0,0:0|0:0,0:0:0:0:
184,76,1465709,1,8,0:0:0:0:
148,236,1465923,2,0,L|236:244,2,88,2|0|2,0:0|0:0|0:0,0:0:0:0:
268,184,1466566,1,4,0:0:0:0:
352,84,1466781,1,0,0:0:0:0:
220,88,1466995,1,2,0:0:0:0:
156,168,1467423,5,8,0:0:0:0:
308,236,1467638,1,2,0:0:0:0:
308,236,1467745,1,0,0:0:0:0:
308,236,1467852,1,0,0:0:0:0:
148,276,1468066,1,2,0:0:0:0:
216,164,1468281,2,0,L|312:168,1,88,4|0,0:0|0:0,0:0:0:0:
376,144,1468709,1,2,0:0:0:0:
460,264,1468923,2,0,L|372:292,1,88,0|8,0:0|0:0,0:0:0:0:
192,264,1469352,1,2,0:0:0:0:
224,104,1469566,2,0,L|316:112,2,88,0|2|4,0:0|0:0|0:0,0:0:0:0:
80,188,1470209,1,0,0:0:0:0:
232,248,1470423,2,0,L|324:252,1,88,2|0,0:0|0:0,0:0:0:0:
304,92,1470852,1,8,0:0:0:0:
204,224,1471066,1,2,0:0:0:0:
360,172,1471281,1,0,0:0:0:0:
204,120,1471495,1,2,0:0:0:0:
316,240,1471709,1,4,0:0:0:0:
192,128,1471923,1,0,0:0:0:0:
356,140,1472138,2,0,L|168:148,1,176,2|8,0:0|0:0,0:0:0:0:
172,232,1472781,1,2,0:0:0:0:
280,308,1472995,2,0,L|316:228,2,88,0|2|4,0:0|0:0|0:0,0:0:0:0:
116,96,1473638,1,0,0:0:0:0:
164,252,1473852,1,2,0:0:0:0:
308,172,1474066,1,0,0:0:0:0:
144,168,1474281,1,8,0:0:0:0:
284,252,1474495,1,2,0:0:0:0:
168,368,1474709,2,0,L|232:300,1,88,0|2,0:0|0:0,0:0:0:0:
232,172,1475138,2,0,L|152:224,1,88,4|0,0:0|0:0,0:0:0:0:
392,164,1475566,1,2,0:0:0:0:
356,324,1475781,1,0,0:0:0:0:
264,228,1475995,2,0,L|168:252,1,88,8|2,0:0|0:0,0:0:0:0:
272,140,1476423,1,0,0:0:0:0:
424,208,1476638,1,2,0:0:0:0:
312,276,1476852,2,0,L|400:256,1,88,4|0,0:0|0:0,0:0:0:0:
228,236,1477281,2,0,L|112:104,1,176,2|8,0:0|0:0,0:0:0:0:
82,71,1477923,1,2,0:0:0:0:
82,71,1478352,1,2,0:0:0:0:
56,236,1478566,1,4,0:0:0:0:
204,308,1478781,1,0,0:0:0:0:
124,204,1478995,6,0,L|216:200,1,88,2|0,0:0|0:0,0:0:0:0:
368,276,1479423,2,0,L|268:280,1,88
104,220,1479852,1,0,0:0:0:0:
256,172,1480066,1,0,0:0:0:0:
420,204,1480281,2,0,L|248:280,1,176
219,294,1480923,1,2,0:0:0:0:
219,294,1481138,1,2,0:0:0:0:
256,172,1481566,2,0,L|256:84,2,88,0|0|0,0:0|0:0|0:0,0:0:0:0:
396,112,1482209,1,0,0:0:0:0:
256,192,1482423,5,6,0:0:0:0:
