osu file format v14

[General]
AudioFilename: audio.mp3
AudioLeadIn: 0
PreviewTime: 66109
Countdown: 0
SampleSet: Soft
StackLeniency: 0.7
Mode: 0
LetterboxInBreaks: 0
WidescreenStoryboard: 1

[Editor]
DistanceSpacing: 1.5
BeatDivisor: 4
GridSize: 8
TimelineZoom: 1

[Metadata]
Title:No.1
TitleUnicode:No.1
Artist:Nishino Kana
ArtistUnicode:西野カナ
Creator:-HaRuNa-
Version:-HaRuNa-
Source:Secret Collection 〜green〜
Tags:
BeatmapID:1589689
BeatmapSetID:755173

[Difficulty]
HPDrainRate:7
CircleSize:5
OverallDifficulty:8
ApproachRate:9
SliderMultiplier:1.5
SliderTickRate:1

[Events]
//Background and Video events
0,0,"BG.jpg",0,0
//Break Periods
2,98870,100997
2,165211,179290
//Storyboard Layer 0 (Background)
//Storyboard Layer 1 (Fail)
//Storyboard Layer 2 (Pass)
//Storyboard Layer 3 (Foreground)
//Storyboard Sound Samples

[TimingPoints]
5012,487.80487804878,4,2,0,100,1,0
5012,-100,4,2,0,100,0,0
18670,-100,4,3,0,100,0,0
20621,-100,4,2,0,100,0,0
66231,-100,4,3,0,100,0,0
67451,-83.3333333333333,4,1,0,70,0,1
81597,-83.3333333333333,4,3,0,70,0,0
83060,-83.3333333333333,4,1,0,70,0,1
98670,-100,4,2,0,100,0,0
101597,-100,4,3,0,100,0,0
103060,-100,4,2,0,100,0,0
133792,-83.3333333333333,4,2,0,100,0,1
147938,-83.3333333333333,4,2,0,100,0,0
149402,-83.3333333333333,4,2,0,100,0,1
165011,-100,4,2,0,100,0,0
196231,-83.3333333333333,4,2,0,100,0,1
210377,-83.3333333333333,4,2,0,100,0,0
211841,-83.3333333333333,4,2,0,100,0,1
227451,-100,4,2,0,100,0,0

[Colours]
Combo1 : 111,221,0
Combo2 : 236,236,236
Combo3 : 6,159,242

[HitObjects]
128,72,5012,5,4,0:0:0:0:
64,160,5255,1,0,0:0:0:0:
128,248,5499,2,0,P|160:224|168:176,1,75
200,80,5987,1,0,0:0:0:0:
280,152,6231,1,0,0:0:0:0:
320,48,6475,2,0,P|360:40|400:56,1,75
352,152,6963,1,0,0:0:0:0:
464,136,7207,1,0,0:0:0:0:
352,152,7451,2,0,P|352:208|368:232,1,75
64,328,7938,5,0,0:0:0:0:
176,328,8182,1,0,0:0:0:0:
64,328,8426,2,0,L|32:248,1,75
144,216,8914,2,0,L|168:144,1,75,4|0,0:0|0:0,0:0:0:0:
208,40,9402,1,0,0:0:0:0:
167,144,9646,1,0,0:0:0:0:
280,120,9890,2,0,B|360:120|360:120|416:168,1,150
480,256,10621,1,0,0:0:0:0:
480,256,10865,2,0,B|426:301|426:301|346:301,1,150,4|0,0:0|0:0,0:0:0:0:
232,296,11597,1,0,0:0:0:0:
416,80,11841,5,0,0:0:0:0:
488,168,12085,1,0,0:0:0:0:
416,256,12329,2,0,L|352:208,1,75
336,96,12816,2,0,P|264:112|200:168,1,150,4|0,0:0|0:0,0:0:0:0:
144,256,13548,1,0,0:0:0:0:
120,368,13792,2,0,P|59:325|22:248,1,150
48,152,14524,1,0,0:0:0:0:
128,72,14768,2,0,P|193:37|278:39,1,150
376,72,15499,1,0,0:0:0:0:
464,248,15743,6,0,L|464:336,1,75
424,280,16231,2,0,L|400:360,1,75
384,288,16719,1,4,0:0:0:0:
384,288,16963,2,0,L|328:352,1,75
224,352,17451,1,0,0:0:0:0:
112,320,17694,2,0,L|56:264,2,75
112,320,18426,1,0,0:0:0:0:
200,80,18670,5,0,0:0:0:0:
200,80,18792,2,0,L|256:136,1,75,4|4,0:0|0:0,0:0:0:0:
344,72,19280,1,8,0:0:0:0:
360,64,19402,1,2,0:0:0:0:
376,64,19524,1,8,0:0:0:0:
480,112,19768,1,2,0:0:0:0:
384,168,20011,1,8,0:0:0:0:
392,176,20133,2,0,P|398:249|366:317,1,150,8|4,0:0|0:0,0:0:0:0:
56,320,21109,5,0,0:0:0:0:
168,352,21353,1,0,0:0:0:0:
256,288,21597,2,0,L|296:224,1,75,8|0,0:0|0:0,0:0:0:0:
400,192,22085,2,0,L|360:256,1,75
376,368,22572,2,0,L|416:304,2,75,8|0|0,0:0|0:0|0:0,0:0:0:0:
360,255,23304,1,0,0:0:0:0:
256,296,23548,1,8,0:0:0:0:
256,296,23792,1,0,0:0:0:0:
256,296,24036,2,0,L|336:160,1,150,0|8,0:0|0:0,0:0:0:0:
392,72,24768,1,0,0:0:0:0:
48,40,25011,5,0,0:0:0:0:
144,104,25255,1,0,0:0:0:0:
48,160,25499,1,8,0:0:0:0:
144,104,25743,2,0,L|208:152,1,75
216,160,26109,1,0,0:0:0:0:
224,168,26231,1,0,0:0:0:0:
376,40,26475,5,8,0:0:0:0:
440,136,26719,2,0,P|464:168|480:216,1,75
368,232,27207,1,0,0:0:0:0:
288,312,27451,2,0,P|264:280|248:232,1,75,8|0,0:0|0:0,0:0:0:0:
248,232,27816,1,0,0:0:0:0:
248,216,27938,1,0,0:0:0:0:
344,152,28182,1,0,0:0:0:0:
344,152,28304,1,0,0:0:0:0:
344,152,28426,6,0,P|318:82|258:35,1,150,8|0,0:0|0:0,0:0:0:0:
248,32,29036,1,0,0:0:0:0:
232,32,29158,1,0,0:0:0:0:
176,128,29402,1,8,0:0:0:0:
104,40,29646,1,0,0:0:0:0:
56,144,29890,1,0,0:0:0:0:
120,232,30133,2,0,L|113:306,1,75,0|8,0:0|0:0,0:0:0:0:
168,40,30621,6,0,L|240:16,2,75
280,64,31353,2,0,L|368:80,2,75,8|0|0,0:0|0:0|0:0,0:0:0:0:
176,112,32085,1,0,0:0:0:0:
280,160,32329,1,8,0:0:0:0:
176,112,32572,2,0,L|144:184,2,75
256,192,33304,2,0,L|272:272,1,75,8|0,0:0|0:0,0:0:0:0:
384,240,33792,2,0,L|352:312,1,75
304,328,34158,1,0,0:0:0:0:
248,328,34280,6,0,P|184:280|168:208,1,150,8|0,0:0|0:0,0:0:0:0:
168,160,34890,1,0,0:0:0:0:
200,112,35011,1,0,0:0:0:0:
288,48,35255,1,8,0:0:0:0:
288,48,35377,1,0,0:0:0:0:
288,48,35499,2,0,L|368:48,1,75
416,72,35865,1,0,0:0:0:0:
456,112,35987,1,0,0:0:0:0:
464,168,36109,1,0,0:0:0:0:
456,224,36231,2,0,P|448:296|384:352,1,150,4|0,0:0|0:0,0:0:0:0:
56,192,36963,5,0,0:0:0:0:
96,232,37085,1,0,0:0:0:0:
136,272,37207,2,0,L|200:328,1,75,8|0,0:0|0:0,0:0:0:0:
248,320,37572,1,0,0:0:0:0:
248,264,37694,2,0,L|184:208,1,75
64,80,38182,1,8,0:0:0:0:
248,80,38426,1,0,0:0:0:0:
64,88,38670,1,0,0:0:0:0:
248,72,38914,1,0,0:0:0:0:
408,168,39158,2,0,L|464:224,2,75,8|0|0,0:0|0:0|0:0,0:0:0:0:
256,280,39890,5,0,0:0:0:0:
328,192,40133,1,8,0:0:0:0:
256,104,40377,2,0,L|176:104,1,75
120,200,40865,5,0,0:0:0:0:
120,200,40987,1,0,0:0:0:0:
120,200,41109,2,0,L|72:264,1,75,8|0,0:0|0:0,0:0:0:0:
144,344,41597,1,0,0:0:0:0:
256,360,41841,1,0,0:0:0:0:
360,320,42085,1,8,0:0:0:0:
432,232,42329,1,0,0:0:0:0:
416,120,42572,2,0,L|352:48,2,75,0|0|8,0:0|0:0|0:0,0:0:0:0:
384,168,43182,1,0,0:0:0:0:
336,200,43304,2,0,L|240:168,1,75
152,168,43792,1,0,0:0:0:0:
62,234,44036,6,0,P|148:336|240:240,1,300,12|0,0:0|0:0,0:0:0:0:
256,128,45255,1,0,0:0:0:0:
344,56,45499,1,0,0:0:0:0:
432,128,45743,1,0,0:0:0:0:
448,184,45865,1,0,0:0:0:0:
456,240,45987,2,0,L|416:304,1,75,8|0,0:0|0:0,0:0:0:0:
304,328,46475,6,0,P|335:198|460:243,1,300,4|0,0:0|0:0,0:0:0:0:
416,344,47694,1,0,0:0:0:0:
304,328,47938,1,8,0:0:0:0:
256,296,48060,1,0,0:0:0:0:
208,264,48182,2,0,L|128:280,1,75
40,216,48670,1,0,0:0:0:0:
64,104,48914,2,0,L|104:32,1,75,8|0,0:0|0:0,0:0:0:0:
176,120,49402,2,0,L|128:208,1,75
256,192,49890,6,0,B|288:128|288:128|360:88,1,150,12|0,0:0|0:0,0:0:0:0:
352,200,50621,2,0,L|312:280,1,75,0|8,0:0|0:0,0:0:0:0:
208,264,51109,1,0,0:0:0:0:
208,264,51231,1,0,0:0:0:0:
208,264,51353,1,0,0:0:0:0:
208,264,51475,1,0,0:0:0:0:
208,264,51597,1,0,0:0:0:0:
136,352,51841,1,4,0:0:0:0:
456,344,52085,6,0,L|480:288,1,37.5
472,256,52329,2,0,L|440:160,1,75,8|0,0:0|0:0,0:0:0:0:
424,136,52694,1,0,0:0:0:0:
408,96,52816,1,8,0:0:0:0:
368,72,52938,1,0,0:0:0:0:
328,48,53060,2,0,P|288:32|248:32,1,75,0|8,0:0|0:0,0:0:0:0:
256,144,53548,1,0,0:0:0:0:
256,144,53670,1,0,0:0:0:0:
256,144,53792,2,0,L|208:104,1,37.5,4|0,0:0|0:0,0:0:0:0:
184,88,54036,1,0,0:0:0:0:
136,56,54158,1,0,0:0:0:0:
88,88,54280,2,0,L|8:120,1,75,8|0,0:0|0:0,0:0:0:0:
112,184,54768,2,0,L|64:328,1,150,8|8,0:0|0:0,0:0:0:0:
256,344,55743,5,4,0:0:0:0:
152,304,55987,2,0,L|184:224,1,75,0|8,0:0|0:0,0:0:0:0:
224,128,56475,1,0,0:0:0:0:
320,192,56719,2,0,L|288:280,2,75,8|0|8,0:0|0:0|0:0,0:0:0:0:
424,144,57451,1,0,0:0:0:0:
424,144,57572,1,0,0:0:0:0:
424,144,57694,2,0,L|384:72,1,75,4|0,0:0|0:0,0:0:0:0:
387,78,58060,1,0,0:0:0:0:
387,78,58182,1,8,0:0:0:0:
280,48,58426,1,0,0:0:0:0:
176,88,58670,2,0,L|216:232,1,150,8|8,0:0|0:0,0:0:0:0:
64,304,59402,5,0,0:0:0:0:
64,304,59646,2,0,P|144:320|216:304,1,150,4|8,0:0|0:0,0:0:0:0:
400,312,60377,1,0,0:0:0:0:
400,312,60621,2,0,P|432:232|416:144,1,150,8|8,0:0|0:0,0:0:0:0:
376,72,61353,5,0,0:0:0:0:
376,72,61475,1,0,0:0:0:0:
376,72,61597,2,0,L|304:48,2,75,4|0|8,0:0|0:0|0:0,0:0:0:0:
392,128,62207,1,0,0:0:0:0:
408,184,62329,2,0,L|480:208,2,75,0|8|0,0:0|0:0|0:0,0:0:0:0:
312,128,63060,1,8,0:0:0:0:
96,64,63304,5,0,0:0:0:0:
232,192,63548,1,4,0:0:0:0:
416,192,63792,1,0,0:0:0:0:
416,192,63914,1,0,0:0:0:0:
416,192,64036,1,8,0:0:0:0:
256,288,64280,1,0,0:0:0:0:
208,288,64402,1,0,0:0:0:0:
160,288,64524,2,0,L|88:232,1,75,8|0,0:0|0:0,0:0:0:0:
24,160,65011,1,8,0:0:0:0:
96,72,65255,1,0,0:0:0:0:
256,40,65499,6,0,L|344:32,1,75,4|0,0:0|0:0,0:0:0:0:
440,32,65987,1,0,0:0:0:0:
440,144,66231,1,0,0:0:0:0:
464,192,66353,1,0,0:0:0:0:
440,240,66475,1,0,0:0:0:0:
384,336,66719,1,0,0:0:0:0:
384,336,66841,1,0,0:0:0:0:
384,336,66963,2,0,L|304:336,1,75
120,296,67451,5,4,0:0:0:0:
56,72,67694,1,0,0:0:0:0:
256,192,67938,2,0,L|304:112,1,89.9999972534181,8|0,0:0|0:0,0:0:0:0:
392,296,68426,1,8,0:0:0:0:
456,72,68669,1,0,0:0:0:0:
256,192,68914,2,0,L|208:272,1,89.9999972534181,8|0,0:0|0:0,0:0:0:0:
256,40,69402,2,0,P|352:88|400:152,1,179.999994506836,4|8,0:0|0:0,0:0:0:0:
464,264,70133,5,0,0:0:0:0:
328,280,70377,2,0,L|256:336,1,89.9999972534181,8|0,0:0|0:0,0:0:0:0:
120,320,70865,2,0,L|192:264,1,89.9999972534181,8|0,0:0|0:0,0:0:0:0:
304,104,71353,6,0,L|240:16,1,89.9999972534181,4|0,0:0|0:0,0:0:0:0:
200,264,71841,2,0,L|256:344,1,89.9999972534181,8|0,0:0|0:0,0:0:0:0:
472,248,72329,2,0,L|368:280,1,89.9999972534181,8|0,0:0|0:0,0:0:0:0:
168,192,72816,2,0,L|272:160,1,89.9999972534181,8|0,0:0|0:0,0:0:0:0:
56,40,73304,2,0,P|40:136|96:208,2,179.999994506836,4|8|8,0:0|0:0|0:0,0:0:0:0:
152,256,74524,1,0,0:0:0:0:
256,336,74768,5,8,0:0:0:0:
256,336,74890,1,0,0:0:0:0:
256,336,75011,2,0,L|296:248,1,89.9999972534181,0|4,0:0|0:0,0:0:0:0:
312,208,75377,1,0,0:0:0:0:
336,160,75499,2,0,L|440:176,1,89.9999972534181,0|8,0:0|0:0,0:0:0:0:
344,64,75987,2,0,L|256:48,1,89.9999972534181,0|8,0:0|0:0,0:0:0:0:
128,96,76475,1,0,0:0:0:0:
40,200,76719,1,8,0:0:0:0:
40,200,76841,1,0,0:0:0:0:
40,200,76963,1,0,0:0:0:0:
160,256,77207,5,4,0:0:0:0:
160,256,77329,1,0,0:0:0:0:
160,256,77451,2,0,L|256:248,1,89.9999972534181,0|8,0:0|0:0,0:0:0:0:
360,176,77938,1,0,0:0:0:0:
360,176,78060,1,0,0:0:0:0:
360,176,78182,2,0,P|384:240|344:352,1,179.999994506836,8|8,0:0|0:0,0:0:0:0:
216,328,78914,5,0,0:0:0:0:
136,216,79158,2,0,L|56:120,2,89.9999972534181,4|0|8,0:0|0:0|0:0,0:0:0:0:
272,192,79890,1,0,0:0:0:0:
376,104,80133,2,0,L|464:80,2,89.9999972534181,8|0|8,0:0|0:0|0:0,0:0:0:0:
256,48,80865,1,0,0:0:0:0:
208,32,80987,1,0,0:0:0:0:
152,24,81109,2,0,B|88:96|88:96|72:184,1,179.999994506836,4|8,0:0|0:0,0:0:0:0:
408,320,81841,5,0,0:0:0:0:
408,320,81963,2,0,L|472:328,1,44.999998626709,0|8,0:0|0:0,0:0:0:0:
432,192,82329,1,0,0:0:0:0:
312,136,82572,2,0,P|296:200|304:240,1,89.9999972534181,8|0,0:0|0:0,0:0:0:0:
104,312,83060,6,0,L|72:272,1,44.999998626709,4|0,0:0|0:0,0:0:0:0:
128,280,83304,2,0,L|152:224,1,44.999998626709
88,240,83548,2,0,L|72:184,1,44.999998626709,8|0,0:0|0:0,0:0:0:0:
128,208,83792,2,0,L|152:160,1,44.999998626709
96,152,84036,2,0,L|88:104,1,44.999998626709,8|0,0:0|0:0,0:0:0:0:
144,120,84280,2,0,L|176:80,1,44.999998626709
120,72,84524,2,0,L|96:32,1,44.999998626709,8|0,0:0|0:0,0:0:0:0:
144,56,84768,2,0,L|184:16,1,44.999998626709
216,56,85011,2,0,B|272:112|272:112|384:128,1,179.999994506836,4|8,0:0|0:0,0:0:0:0:
488,200,85743,5,0,0:0:0:0:
488,200,85865,1,0,0:0:0:0:
488,200,85987,2,0,L|464:296,1,89.9999972534181,8|0,0:0|0:0,0:0:0:0:
416,272,86353,1,0,0:0:0:0:
360,256,86475,2,0,L|400:352,1,89.9999972534181,8|0,0:0|0:0,0:0:0:0:
440,48,86963,5,4,0:0:0:0:
416,48,87085,1,0,0:0:0:0:
392,48,87207,1,0,0:0:0:0:
368,48,87329,1,0,0:0:0:0:
344,48,87451,1,8,0:0:0:0:
320,48,87572,1,0,0:0:0:0:
296,48,87694,1,0,0:0:0:0:
272,48,87816,1,0,0:0:0:0:
248,48,87938,1,8,0:0:0:0:
224,48,88060,1,0,0:0:0:0:
200,48,88182,1,0,0:0:0:0:
176,48,88304,1,0,0:0:0:0:
152,48,88426,1,8,0:0:0:0:
128,48,88548,1,0,0:0:0:0:
104,48,88670,1,0,0:0:0:0:
80,48,88792,1,0,0:0:0:0:
64,64,88914,2,0,L|64:248,1,179.999994506836,4|8,0:0|0:0,0:0:0:0:
264,336,89890,2,0,L|472:336,1,179.999994506836,8|8,0:0|0:0,0:0:0:0:
456,320,90499,5,0,0:0:0:0:
456,304,90621,1,0,0:0:0:0:
472,200,90865,1,4,0:0:0:0:
472,200,90987,1,0,0:0:0:0:
472,200,91109,2,0,L|400:136,1,89.9999972534181,0|8,0:0|0:0,0:0:0:0:
304,56,91597,1,0,0:0:0:0:
256,40,91719,1,0,0:0:0:0:
200,48,91841,2,0,L|96:64,2,89.9999972534181,8|0|8,0:0|0:0|0:0,0:0:0:0:
184,184,92572,1,0,0:0:0:0:
56,232,92816,5,4,0:0:0:0:
72,288,92938,1,0,0:0:0:0:
120,320,93060,1,0,0:0:0:0:
168,336,93182,1,0,0:0:0:0:
216,320,93304,2,0,L|320:288,1,89.9999972534181,8|0,0:0|0:0,0:0:0:0:
424,344,93792,1,8,0:0:0:0:
424,344,93914,1,0,0:0:0:0:
424,344,94036,2,0,L|448:256,2,89.9999972534181,0|8|0,0:0|0:0|0:0,0:0:0:0:
216,152,94768,5,4,0:0:0:0:
216,152,94890,1,0,0:0:0:0:
216,152,95011,2,0,L|128:96,1,89.9999972534181,0|8,0:0|0:0,0:0:0:0:
256,32,95499,2,0,L|336:88,1,89.9999972534181,0|8,0:0|0:0,0:0:0:0:
329,83,95865,1,0,0:0:0:0:
329,83,95987,1,0,0:0:0:0:
256,192,96231,12,4,98670,0:0:0:0:
256,192,101597,5,0,0:0:0:0:
168,128,101841,1,0,0:0:0:0:
72,192,102085,1,0,0:0:0:0:
64,304,102329,1,0,0:0:0:0:
168,256,102572,2,0,L|304:328,1,150,2|0,0:0|0:0,0:0:0:0:
456,192,103304,5,0,0:0:0:0:
416,152,103426,1,0,0:0:0:0:
376,112,103548,2,0,L|312:56,1,75,8|0,0:0|0:0,0:0:0:0:
264,64,103913,1,0,0:0:0:0:
264,120,104035,2,0,L|328:176,1,75
448,304,104523,1,8,0:0:0:0:
264,304,104767,1,0,0:0:0:0:
448,296,105011,1,0,0:0:0:0:
264,312,105255,1,0,0:0:0:0:
104,216,105499,2,0,L|48:160,2,75,8|0|0,0:0|0:0|0:0,0:0:0:0:
256,104,106231,5,0,0:0:0:0:
184,192,106474,1,8,0:0:0:0:
256,280,106718,2,0,L|336:280,1,75
392,184,107206,5,0,0:0:0:0:
392,184,107328,1,0,0:0:0:0:
392,184,107450,2,0,L|440:120,1,75,8|0,0:0|0:0,0:0:0:0:
368,40,107938,1,0,0:0:0:0:
256,24,108182,1,0,0:0:0:0:
152,64,108426,1,8,0:0:0:0:
80,152,108670,1,0,0:0:0:0:
96,264,108913,2,0,L|160:336,2,75,0|0|8,0:0|0:0|0:0,0:0:0:0:
128,216,109523,1,0,0:0:0:0:
176,184,109645,2,0,L|272:216,1,75
360,216,110133,1,0,0:0:0:0:
449,149,110377,6,0,P|363:47|272:144,1,300,12|0,0:0|0:0,0:0:0:0:
256,256,111596,1,0,0:0:0:0:
168,328,111840,1,0,0:0:0:0:
80,256,112084,1,0,0:0:0:0:
64,200,112206,1,0,0:0:0:0:
56,144,112328,2,0,L|96:80,1,75,8|0,0:0|0:0,0:0:0:0:
208,56,112816,6,0,P|177:186|52:141,1,300,4|0,0:0|0:0,0:0:0:0:
96,40,114035,1,0,0:0:0:0:
208,56,114279,1,8,0:0:0:0:
256,88,114401,1,0,0:0:0:0:
304,120,114523,2,0,L|384:104,1,75
472,168,115011,1,0,0:0:0:0:
448,280,115255,2,0,L|408:352,1,75,8|0,0:0|0:0,0:0:0:0:
336,264,115743,2,0,L|384:176,1,75
256,192,116231,6,0,B|224:256|224:256|152:296,1,150,12|0,0:0|0:0,0:0:0:0:
160,184,116962,2,0,L|200:104,1,75,0|8,0:0|0:0,0:0:0:0:
304,120,117450,1,0,0:0:0:0:
304,120,117572,1,0,0:0:0:0:
304,120,117694,1,0,0:0:0:0:
304,120,117816,1,0,0:0:0:0:
304,120,117938,1,0,0:0:0:0:
376,32,118182,1,4,0:0:0:0:
56,40,118426,6,0,L|32:96,1,37.5
40,128,118670,2,0,L|72:224,1,75,8|0,0:0|0:0,0:0:0:0:
88,248,119035,1,0,0:0:0:0:
104,288,119157,1,8,0:0:0:0:
144,312,119279,1,0,0:0:0:0:
184,336,119401,2,0,P|224:352|264:352,1,75,0|8,0:0|0:0,0:0:0:0:
256,240,119889,1,0,0:0:0:0:
256,240,120011,1,0,0:0:0:0:
256,240,120133,2,0,L|304:280,1,37.5,4|0,0:0|0:0,0:0:0:0:
328,296,120377,1,0,0:0:0:0:
376,328,120499,1,0,0:0:0:0:
424,296,120621,2,0,L|504:264,1,75,8|0,0:0|0:0,0:0:0:0:
400,200,121109,2,0,L|448:56,1,150,8|8,0:0|0:0,0:0:0:0:
256,40,122084,5,4,0:0:0:0:
360,80,122328,2,0,L|328:160,1,75,0|8,0:0|0:0,0:0:0:0:
288,256,122816,1,0,0:0:0:0:
192,192,123060,2,0,L|224:104,2,75,8|0|8,0:0|0:0|0:0,0:0:0:0:
88,240,123792,1,0,0:0:0:0:
88,240,123913,1,0,0:0:0:0:
88,240,124035,2,0,L|128:312,1,75,4|0,0:0|0:0,0:0:0:0:
125,306,124401,1,0,0:0:0:0:
125,306,124523,1,8,0:0:0:0:
232,336,124767,1,0,0:0:0:0:
336,296,125011,2,0,L|296:152,1,150,8|8,0:0|0:0,0:0:0:0:
448,80,125743,5,0,0:0:0:0:
448,80,125987,2,0,P|368:64|296:80,1,150,4|8,0:0|0:0,0:0:0:0:
112,72,126718,1,0,0:0:0:0:
112,72,126962,2,0,P|80:152|96:240,1,150,8|8,0:0|0:0,0:0:0:0:
136,312,127694,5,0,0:0:0:0:
136,312,127816,1,0,0:0:0:0:
136,312,127938,2,0,L|208:336,2,75,4|0|8,0:0|0:0|0:0,0:0:0:0:
120,256,128548,1,0,0:0:0:0:
104,200,128670,2,0,L|32:176,2,75,0|8|0,0:0|0:0|0:0,0:0:0:0:
200,256,129401,1,8,0:0:0:0:
416,320,129645,5,0,0:0:0:0:
280,192,129889,1,4,0:0:0:0:
96,192,130133,1,0,0:0:0:0:
96,192,130255,1,0,0:0:0:0:
96,192,130377,1,8,0:0:0:0:
256,96,130621,1,0,0:0:0:0:
304,96,130743,1,0,0:0:0:0:
352,96,130865,2,0,L|424:152,1,75,8|0,0:0|0:0,0:0:0:0:
488,224,131352,1,8,0:0:0:0:
416,312,131596,1,0,0:0:0:0:
256,344,131840,6,0,L|168:352,1,75,4|0,0:0|0:0,0:0:0:0:
72,352,132328,1,0,0:0:0:0:
72,240,132572,1,0,0:0:0:0:
48,192,132694,1,0,0:0:0:0:
72,144,132816,1,0,0:0:0:0:
128,48,133060,1,0,0:0:0:0:
128,48,133182,1,0,0:0:0:0:
128,48,133304,2,0,L|208:48,1,75
392,88,133792,5,4,0:0:0:0:
456,312,134035,1,0,0:0:0:0:
256,192,134279,2,0,L|208:272,1,89.9999972534181,8|0,0:0|0:0,0:0:0:0:
120,88,134767,1,8,0:0:0:0:
56,312,135010,1,0,0:0:0:0:
256,192,135255,2,0,L|304:112,1,89.9999972534181,8|0,0:0|0:0,0:0:0:0:
256,344,135743,2,0,P|160:296|112:232,1,179.999994506836,4|8,0:0|0:0,0:0:0:0:
48,120,136474,5,0,0:0:0:0:
184,104,136718,2,0,L|256:48,1,89.9999972534181,8|0,0:0|0:0,0:0:0:0:
392,64,137206,2,0,L|320:120,1,89.9999972534181,8|0,0:0|0:0,0:0:0:0:
208,280,137694,6,0,L|272:368,1,89.9999972534181,4|0,0:0|0:0,0:0:0:0:
312,120,138182,2,0,L|256:40,1,89.9999972534181,8|0,0:0|0:0,0:0:0:0:
40,136,138670,2,0,L|144:104,1,89.9999972534181,8|0,0:0|0:0,0:0:0:0:
344,192,139157,2,0,L|240:224,1,89.9999972534181,8|0,0:0|0:0,0:0:0:0:
456,344,139645,2,0,P|472:248|416:176,2,179.999994506836,4|8|8,0:0|0:0|0:0,0:0:0:0:
360,128,140865,1,0,0:0:0:0:
256,48,141109,5,8,0:0:0:0:
256,48,141231,1,0,0:0:0:0:
256,48,141352,2,0,L|216:136,1,89.9999972534181,0|4,0:0|0:0,0:0:0:0:
200,176,141718,1,0,0:0:0:0:
176,224,141840,2,0,L|72:208,1,89.9999972534181,0|8,0:0|0:0,0:0:0:0:
168,320,142328,2,0,L|256:336,1,89.9999972534181,0|8,0:0|0:0,0:0:0:0:
384,288,142816,1,0,0:0:0:0:
472,184,143060,1,8,0:0:0:0:
472,184,143182,1,0,0:0:0:0:
472,184,143304,1,0,0:0:0:0:
352,128,143548,5,4,0:0:0:0:
352,128,143670,1,0,0:0:0:0:
352,128,143792,2,0,L|256:136,1,89.9999972534181,0|8,0:0|0:0,0:0:0:0:
152,208,144279,1,0,0:0:0:0:
152,208,144401,1,0,0:0:0:0:
152,208,144523,2,0,P|128:144|168:32,1,179.999994506836,8|8,0:0|0:0,0:0:0:0:
296,56,145255,5,0,0:0:0:0:
376,168,145499,2,0,L|456:264,2,89.9999972534181,4|0|8,0:0|0:0|0:0,0:0:0:0:
240,192,146231,1,0,0:0:0:0:
136,280,146474,2,0,L|48:304,2,89.9999972534181,8|0|8,0:0|0:0|0:0,0:0:0:0:
256,336,147206,1,0,0:0:0:0:
304,352,147328,1,0,0:0:0:0:
360,360,147450,2,0,B|424:288|424:288|440:200,1,179.999994506836,4|8,0:0|0:0,0:0:0:0:
104,64,148182,5,0,0:0:0:0:
104,64,148304,2,0,L|40:56,1,44.999998626709,0|8,0:0|0:0,0:0:0:0:
80,192,148670,1,0,0:0:0:0:
200,248,148913,2,0,P|216:184|208:144,1,89.9999972534181,8|0,0:0|0:0,0:0:0:0:
408,72,149401,6,0,L|440:112,1,44.999998626709,4|0,0:0|0:0,0:0:0:0:
384,104,149645,2,0,L|360:160,1,44.999998626709
424,144,149889,2,0,L|440:200,1,44.999998626709,8|0,0:0|0:0,0:0:0:0:
384,176,150133,2,0,L|360:224,1,44.999998626709
416,232,150377,2,0,L|424:280,1,44.999998626709,8|0,0:0|0:0,0:0:0:0:
368,264,150621,2,0,L|336:304,1,44.999998626709
392,312,150865,2,0,L|416:352,1,44.999998626709,8|0,0:0|0:0,0:0:0:0:
368,328,151109,2,0,L|328:368,1,44.999998626709
296,328,151352,2,0,B|240:272|240:272|128:256,1,179.999994506836,4|8,0:0|0:0,0:0:0:0:
24,184,152084,5,0,0:0:0:0:
24,184,152206,1,0,0:0:0:0:
24,184,152328,2,0,L|48:88,1,89.9999972534181,8|0,0:0|0:0,0:0:0:0:
96,112,152694,1,0,0:0:0:0:
152,128,152816,2,0,L|112:32,1,89.9999972534181,8|0,0:0|0:0,0:0:0:0:
72,336,153304,5,4,0:0:0:0:
96,336,153426,1,0,0:0:0:0:
120,336,153548,1,0,0:0:0:0:
144,336,153670,1,0,0:0:0:0:
168,336,153792,1,8,0:0:0:0:
192,336,153913,1,0,0:0:0:0:
216,336,154035,1,0,0:0:0:0:
240,336,154157,1,0,0:0:0:0:
264,336,154279,1,8,0:0:0:0:
288,336,154401,1,0,0:0:0:0:
312,336,154523,1,0,0:0:0:0:
336,336,154645,1,0,0:0:0:0:
360,336,154767,1,8,0:0:0:0:
384,336,154889,1,0,0:0:0:0:
408,336,155011,1,0,0:0:0:0:
432,336,155133,1,0,0:0:0:0:
448,320,155255,2,0,L|448:136,1,179.999994506836,4|8,0:0|0:0,0:0:0:0:
248,48,156231,2,0,L|40:48,1,179.999994506836,8|8,0:0|0:0,0:0:0:0:
56,64,156840,5,0,0:0:0:0:
56,80,156962,1,0,0:0:0:0:
40,184,157206,1,4,0:0:0:0:
40,184,157328,1,0,0:0:0:0:
40,184,157450,2,0,L|112:248,1,89.9999972534181,0|8,0:0|0:0,0:0:0:0:
208,328,157938,1,0,0:0:0:0:
256,344,158060,1,0,0:0:0:0:
312,336,158182,2,0,L|416:320,2,89.9999972534181,8|0|8,0:0|0:0|0:0,0:0:0:0:
328,200,158913,1,0,0:0:0:0:
456,152,159157,5,4,0:0:0:0:
440,96,159279,1,0,0:0:0:0:
392,64,159401,1,0,0:0:0:0:
344,48,159523,1,0,0:0:0:0:
296,64,159645,2,0,L|192:96,1,89.9999972534181,8|0,0:0|0:0,0:0:0:0:
88,40,160133,1,8,0:0:0:0:
88,40,160255,1,0,0:0:0:0:
88,40,160377,2,0,L|64:128,2,89.9999972534181,0|8|0,0:0|0:0|0:0,0:0:0:0:
296,232,161109,5,4,0:0:0:0:
296,232,161231,1,0,0:0:0:0:
296,232,161352,2,0,L|384:288,1,89.9999972534181,0|8,0:0|0:0,0:0:0:0:
256,352,161840,2,0,L|176:296,1,89.9999972534181,0|8,0:0|0:0,0:0:0:0:
183,301,162206,1,0,0:0:0:0:
183,301,162328,1,0,0:0:0:0:
256,192,162572,12,4,165011,0:0:0:0:
64,112,179890,5,0,0:0:0:0:
136,240,180133,1,8,0:0:0:0:
280,280,180377,2,0,L|320:352,1,75,0|4,0:0|0:0,0:0:0:0:
456,48,180865,5,0,0:0:0:0:
424,192,181109,1,8,0:0:0:0:
280,144,181353,2,0,L|256:64,1,75,0|8,0:0|0:0,0:0:0:0:
80,192,181841,5,0,0:0:0:0:
80,240,181963,1,0,0:0:0:0:
80,288,182085,2,0,L|128:360,1,75,8|0,0:0|0:0,0:0:0:0:
256,280,182572,2,0,L|200:200,1,75,4|0,0:0|0:0,0:0:0:0:
128,88,183060,1,8,0:0:0:0:
128,88,183182,1,0,0:0:0:0:
128,88,183304,2,0,P|160:64|216:72,1,75,0|8,0:0|0:0,0:0:0:0:
448,272,183792,5,0,0:0:0:0:
424,128,184035,1,8,0:0:0:0:
448,272,184279,2,0,L|392:336,1,75,0|4,0:0|0:0,0:0:0:0:
56,336,184767,5,0,0:0:0:0:
80,288,184890,1,0,0:0:0:0:
104,240,185011,1,0,0:0:0:0:
248,192,185255,2,0,L|272:112,1,75
136,48,185743,5,0,0:0:0:0:
88,192,185987,1,8,0:0:0:0:
216,280,186231,1,0,0:0:0:0:
216,280,186353,1,0,0:0:0:0:
216,280,186474,2,0,L|272:360,1,75,4|0,0:0|0:0,0:0:0:0:
400,288,186962,1,8,0:0:0:0:
464,152,187207,1,0,0:0:0:0:
464,152,187329,1,0,0:0:0:0:
464,152,187451,2,0,L|376:168,1,75,8|0,0:0|0:0,0:0:0:0:
256,232,187938,6,0,L|168:216,1,75
104,88,188426,2,0,P|56:144|72:240,1,150,4|0,0:0|0:0,0:0:0:0:
416,168,189402,2,0,P|464:112|448:16,1,150
168,288,190377,2,0,B|232:328|232:328|336:336,1,150
464,120,191109,5,0,0:0:0:0:
464,120,191231,1,0,0:0:0:0:
464,120,191353,2,0,L|408:56,1,75,8|0,0:0|0:0,0:0:0:0:
360,56,191719,1,0,0:0:0:0:
304,56,191841,2,0,L|208:64,1,75,8|0,0:0|0:0,0:0:0:0:
144,136,192329,1,4,0:0:0:0:
144,136,192451,1,0,0:0:0:0:
144,136,192572,1,0,0:0:0:0:
256,192,192816,12,4,194280,0:0:0:0:
112,192,195011,5,0,0:0:0:0:
152,232,195133,1,0,0:0:0:0:
192,272,195255,1,0,0:0:0:0:
280,344,195499,1,0,0:0:0:0:
280,344,195621,1,0,0:0:0:0:
280,344,195743,2,0,L|200:344,1,75
384,136,196231,5,4,0:0:0:0:
128,48,196474,1,0,0:0:0:0:
384,136,196718,2,0,L|472:200,1,89.9999972534181,8|0,0:0|0:0,0:0:0:0:
216,320,197206,1,8,0:0:0:0:
256,56,197449,1,0,0:0:0:0:
216,320,197694,2,0,L|136:240,1,89.9999972534181,8|0,0:0|0:0,0:0:0:0:
424,224,198182,2,0,P|365:291|284:327,1,179.999994506836,4|8,0:0|0:0,0:0:0:0:
72,56,198913,5,0,0:0:0:0:
192,192,199157,2,0,L|120:248,1,89.9999972534181,8|0,0:0|0:0,0:0:0:0:
264,128,199646,2,0,L|336:72,1,89.9999972534181,8|0,0:0|0:0,0:0:0:0:
80,272,200133,6,0,L|144:360,1,89.9999972534181,4|0,0:0|0:0,0:0:0:0:
400,360,200621,2,0,L|348:286,1,89.9999972534181,8|0,0:0|0:0,0:0:0:0:
144,112,201109,2,0,L|40:144,1,89.9999972534181,8|0,0:0|0:0,0:0:0:0:
320,192,201596,2,0,L|424:160,1,89.9999972534181,8|0,0:0|0:0,0:0:0:0:
184,328,202084,2,0,P|88:344|16:288,2,179.999994506836,4|8|8,0:0|0:0|0:0,0:0:0:0:
120,160,203304,1,0,0:0:0:0:
432,328,203548,5,8,0:0:0:0:
432,328,203670,1,0,0:0:0:0:
432,328,203791,2,0,L|472:240,1,89.9999972534181,0|4,0:0|0:0,0:0:0:0:
488,192,204157,1,0,0:0:0:0:
472,144,204279,2,0,L|383:130,1,89.9999972534181,0|8,0:0|0:0,0:0:0:0:
256,80,204767,2,0,L|168:64,1,89.9999972534181,0|8,0:0|0:0,0:0:0:0:
40,112,205255,1,0,0:0:0:0:
80,240,205499,1,8,0:0:0:0:
80,240,205621,1,0,0:0:0:0:
80,240,205743,1,0,0:0:0:0:
456,336,205987,5,4,0:0:0:0:
456,336,206109,1,0,0:0:0:0:
456,336,206231,2,0,L|360:328,1,89.9999972534181,0|8,0:0|0:0,0:0:0:0:
256,248,206718,1,0,0:0:0:0:
256,248,206840,1,0,0:0:0:0:
256,248,206962,2,0,P|236:182|137:117,1,179.999994506836,8|8,0:0|0:0,0:0:0:0:
432,72,207694,5,0,0:0:0:0:
368,192,207938,2,0,L|448:288,2,89.9999972534181,4|0|8,0:0|0:0|0:0,0:0:0:0:
280,88,208670,1,0,0:0:0:0:
144,64,208913,2,0,L|56:40,2,89.9999972534181,8|0|8,0:0|0:0|0:0,0:0:0:0:
72,184,209645,1,0,0:0:0:0:
56,231,209767,1,0,0:0:0:0:
49,287,209889,2,0,B|122:349|122:349|210:364,1,179.999994506836,4|8,0:0|0:0,0:0:0:0:
408,320,210621,5,0,0:0:0:0:
408,320,210743,2,0,L|352:312,1,44.999998626709,0|8,0:0|0:0,0:0:0:0:
432,192,211109,1,0,0:0:0:0:
408,64,211352,2,0,P|346:88|319:118,1,89.9999972534181,8|0,0:0|0:0,0:0:0:0:
256,320,211840,6,0,L|208:352,1,44.999998626709,4|0,0:0|0:0,0:0:0:0:
224,288,212084,2,0,L|264:264,1,44.999998626709
208,248,212328,2,0,L|160:280,1,44.999998626709,8|0,0:0|0:0,0:0:0:0:
176,216,212572,2,0,L|216:192,1,44.999998626709
160,176,212816,2,0,L|112:208,1,44.999998626709,8|0,0:0|0:0,0:0:0:0:
128,144,213060,2,0,L|168:120,1,44.999998626709
120,96,213304,2,0,L|72:128,1,44.999998626709,8|0,0:0|0:0,0:0:0:0:
88,64,213548,2,0,L|128:40,1,44.999998626709
176,48,213791,2,0,B|264:56|264:56|344:120,1,179.999994506836,4|8,0:0|0:0,0:0:0:0:
448,328,214523,5,0,0:0:0:0:
448,328,214645,1,0,0:0:0:0:
448,328,214767,2,0,L|472:232,1,89.9999972534181,8|0,0:0|0:0,0:0:0:0:
416,224,215133,1,0,0:0:0:0:
368,200,215255,2,0,L|328:112,1,89.9999972534181,8|0,0:0|0:0,0:0:0:0:
96,352,215743,5,4,0:0:0:0:
80,328,215865,1,0,0:0:0:0:
64,304,215987,1,0,0:0:0:0:
48,280,216109,1,0,0:0:0:0:
56,256,216231,1,8,0:0:0:0:
72,232,216352,1,0,0:0:0:0:
88,208,216474,1,0,0:0:0:0:
104,184,216596,1,0,0:0:0:0:
120,168,216718,1,8,0:0:0:0:
136,144,216840,1,0,0:0:0:0:
120,120,216962,1,0,0:0:0:0:
104,96,217084,1,0,0:0:0:0:
88,72,217206,1,8,0:0:0:0:
104,48,217328,1,0,0:0:0:0:
120,24,217450,1,0,0:0:0:0:
144,24,217572,1,0,0:0:0:0:
168,24,217694,2,0,B|240:64|240:64|352:72,1,179.999994506836,4|8,0:0|0:0,0:0:0:0:
472,336,218670,2,0,B|400:296|400:296|288:288,1,179.999994506836,8|8,0:0|0:0,0:0:0:0:
80,272,219279,5,0,0:0:0:0:
64,256,219401,1,0,0:0:0:0:
184,200,219645,1,4,0:0:0:0:
184,200,219767,1,0,0:0:0:0:
184,200,219889,2,0,L|256:136,1,89.9999972534181,0|8,0:0|0:0,0:0:0:0:
360,56,220377,1,0,0:0:0:0:
400,24,220499,1,0,0:0:0:0:
448,48,220621,2,0,P|480:80|472:136,2,89.9999972534181,8|0|8,0:0|0:0|0:0,0:0:0:0:
368,120,221352,1,0,0:0:0:0:
216,40,221596,5,4,0:0:0:0:
168,56,221718,1,0,0:0:0:0:
120,88,221840,1,0,0:0:0:0:
96,136,221962,1,0,0:0:0:0:
88,192,222084,2,0,P|88:248|120:280,1,89.9999972534181,8|0,0:0|0:0,0:0:0:0:
224,208,222572,1,8,0:0:0:0:
224,208,222694,1,0,0:0:0:0:
224,208,222816,2,0,L|248:120,2,89.9999972534181,0|8|0,0:0|0:0|0:0,0:0:0:0:
464,344,223548,5,4,0:0:0:0:
464,344,223670,1,0,0:0:0:0:
464,344,223791,2,0,L|376:288,1,89.9999972534181,0|8,0:0|0:0,0:0:0:0:
384,160,224279,2,0,L|464:216,1,89.9999972534181,0|8,0:0|0:0,0:0:0:0:
457,211,224645,1,0,0:0:0:0:
457,211,224767,1,0,0:0:0:0:
256,192,225011,12,4,227450,0:0:0:0:
