osu file format v14

[General]
AudioFilename: audio.mp3
AudioLeadIn: 0
PreviewTime: 63438
Countdown: 0
SampleSet: Soft
StackLeniency: 0.7
Mode: 0
LetterboxInBreaks: 0
WidescreenStoryboard: 0

[Editor]
DistanceSpacing: 1.1
BeatDivisor: 4
GridSize: 4
TimelineZoom: 1

[Metadata]
Title:Love Song
TitleUnicode:Love Song
Artist:Nishino Kana
ArtistUnicode:西野カナ
Creator:Modem
Version:Normal
Source:
Tags:cut version place sme records
BeatmapID:1652233
BeatmapSetID:740358

[Difficulty]
HPDrainRate:4
CircleSize:3.5
OverallDifficulty:4
ApproachRate:5
SliderMultiplier:1.7
SliderTickRate:1

[Events]
//Background and Video events
Video,0,"Video.mp4"
0,0,"bg.jpg",0,0
//Break Periods
//Storyboard Layer 0 (Background)
//Storyboard Layer 1 (Fail)
//Storyboard Layer 2 (Pass)
//Storyboard Layer 3 (Foreground)
//Storyboard Sound Samples

[TimingPoints]
224,714.285714285714,4,2,2,40,1,0
938,-100,4,2,1,40,0,0
3081,-100,4,2,2,40,0,0
3438,-100,4,2,1,30,0,0
3795,-100,4,2,2,40,0,0
4152,-100,4,2,1,30,0,0
4509,-100,4,2,2,50,0,0
4866,-100,4,2,1,50,0,0
5045,-100,4,2,1,30,0,0
5223,-100,4,2,1,50,0,0
5581,-100,4,2,1,50,0,0
5938,-100,4,2,1,40,0,0
11652,-100,4,2,2,70,0,0
11831,-100,4,2,2,5,0,0
14509,-100,4,2,2,40,0,0
15223,-100,4,2,1,30,0,0
18438,-100,4,2,2,50,0,0
18795,-100,4,2,1,30,0,0
19509,-100,4,2,2,50,0,0
19866,-100,4,2,1,30,0,0
24509,-100,4,2,2,50,0,0
24866,-100,4,2,1,30,0,0
25223,-100,4,2,2,50,0,0
25581,-100,4,2,1,30,0,0
30223,-100,4,2,1,40,0,0
31652,-100,4,2,1,30,0,0
35938,-100,4,2,1,50,0,0
37366,-100,4,2,1,40,0,0
43081,-100,4,2,2,40,0,0
43438,-100,4,2,1,40,0,0
44509,-100,4,2,2,40,0,0
44866,-100,4,2,1,40,0,0
45938,-100,4,2,2,40,0,0
46652,-100,4,2,1,40,0,0
48081,-100,4,2,2,40,0,0
48438,-100,4,2,1,40,0,0
53616,-100,4,2,1,30,0,0
54509,-100,4,2,1,40,0,0
56652,-100,4,2,2,40,0,0
58081,-100,4,2,1,40,0,0
64509,714.285714285714,4,2,1,70,1,1
73080,-100,4,2,2,70,0,1
73794,-100,4,2,1,70,0,1
75580,-100,4,2,1,70,0,0
75937,-100,4,2,1,70,0,1
78794,-100,4,2,2,70,0,1
79330,-100,4,2,1,70,0,1
79866,-100,4,2,1,70,0,1
84509,-100,4,2,2,70,0,1
85580,-100,4,2,1,70,0,1
87008,-100,4,2,1,70,0,0
87366,-100,4,2,1,70,0,1
91294,-100,4,2,2,25,0,1
91473,-100,4,2,1,70,0,1
95937,-100,4,2,2,70,0,0
98794,-100,4,2,1,50,0,0
110223,-100,4,2,2,20,0,0
110937,-100,4,2,1,50,0,0
115937,-100,4,2,1,50,0,0
120223,-100,4,2,2,50,0,0
120580,-100,4,2,1,50,0,0
120758,-100,4,2,1,40,0,0
120937,-100,4,2,2,40,0,0
121116,-100,4,2,1,40,0,0
121294,-100,4,2,1,50,0,0
121651,-100,4,2,1,50,0,0
127366,-100,4,2,2,50,0,0
127723,-100,4,2,1,50,0,0
128794,-100,4,2,2,50,0,0
129151,-100,4,2,1,50,0,0
130223,-100,4,2,2,50,0,0
130937,-100,4,2,1,50,0,0
135937,-100,4,2,2,50,0,0
136294,-100,4,2,1,50,0,0
137366,-100,4,2,2,50,0,0
137723,-100,4,2,1,50,0,0
137901,-100,4,2,1,40,0,0
138794,-100,4,2,1,50,0,0
140937,-100,4,2,2,50,0,0
142366,-100,4,2,1,50,0,0
147901,-100,4,2,1,40,0,0
148794,714.285714285714,4,2,1,70,1,1
151651,-100,4,2,2,70,0,1
152186,-100,4,2,1,70,0,1
157365,-100,4,2,2,70,0,1
158079,-100,4,2,1,70,0,1
159865,-100,4,2,1,70,0,0
160222,-100,4,2,1,70,0,1
163079,-100,4,2,2,70,0,1
163615,-100,4,2,1,70,0,1
164151,-100,4,2,1,70,0,1
168794,-100,4,2,2,70,0,1
169865,-100,4,2,1,70,0,1
171294,-100,4,2,1,70,0,0
171651,-100,4,2,1,70,0,1
175579,-100,4,2,2,25,0,1
175758,-100,4,2,1,70,0,1
179865,-100,4,2,1,70,0,0
180222,-100,4,2,1,70,0,1
188258,-100,4,2,1,60,0,1
188794,-100,4,2,1,70,0,1
189865,-100,4,2,1,70,0,1
191294,-100,4,2,1,60,0,0
191651,-100,4,2,1,70,0,1
196651,-100,4,2,1,60,0,1
197008,-100,4,2,1,70,0,1
198436,-100,4,2,2,70,0,1
198793,-100,4,2,1,70,0,1
200222,-100,4,2,1,50,0,1
202722,-100,4,2,1,50,0,1
202901,-100,4,2,1,5,0,1
204930,714.285714285714,4,2,2,40,1,0
205465,-100,4,2,1,40,0,0
206358,-100,4,2,2,40,0,0
206894,-100,4,2,1,40,0,0
207787,-100,4,2,2,40,0,0
208322,-100,4,2,1,40,0,0
209215,-100,4,2,2,40,0,0
209930,-100,4,2,1,40,0,0
210644,-100,4,2,2,40,0,0
211180,-100,4,2,1,40,0,0
212077,727.272727272727,4,2,2,40,1,0
212621,701.754385964912,4,2,1,40,1,0
213147,833.333333333333,4,2,1,40,1,0
213565,821.917808219178,4,2,2,40,1,0
214182,1084.99095840868,4,2,1,40,1,0
214995,1052.63157894737,4,2,1,40,1,0
216048,1052.63157894737,4,2,1,5,1,0
219929,-100,4,2,2,40,0,0

[Colours]
Combo1 : 255,64,159
Combo2 : 255,128,64
Combo3 : 255,190,125
Combo4 : 167,7,99
Combo5 : 255,128,255
SliderBorder : 240,240,240

[HitObjects]
96,268,224,6,0,P|96:212|184:152,1,170,0|2,3:0|0:0,0:0:0:0:
264,200,1295,1,2,0:0:0:0:
345,153,1652,2,0,P|358:208|275:296,1,170,2|0,0:0|0:0,0:0:0:0:
224,356,2723,1,2,0:0:0:0:
136,324,3081,6,0,L|72:252,1,85,0|0,3:0|0:0,0:0:0:0:
156,208,3795,2,0,P|132:152|152:96,1,85,0|0,3:0|0:0,0:0:0:0:
204,67,4509,2,0,P|228:123|208:179,1,85,0|2,3:0|0:0,0:0:0:0:
268,168,5045,1,8,0:0:0:0:
268,168,5223,2,0,L|240:268,1,85,6|6,0:0|0:0,0:0:0:0:
336,264,5938,6,0,P|380:296|488:224,1,170,4|8,0:1|0:0,0:0:0:0:
472,164,7009,1,6,0:0:0:0:
404,100,7366,1,0,0:0:0:0:
336,164,7723,1,6,0:0:0:0:
278,90,8081,2,0,P|246:134|246:188,1,85,10|2,0:0|0:0,0:0:0:0:
272,252,8795,6,0,P|244:208|128:220,1,170,4|8,0:1|0:0,0:0:0:0:
80,284,9866,1,4,0:0:0:0:
144,352,10223,2,0,L|228:336,1,85,0|4,0:0|0:0,0:0:0:0:
272,252,10938,2,0,L|356:268,1,85,8|2,0:0|0:0,0:0:0:0:
372,312,11473,1,0,0:0:0:0:
388,356,11652,6,0,B|373:306|406:273|406:273|359:215|362:161|420:125|398:67|359:21|359:21|426:76|514:24,1,510,0|0,3:0|0:0,0:0:0:0:
500,32,14509,6,0,B|499:92|499:92|475:131|475:131|476:199,1,170,0|2,3:0|0:0,0:0:0:0:
412,264,15581,1,2,0:0:0:0:
324,228,15938,2,0,P|276:212|248:160,1,85,0|2,0:0|0:0,0:0:0:0:
188,248,16652,2,0,P|136:267|112:316,1,85,0|2,0:0|0:0,0:0:0:0:
195,342,17366,6,0,B|247:358|247:358|359:330,1,170,2|0,0:0|0:0,0:0:0:0:
424,264,18438,1,0,3:0:0:0:
348,212,18795,2,0,B|299:224|299:224|250:209,2,85,0|2|0,0:0|0:0|3:0,0:0:0:0:
432,171,19866,1,2,0:0:0:0:
498,237,20223,6,0,P|498:293|450:339,1,85,2|2,0:0|0:0,0:0:0:0:
399,354,20938,1,0,0:0:0:0:
424,264,21295,1,2,0:0:0:0:
332,280,21652,2,0,P|244:292|184:236,1,170,2|2,0:0|0:0,0:0:0:0:
128,172,22723,1,2,0:0:0:0:
192,104,23081,6,0,B|220:73|220:73|290:53,1,85,2|2,0:0|0:0,0:0:0:0:
267,154,23795,1,0,0:0:0:0:
360,140,24152,1,2,0:0:0:0:
328,228,24509,2,0,L|267:295,1,85,0|0,3:0|0:0,0:0:0:0:
188,244,25223,2,0,P|139:254|95:236,1,85,0|0,3:0|0:0,0:0:0:0:
146,158,25938,6,0,B|198:138|206:86|206:86|246:82|294:126,1,170,2|2,0:0|0:0,0:0:0:0:
354,150,27009,1,2,0:0:0:0:
332,59,27366,2,0,P|273:21|220:8,2,85,2|2|2,0:0|0:0|0:0,0:0:0:0:
420,84,28438,1,2,0:0:0:0:
429,177,28795,6,0,P|360:228|278:177,1,170,2|0,0:0|0:0,0:0:0:0:
248,114,29866,1,2,0:0:0:0:
331,68,30223,2,0,L|359:168,1,85,2|0,0:1|0:0,0:0:0:0:
433,98,30938,2,0,P|490:126|508:171,1,85,2|0,0:1|0:0,0:0:0:0:
452,224,31652,6,0,P|420:251|407:291,2,85,2|2|0,0:0|0:0|0:0,0:0:0:0:
500,143,32723,1,2,0:0:0:0:
500,143,33081,2,0,B|448:128|448:128|392:159|324:132,1,170,2|2,0:0|0:0,0:0:0:0:
244,148,34152,1,2,0:0:0:0:
272,236,34509,6,0,L|362:263,2,85,2|2|0,0:0|0:0|0:0,0:0:0:0:
180,212,35581,1,2,0:0:0:0:
170,119,35938,2,0,P|219:73|321:127,1,170,2|2,0:1|0:1,0:0:0:0:
412,260,37366,6,0,L|430:176,1,85,4|2,0:1|0:0,0:0:0:0:
340,148,38081,2,0,L|321:64,1,85,8|2,0:1|0:0,0:0:0:0:
284,36,38616,1,4,0:0:0:0:
284,36,38795,2,0,P|228:24|136:104,1,170,4|8,0:0|0:1,0:0:0:0:
132,180,39866,1,0,0:0:0:0:
88,164,40045,1,2,0:0:0:0:
48,188,40223,6,0,L|66:270,1,85,4|2,0:0|0:0,0:0:0:0:
148,316,40938,2,0,P|204:316|244:288,1,85,8|2,0:1|0:0,0:0:0:0:
264,332,41473,1,4,0:0:0:0:
264,332,41652,2,0,P|320:332|360:360,1,85,4|6,0:0|0:0,0:0:0:0:
437,349,42366,1,8,0:1:0:0:
496,276,42723,1,6,0:0:0:0:
416,224,43081,6,0,L|397:140,2,85,4|2|8,3:3|0:0|0:1,0:0:0:0:
348,288,44152,1,2,0:0:0:0:
265,330,44509,2,0,P|255:292|290:217,2,85,4|2|8,3:3|0:0|0:1,0:0:0:0:
176,364,45581,1,2,0:0:0:0:
104,304,45938,6,0,B|132:248|108:192|108:192|152:120,1,170,4|8,3:3|0:1,0:0:0:0:
134,52,47009,2,0,P|192:67|219:189,1,170,2|6,0:0|0:0,0:0:0:0:
304,220,48081,2,0,L|252:304,1,85,8|4,3:1|0:0,0:0:0:0:
308,372,48795,6,0,L|352:299,1,85,4|2,0:1|0:0,0:0:0:0:
424,360,49509,2,0,P|464:328|508:328,1,85,8|2,0:1|0:0,0:0:0:0:
504,280,50045,1,4,0:0:0:0:
504,280,50223,2,0,P|460:180|372:168,1,170,4|8,0:0|0:1,0:0:0:0:
320,196,51295,1,0,0:0:0:0:
280,220,51473,1,2,0:0:0:0:
240,244,51652,6,0,P|180:256|116:196,1,127.5,4|2,0:0|0:0,0:0:0:0:
84,236,52366,2,0,L|96:344,1,85,8|2,0:1|0:0,0:0:0:0:
128,352,52902,1,4,0:0:0:0:
128,352,53081,2,0,P|169:342|210:353,1,85,4|2,0:0|0:0,0:0:0:0:
252,336,53616,1,8,0:0:0:0:
252,336,53795,2,0,L|243:258,2,42.5,8|8|12,0:0|0:0|0:3,0:0:0:0:
344,348,54509,6,0,L|334:263,1,85,4|2,0:1|0:0,0:0:0:0:
420,224,55223,2,0,L|430:139,2,85,8|6|0,0:0|0:0|0:0,0:0:0:0:
452,312,56295,1,6,0:0:0:0:
380,372,56652,1,8,3:3:0:0:
308,312,57009,1,8,3:3:0:0:
236,252,57366,6,0,B|228:220|196:204|196:204|140:238|71:198,1,170,8|8,3:3|0:0,0:0:0:0:
36,136,58438,1,4,0:1:0:0:
36,136,58795,2,0,L|88:52,1,85,0|8,0:0|0:3,0:0:0:0:
172,40,59509,1,0,0:0:0:0:
220,36,59688,2,0,P|272:48|308:104,1,85,8|0,0:3|0:0,0:0:0:0:
312,112,60223,6,0,P|344:85|386:79,1,85,6|2,0:0|0:0,0:0:0:0:
432,92,60759,1,0,0:0:0:0:
432,92,60938,2,0,P|459:124|465:166,1,85,10|6,0:0|0:0,0:0:0:0:
456,212,61473,1,4,0:0:0:0:
456,212,61652,5,10,0:0:0:0:
72,328,63616,5,8,0:0:0:0:
72,328,63795,2,0,L|56:256,2,42.5,8|8|4,0:0|0:0|0:0,0:0:0:0:
160,364,64509,6,0,P|176:320|232:296,1,85,4|0,0:1|0:0,0:0:0:0:
252,296,65044,1,0,0:0:0:0:
252,296,65223,2,0,L|230:197,1,85,8|0,0:0|0:0,0:0:0:0:
276,192,65759,1,0,0:0:0:0:
276,192,65937,2,0,L|298:93,2,85,4|4|8,0:0|0:0|0:0,0:0:0:0:
344,256,67009,1,0,0:0:0:0:
419,311,67366,6,0,P|436:266|418:205,1,85,4|0,0:0|0:0,0:0:0:0:
404,192,67901,1,0,0:0:0:0:
404,192,68080,2,0,B|414:146|414:146|442:102,1,85,8|0,0:0|0:0,0:0:0:0:
384,36,68794,2,0,L|336:111,2,85,4|4|8,0:0|0:0|0:0,0:0:0:0:
476,32,69866,1,4,0:0:0:0:
480,124,70223,6,0,P|448:168|472:260,1,127.5,4|0,0:1|0:0,0:0:0:0:
480,280,70937,2,0,L|376:300,1,85,8|0,0:0|0:0,0:0:0:0:
328,360,71651,2,0,L|224:340,2,85,4|4|8,0:0|0:0|0:0,0:0:0:0:
308,268,72723,1,0,0:0:0:0:
240,204,73080,6,0,P|220:156|256:88,1,127.5,4|0,3:3|0:0,0:0:0:0:
240,44,73794,2,0,L|324:61,1,85,8|0,0:0|0:0,0:0:0:0:
368,44,74330,1,8,0:0:0:0:
368,44,74509,1,4,0:0:0:0:
428,116,74866,1,4,0:0:0:0:
464,28,75223,2,0,P|504:56|520:104,1,85,8|4,0:0|0:0,0:0:0:0:
496,180,75937,6,0,B|475:223|475:223|475:254|475:254|452:301,1,127.5,4|0,0:1|0:0,0:0:0:0:
416,324,76651,2,0,P|368:296|312:308,1,85,8|0,0:0|0:0,0:0:0:0:
280,368,77366,2,0,P|232:340|164:360,1,127.5,4|0,0:0|0:0,0:0:0:0:
132,324,78080,2,0,L|168:247,1,85,8|0,0:0|0:0,0:0:0:0:
104,180,78794,6,0,L|68:257,1,85,4|0,3:3|0:0,0:0:0:0:
24,268,79330,1,0,0:0:0:0:
24,268,79509,2,0,P|48:312|40:368,1,85,8|0,0:0|0:0,0:0:0:0:
140,346,80223,2,0,P|141:303|163:268,2,85,4|4|8,0:0|0:0|0:0,0:0:0:0:
232,332,81294,1,4,0:0:0:0:
324,328,81651,6,0,P|302:270|221:244,1,127.5,4|0,0:1|0:0,0:0:0:0:
220,204,82366,2,0,P|232:132|304:100,1,127.5,8|4,0:0|0:0,0:0:0:0:
292,60,83080,2,0,B|338:69|338:69|368:61|368:61|424:70,1,127.5,4|0,0:0|0:0,0:0:0:0:
464,60,83794,2,0,B|448:156|448:156|500:124,1,127.5,8|0,0:0|0:0,0:0:0:0:
500,180,84509,6,0,P|492:260|404:304,1,170,4|8,3:3|3:3,0:0:0:0:
340,352,85580,1,0,0:0:0:0:
280,280,85937,2,0,L|189:262,1,85,4|4,0:0|0:0,0:0:0:0:
172,172,86651,2,0,L|96:186,2,42.5,8|8|4,0:0|0:0|0:0,0:0:0:0:
224,92,87366,6,0,P|256:128|360:116,1,127.5,4|0,0:1|0:0,0:0:0:0:
364,100,88080,2,0,L|447:116,1,85,8|0,0:0|0:0,0:0:0:0:
492,104,88616,1,4,0:0:0:0:
492,104,88794,2,0,P|481:145|492:186,2,85,4|4|8,0:0|0:0|0:0,0:0:0:0:
436,28,89866,1,0,0:0:0:0:
344,40,90223,6,0,P|276:36|204:124,1,170,4|8,0:0|0:0,0:0:0:0:
252,188,91294,2,0,L|244:240,1,42.5,4|8,0:1|0:0,0:0:0:0:
276,264,91651,2,0,L|268:316,1,42.5,4|8,0:0|0:0,0:0:0:0:
292,348,92008,1,4,0:0:0:0:
376,306,92366,2,0,L|369:263,2,42.5,8|8|4,0:0|0:0|0:0,0:0:0:0:
464,344,93080,6,0,B|496:284|464:232|464:232|476:196|452:164,1,170,4|2,0:1|0:0,0:0:0:0:
488,92,94151,2,0,P|448:148|332:124,1,170,2|2,0:0|0:0,0:0:0:0:
264,124,95223,2,0,L|277:207,1,85,2|2,0:0|0:0,0:0:0:0:
208,268,95937,5,0,3:0:0:0:
208,268,98794,6,0,B|168:248|128:264|128:264|156:219|128:164,1,170,6|8,0:0|0:1,0:0:0:0:
52,140,99866,2,0,L|64:72,1,42.5,2|4,0:0|0:0,0:0:0:0:
108,100,100223,2,0,P|174:104|203:128,1,85,4|6,0:0|0:0,0:0:0:0:
256,176,100937,2,0,P|284:144|340:136,1,85,8|2,0:1|0:0,0:0:0:0:
368,148,101473,1,2,0:0:0:0:
368,148,101651,6,0,L|353:232,1,85,6|0,0:0|0:0,0:0:0:0:
436,272,102366,2,0,P|425:313|436:354,1,85,8|2,0:1|0:0,0:0:0:0:
392,364,102901,1,4,0:0:0:0:
392,364,103080,2,0,L|280:332,1,85,4|6,0:0|0:0,0:0:0:0:
260,260,103794,2,0,L|148:292,1,85,10|2,0:1|3:3,0:0:0:0:
84,292,104508,6,0,B|110:253|110:253|150:305|118:369,1,170,4|8,0:0|0:1,0:0:0:0:
212,368,105580,1,2,0:0:0:0:
212,368,105758,1,4,0:0:0:0:
212,368,105937,2,0,P|272:364|300:336,2,85,6|4|8,0:0|0:0|0:1,0:0:0:0:
228,275,107008,1,2,0:0:0:0:
276,192,107366,6,0,B|320:156|308:96|308:96|320:140|368:148,1,170,4|8,0:0|0:1,0:0:0:0:
432,180,108437,1,2,0:0:0:0:
432,180,108616,1,4,0:0:0:0:
432,180,108794,2,0,P|421:221|432:262,1,85,4|6,0:0|0:0,0:0:0:0:
496,332,109508,2,0,L|452:360,1,42.5,8|0,0:1|0:0,0:0:0:0:
412,348,109866,1,2,0:3:0:0:
324,316,110223,6,0,B|266:284|212:316|212:316|132:292,1,170,4|2,0:1|0:0,0:0:0:0:
223,229,111294,2,0,B|272:216|325:233|325:233|336:188|276:160,2,170,2|2|2,0:0|0:0|0:0,0:0:0:0:
148,172,113080,2,0,P|108:184|164:108,1,255,2|2,0:0|0:0,0:0:0:0:
244,120,114508,2,0,B|274:91|274:91|328:76,2,85,2|2|2,0:0|0:0|0:0,0:0:0:0:
320,176,115580,1,2,0:0:0:0:
300,268,115937,6,0,L|233:333,1,85,4|2,0:0|0:0,0:0:0:0:
144,328,116651,2,0,P|104:292|104:236,1,85,8|2,0:1|0:0,0:0:0:0:
104,216,117187,1,4,0:0:0:0:
104,216,117366,2,0,P|140:176|196:176,2,85,6|6|8,0:0|0:0|0:1,0:0:0:0:
12,228,118437,1,2,0:0:0:0:
8,136,118794,6,0,L|28:36,1,85,4|2,0:0|0:0,0:0:0:0:
116,28,119508,2,0,L|99:111,1,85,8|2,0:1|0:0,0:0:0:0:
136,144,120044,1,4,0:0:0:0:
136,144,120223,2,0,P|168:176|172:232,1,85,4|6,3:3|0:0,0:0:0:0:
216,240,120758,1,8,0:0:0:0:
216,240,120937,2,0,L|203:306,2,42.5,8|8|4,3:3|0:0|0:0,0:0:0:0:
288,300,121651,6,0,L|305:217,1,85,4|0,0:1|0:0,0:0:0:0:
392,180,122366,2,0,P|356:148|352:88,1,85,8|2,0:0|0:0,0:0:0:0:
376,76,122901,1,4,0:0:0:0:
376,76,123080,2,0,P|300:96|244:12,1,170,6|8,0:0|0:0,0:0:0:0:
152,36,124151,1,0,0:0:0:0:
124,72,124330,1,2,0:0:0:0:
96,108,124508,6,0,L|60:200,1,85,4|2,0:0|0:0,0:0:0:0:
144,240,125223,2,0,P|88:276|80:324,1,85,8|2,0:0|0:0,0:0:0:0:
44,320,125758,1,4,0:0:0:0:
44,320,125937,2,0,P|100:356|108:404,1,85,4|6,0:0|0:0,0:0:0:0:
200,368,126651,2,0,L|252:332,2,42.5,8|0|2,0:0|0:0|0:0,0:0:0:0:
172,280,127366,6,0,L|249:226,1,85,4|2,3:3|0:0,0:0:0:0:
336,232,128080,2,0,L|405:280,1,85,8|2,0:0|0:0,0:0:0:0:
480,224,128794,2,0,P|468:176|496:128,1,85,4|2,3:3|0:0,0:0:0:0:
416,76,129508,2,0,P|368:88|320:60,1,85,8|2,0:0|0:0,0:0:0:0:
268,140,130223,6,0,B|300:160|300:160|272:200|272:200|292:252|250:306,1,170,4|10,3:3|0:0,0:0:0:0:
188,233,131294,2,0,P|128:221|88:101,1,170,2|6,0:0|0:0,0:0:0:0:
115,43,132366,2,0,L|185:87,2,42.5,10|8|4,0:0|0:0|0:0,0:0:0:0:
81,131,133080,6,0,P|65:187|85:235,1,85,4|2,0:1|0:0,0:0:0:0:
152,260,133794,2,0,P|112:304|124:364,1,85,8|2,0:0|0:0,0:0:0:0:
128,372,134330,1,4,0:0:0:0:
128,372,134508,2,0,L|224:344,1,85,4|0,0:0|0:0,0:0:0:0:
240,260,135223,2,0,P|272:292|336:292,1,85,8|0,0:0|0:0,0:0:0:0:
340,332,135758,1,2,0:0:0:0:
340,332,135937,6,0,P|377:297|428:300,1,85,4|2,3:3|0:0,0:0:0:0:
484,240,136651,2,0,L|472:140,1,85,8|2,0:0|0:0,0:0:0:0:
440,120,137187,1,4,0:0:0:0:
440,120,137366,2,0,B|404:112|404:112|340:132,1,85,4|2,3:3|0:0,0:0:0:0:
320,100,137901,1,8,0:0:0:0:
320,100,138080,2,0,L|268:116,2,42.5,8|8|4,0:0|0:0|0:3,0:0:0:0:
252,36,138794,6,0,L|154:66,1,85,4|2,0:1|0:0,0:0:0:0:
140,148,139508,2,0,L|42:118,2,85,8|6|0,0:0|0:0|0:0,0:0:0:0:
181,231,140580,1,6,0:0:0:0:
272,224,140937,1,8,3:3:0:0:
316,304,141294,1,8,3:3:0:0:
351,217,141651,6,0,P|325:165|219:165,1,170,8|8,3:3|0:0,0:0:0:0:
152,100,142723,1,4,0:1:0:0:
152,100,143080,2,0,L|208:28,1,85,0|8,0:0|0:0,0:0:0:0:
296,32,143794,1,8,0:0:0:0:
364,96,144151,1,8,0:0:0:0:
431,31,144508,6,0,P|457:88|449:131,1,85,10|2,0:0|0:0,0:0:0:0:
488,144,145044,1,8,0:3:0:0:
488,144,145223,2,0,P|453:204|408:216,1,85,10|8,0:0|0:3,0:0:0:0:
460,256,145758,1,4,0:0:0:0:
460,256,145937,5,10,0:0:0:0:
44,44,147901,5,8,0:0:0:0:
44,44,148080,2,0,L|28:124,2,42.5,8|8|4,0:0|0:0|0:3,0:0:0:0:
124,92,148794,6,0,L|104:189,1,85,4|0,0:1|0:0,0:0:0:0:
132,216,149329,1,0,0:0:0:0:
132,216,149508,2,0,P|176:220|232:168,1,85,8|0,0:0|0:0,0:0:0:0:
256,216,150044,1,0,0:0:0:0:
256,216,150222,2,0,B|266:167|266:167|290:135,2,85,4|4|8,0:0|0:0|0:0,0:0:0:0:
312,292,151294,1,0,0:0:0:0:
350,207,151651,6,0,P|391:242|402:283,1,85,4|0,3:3|0:0,0:0:0:0:
428,308,152186,1,0,0:0:0:0:
428,308,152365,2,0,P|446:269|480:245,1,85,8|0,0:0|0:0,0:0:0:0:
452,156,153079,2,0,P|460:120|480:152,2,85,4|4|8,0:0|0:0|0:0,0:0:0:0:
479,245,154151,1,4,0:0:0:0:
408,304,154508,6,0,B|360:312|360:312|264:276,1,127.5,4|0,0:1|0:0,0:0:0:0:
260,244,155222,2,0,P|220:280|152:272,1,85,8|0,0:0|0:0,0:0:0:0:
136,360,155936,2,0,L|54:330,2,85,4|4|8,0:0|0:0|0:0,0:0:0:0:
228,368,157008,1,0,0:0:0:0:
264,284,157365,6,0,P|300:252|384:264,1,127.5,4|0,3:3|0:0,0:0:0:0:
420,256,158079,2,0,L|404:348,1,85,8|0,0:0|0:0,0:0:0:0:
444,364,158615,1,8,0:0:0:0:
444,364,158794,1,4,0:0:0:0:
508,296,159151,1,4,0:0:0:0:
496,204,159508,2,0,L|480:112,1,85,8|4,0:0|0:0,0:0:0:0:
392,96,160222,6,0,B|344:72|296:88|296:88|306:144,1,127.5,4|0,0:1|0:0,0:0:0:0:
288,160,160936,2,0,P|243:149|196:167,1,85,8|0,0:0|0:0,0:0:0:0:
116,144,161651,2,0,B|132:222|132:222|112:288,1,127.5,4|0,0:0|0:0,0:0:0:0:
72,280,162365,2,0,P|82:320|71:361,1,85,8|0,0:0|0:0,0:0:0:0:
164,344,163079,6,0,P|209:355|256:337,1,85,4|0,3:3|0:0,0:0:0:0:
292,352,163615,1,0,0:0:0:0:
292,352,163794,2,0,L|320:259,1,85,8|0,0:0|0:0,0:0:0:0:
272,188,164508,2,0,B|232:176|232:176|184:128,2,85,4|4|8,0:0|0:0|0:0,0:0:0:0:
280,96,165579,1,4,0:0:0:0:
372,120,165936,6,0,P|440:136|468:200,1,127.5,4|0,0:1|0:0,0:0:0:0:
504,212,166651,2,0,L|368:264,1,127.5,8|0,0:0|0:0,0:0:0:0:
372,304,167365,2,0,P|305:289|234:313,1,127.5,4|0,0:0|0:0,0:0:0:0:
204,320,168079,2,0,B|228:268|196:224|196:224|176:252,1,127.5,8|0,0:0|0:0,0:0:0:0:
136,252,168794,6,0,P|76:228|64:132,1,170,4|8,3:3|3:3,0:0:0:0:
116,56,169865,1,0,0:0:0:0:
204,88,170222,2,0,L|196:176,1,85,4|4,0:0|0:0,0:0:0:0:
288,176,170936,2,0,L|291:133,2,42.5,8|8|4,0:0|0:0|0:0,0:0:0:0:
368,224,171651,6,0,P|404:252|392:352,1,127.5,4|0,0:1|0:0,0:0:0:0:
412,376,172365,2,0,L|304:352,1,85,8|0,0:0|0:0,0:0:0:0:
304,316,172901,1,4,0:0:0:0:
304,316,173079,2,0,L|196:340,2,85,4|4|8,0:0|0:0|0:0,0:0:0:0:
280,224,174151,1,0,0:0:0:0:
336,148,174508,6,0,P|280:130|188:208,1,170,4|8,0:0|0:0,0:0:0:0:
144,268,175579,2,0,L|112:240,1,42.5,4|8,0:1|0:0,0:0:0:0:
64,240,175936,2,0,L|32:268,1,42.5,4|8,0:0|0:0,0:0:0:0:
28,316,176294,1,4,0:0:0:0:
100,376,176651,2,0,L|132:348,2,42.5,8|8|4,0:0|0:0|0:0,0:0:0:0:
28,316,177365,6,0,P|28:256|116:204,1,170,4|2,0:1|0:0,0:0:0:0:
188,148,178436,2,0,B|80:96|80:96|127:78,1,170,2|2,0:0|0:0,0:0:0:0:
220,68,179508,2,0,L|328:120,1,85,2|2,0:0|0:0,0:0:0:0:
388,84,180222,6,0,P|344:120|364:236,1,170,4|8,0:1|0:0,0:0:0:0:
352,320,181294,1,0,0:0:0:0:
352,320,181472,1,4,0:0:0:0:
352,320,181651,2,0,L|276:284,1,85,4|4,0:0|0:0,0:0:0:0:
244,252,182186,1,0,0:0:0:0:
244,252,182365,2,0,P|180:272|132:248,1,85,4|0,1:1|0:0,0:0:0:0:
76,240,183079,6,0,P|120:288|108:360,1,127.5,4|4,0:1|0:0,0:0:0:0:
76,368,183794,1,8,0:0:0:0:
12,300,184151,2,0,L|-4:256,1,42.5,0|8,0:0|0:0,0:0:0:0:
0,212,184508,2,0,L|16:168,1,42.5,4|8,0:0|0:0,0:0:0:0:
60,160,184865,1,4,0:0:0:0:
89,71,185222,2,0,P|141:111|149:155,1,85,8|0,0:0|0:0,0:0:0:0:
192,208,185936,6,0,B|232:226|272:208|272:208|324:183|372:216,1,170,4|8,0:1|0:0,0:0:0:0:
432,260,187008,2,0,L|448:216,1,42.5,0|8,0:0|0:0,0:0:0:0:
484,192,187365,2,0,L|468:148,1,42.5,4|8,0:0|0:0,0:0:0:0:
484,108,187722,1,4,0:0:0:0:
396,80,188079,2,0,L|380:36,2,42.5,8|8|4,0:0|0:3|0:0,0:0:0:0:
316,132,188794,6,0,P|272:140|236:184,1,85,4|0,0:1|0:0,0:0:0:0:
196,176,189329,2,0,L|225:255,1,85,4|0,0:1|0:0,0:0:0:0:
180,272,189865,2,0,P|112:296|112:356,1,127.5,4|4,0:1|0:1,0:0:0:0:
148,368,190579,1,4,0:0:0:0:
240,360,190936,1,8,0:0:0:0:
304,292,191294,1,8,0:3:0:0:
392,324,191651,5,4,0:1:0:0:
440,244,192008,2,0,L|425:204,1,42.5,0|0,0:0|0:0,0:0:0:0:
380,192,192365,2,0,L|365:152,1,42.5,8|0,0:0|0:0,0:0:0:0:
324,128,192722,1,0,0:0:0:0:
244,80,193079,2,0,L|229:120,1,42.5,4|0,0:0|0:0,0:0:0:0:
188,144,193436,2,0,L|173:184,1,42.5,4|0,0:0|0:0,0:0:0:0:
132,204,193793,1,8,0:0:0:0:
40,220,194151,2,0,L|55:260,1,42.5,0|0,0:0|0:0,0:0:0:0:
52,308,194508,6,0,P|104:320|136:352,1,85,4|0,0:1|0:0,0:0:0:0:
164,368,195043,1,0,0:0:0:0:
164,368,195222,2,0,B|197:343|197:343|264:328,1,85,4|0,1:1|0:0,0:0:0:0:
328,360,195936,2,0,B|370:350|370:350|403:325,1,85,4|0,2:1|0:0,0:0:0:0:
432,288,196472,1,8,0:0:0:0:
432,288,196651,2,0,L|408:216,2,42.5,8|4|4,0:0|0:0|0:0,0:0:0:0:
504,228,197365,6,0,L|469:125,1,85,4|0,0:1|0:0,0:0:0:0:
384,152,198079,1,8,0:0:0:0:
320,84,198436,1,4,3:3:0:0:
236,128,198793,2,0,P|196:108|132:120,1,85,0|4,0:0|0:0,0:0:0:0:
108,104,199329,1,0,0:0:0:0:
108,104,199508,2,0,P|128:168|108:212,1,85,4|0,1:1|0:0,0:0:0:0:
48,240,200222,6,0,L|74:320,1,85,8|8,0:0|0:0,0:0:0:0:
168,321,200936,2,0,L|202:218,1,85,8|4,0:0|1:1,0:0:0:0:
280,200,201651,1,8,0:0:0:0:
340,272,202008,1,8,0:0:0:0:
432,248,202365,1,8,0:0:0:0:
496,180,202722,22,0,B|409:82|516:-7|476:21|436:74|436:74|400:11|315:22|279:110|356:164,1,425,12|0,1:1|0:0,0:0:0:0:
220,160,204930,6,0,P|164:184|128:260,2,127.5,0|2|0,3:0|0:0|0:0,0:0:0:0:
296,212,206358,2,0,B|272:288|272:288|280:336,2,127.5,0|2|0,3:0|0:0|0:0,0:0:0:0:
388,200,207787,6,0,P|444:224|480:300,2,127.5,0|2|0,3:0|0:0|0:0,0:0:0:0:
348,116,209215,2,0,L|260:88,1,85,0|0,3:0|0:0,0:0:0:0:
196,32,209930,2,0,L|80:68,1,85,2|0,0:0|0:0,0:0:0:0:
76,144,210644,6,0,P|36:180|40:268,2,127.5,0|2|0,3:0|0:0|0:0,0:0:0:0:
168,132,212077,1,0,3:0:0:0:
272,32,212621,1,2,0:0:0:0:
288,148,213147,1,0,0:0:0:0:
316,240,213565,2,0,L|220:224,1,85,0|0,3:0|0:0,0:0:0:0:
200,244,214182,5,2,0:0:0:0:
92,148,214995,1,2,0:0:0:0:
256,192,216048,12,0,219929,3:0:0:0:
