osu file format v14

[General]
AudioFilename: audio.mp3
AudioLeadIn: 0
PreviewTime: 54206
Countdown: 0
SampleSet: Soft
StackLeniency: 0.7
Mode: 0
LetterboxInBreaks: 0
WidescreenStoryboard: 1

[Editor]
Bookmarks: 14242,41670,55385,82813,89670,117099,130813,158242,171956,185670,213099
DistanceSpacing: 1.1
BeatDivisor: 4
GridSize: 32
TimelineZoom: 1

[Metadata]
Title:Distance
TitleUnicode:Distance
Artist:Nishino Kana
ArtistUnicode:西野カナ
Creator:-Rei
Version:Normal
Source:
Tags:Jpop Japanese Pop J-pop female vocalist MATS LIE SKARE FASTLANE SONISTA thank you love ディスタンス 追いかけても
BeatmapID:3665103
BeatmapSetID:1788819

[Difficulty]
HPDrainRate:3
CircleSize:3
OverallDifficulty:3
ApproachRate:5
SliderMultiplier:1.1
SliderTickRate:1

[Events]
//Background and Video events
0,0,"api(2).jpg",0,0
//Break Periods
2,83023,88481
//Storyboard Layer 0 (Background)
//Storyboard Layer 1 (Fail)
//Storyboard Layer 2 (Pass)
//Storyboard Layer 3 (Foreground)
//Storyboard Layer 4 (Overlay)
//Storyboard Sound Samples

[TimingPoints]
538,428.571428571429,4,2,1,60,1,0
538,-100,4,2,1,60,0,0
14466,-100,4,2,1,60,0,0
14680,-100,4,2,1,60,0,0
17895,-100,4,2,1,60,0,0
18109,-100,4,2,1,60,0,0
21002,-100,4,2,1,10,0,0
21109,-100,4,2,1,60,0,0
21323,-100,4,2,1,60,0,0
21538,-100,4,2,1,60,0,0
21859,-100,4,2,1,10,0,0
21966,-100,4,2,1,60,0,0
23038,-100,4,2,1,60,0,0
23252,-100,4,2,1,60,0,0
24859,-100,4,2,1,10,0,0
24966,-100,4,2,1,60,0,0
25716,-100,4,2,1,10,0,0
25823,-100,4,2,1,60,0,0
35145,-100,4,2,1,10,0,0
35252,-100,4,2,1,60,0,0
38466,-100,4,2,1,60,0,0
38680,-100,4,2,1,60,0,0
41680,-100,4,2,1,70,0,0
48538,-100,4,2,1,75,0,0
55395,-100,4,2,1,80,0,0
76288,-100,4,2,1,10,0,0
76395,-100,4,2,1,80,0,0
77145,-100,4,2,1,10,0,0
77252,-100,4,2,1,80,0,0
82823,-100,4,2,1,60,0,0
89895,-100,4,2,1,60,0,0
90109,-100,4,2,1,60,0,0
93323,-100,4,2,1,60,0,0
93538,-100,4,2,1,60,0,0
96430,-100,4,2,1,10,0,0
96538,-100,4,2,1,60,0,0
96752,-100,4,2,1,60,0,0
96966,-100,4,2,1,60,0,0
97288,-100,4,2,1,10,0,0
97395,-100,4,2,1,60,0,0
98466,-100,4,2,1,60,0,0
98680,-100,4,2,1,60,0,0
100288,-100,4,2,1,10,0,0
100395,-100,4,2,1,60,0,0
101145,-100,4,2,1,10,0,0
101252,-100,4,2,1,60,0,0
110573,-100,4,2,1,10,0,0
110680,-100,4,2,1,60,0,0
113895,-100,4,2,1,60,0,0
114109,-100,4,2,1,60,0,0
117109,-100,4,2,1,70,0,0
123966,-100,4,2,1,75,0,0
130823,-100,4,2,1,80,0,0
151716,-100,4,2,1,10,0,0
151823,-100,4,2,1,80,0,0
152573,-100,4,2,1,10,0,0
152680,-100,4,2,1,80,0,0
158252,-100,4,2,1,60,0,0
178823,-100,4,2,1,70,0,0
185680,-100,4,2,1,80,0,0
206573,-100,4,2,1,10,0,0
206680,-100,4,2,1,80,0,0
207430,-100,4,2,1,10,0,0
207538,-100,4,2,1,70,0,0
213109,-100,4,2,1,20,0,0

[Colours]
Combo1 : 255,226,128
Combo2 : 201,155,227
Combo3 : 234,170,149
Combo4 : 224,158,201

[HitObjects]
27,32,13823,5,8,0:1:0:0:
125,103,14253,2,0,L|103:219,1,110,4|0,1:0|0:0,0:0:0:0:
55,247,14896,1,0,1:0:0:0:
143,337,15323,1,0,1:0:0:0:
143,337,15539,1,10,2:0:0:0:
242,268,15967,6,0,P|282:264|349:289,1,110,0|0,1:0|0:0,0:0:0:0:
384,334,16610,1,0,1:0:0:0:
486,267,17038,1,0,1:0:0:0:
486,267,17253,1,8,0:1:0:0:
384,201,17681,6,0,P|366:161|367:76,1,110,0|0,1:0|0:0,0:0:0:0:
395,44,18324,1,0,1:0:0:0:
280,72,18752,1,0,1:0:0:0:
280,72,18967,1,10,2:0:0:0:
165,33,19396,6,0,P|130:59|117:131,1,110,0|0,1:0|0:0,0:0:0:0:
93,177,20039,1,0,1:0:0:0:
182,266,20467,1,0,1:0:0:0:
182,266,20681,1,8,0:1:0:0:
83,335,21110,6,0,P|24:315|-8:260,2,110,0|0|0,1:0|0:0|0:0,0:0:0:0:
140,351,22180,1,0,1:0:0:0:
140,351,22395,1,10,2:0:0:0:
228,268,22823,6,0,P|275:308|303:359,1,110,0|0,1:0|0:0,0:0:0:0:
354,375,23467,1,0,1:0:0:0:
441,291,23896,1,0,1:0:0:0:
441,291,24109,2,0,P|475:290|504:280,1,55,8|0,1:0|0:0,0:0:0:0:
499,223,24539,6,0,L|513:110,2,110,0|0|0,1:0|0:0|0:0,0:0:0:0:
477,341,25823,2,0,P|448:326|407:318,1,55,10|0,2:0|0:0,0:0:0:0:
381,279,26252,2,0,P|328:289|268:319,1,110,0|0,1:0|0:0,0:0:0:0:
212,324,26895,6,0,P|196:295|182:261,1,55,0|0,3:0|3:0,0:0:0:0:
214,222,27324,1,0,3:0:0:0:
214,222,27539,1,8,1:0:0:0:
331,194,27967,6,0,P|354:150|341:84,1,110,4|0,1:0|0:0,0:0:0:0:
372,37,28610,1,8,1:3:0:0:
263,85,29039,1,8,1:3:0:0:
263,85,29252,1,10,2:0:0:0:
188,11,29681,6,0,P|162:8|80:34,1,110,0|0,1:0|0:0,0:0:0:0:
54,85,30324,1,8,1:3:0:0:
105,194,30753,1,8,1:3:0:0:
105,194,30967,2,0,L|38:168,1,55,8|2,1:0|0:2,0:0:0:0:
8,214,31396,6,0,L|-2:337,1,110,2|0,1:2|0:0,0:0:0:0:
37,370,32039,1,8,1:3:0:0:
147,317,32467,1,8,1:3:0:0:
147,317,32680,1,10,2:0:0:0:
249,381,33110,6,0,P|300:374|345:312,1,110,0|0,1:0|0:0,0:0:0:0:
376,275,33753,1,0,1:0:0:0:
301,187,34181,1,0,1:0:0:0:
301,187,34396,2,0,L|364:186,1,55,8|0,1:0|0:0,0:0:0:0:
406,152,34824,6,0,P|435:124|427:42,2,110,0|0|0,1:0|0:0|0:0,0:0:0:0:
346,163,35895,1,8,1:3:0:0:
346,163,36110,1,10,2:0:0:0:
229,197,36539,6,0,L|121:174,1,110,0|0,1:0|0:0,0:0:0:0:
92,120,37181,1,8,1:3:0:0:
176,32,37610,1,8,1:3:0:0:
176,32,37824,2,0,L|187:103,1,55,8|0,1:0|0:0,0:0:0:0:
238,113,38253,6,0,P|290:99|331:41,2,110,0|0|0,1:0|0:0|0:0,0:0:0:0:
192,152,39324,1,8,1:3:0:0:
192,152,39539,1,10,2:0:0:0:
88,213,39967,6,0,P|130:222|156:300,1,110,0|0,1:0|0:0,0:0:0:0:
136,333,40610,1,0,1:0:0:0:
248,275,41039,1,0,1:0:0:0:
248,275,41253,2,0,P|273:259|305:251,1,55,10|2,1:2|0:2,0:0:0:0:
356,261,41681,5,4,1:0:0:0:
475,279,42110,1,0,1:0:0:0:
498,160,42539,1,8,1:2:0:0:
379,134,42967,1,0,1:0:0:0:
269,185,43396,6,0,P|208:164|170:119,1,110,0|0,1:0|1:0,0:0:0:0:
198,12,44253,1,8,1:0:0:0:
86,58,44681,1,2,1:2:0:0:
21,167,45109,6,0,L|41:282,1,110,0|0,1:0|1:0,0:0:0:0:
142,339,45966,2,0,P|175:314|257:284,1,110,8|0,1:0|1:0,0:0:0:0:
354,320,46824,6,0,P|406:273|413:223,1,110,0|0,1:0|1:0,0:0:0:0:
313,168,47681,1,8,1:2:0:0:
405,89,48110,1,0,1:0:0:0:
319,3,48539,5,2,1:2:0:0:
230,78,48967,1,0,1:0:0:0:
118,125,49395,2,0,L|58:102,2,55,10|0|0,1:2|1:0|1:0,0:0:0:0:
219,191,50253,6,0,L|223:247,1,55,10|0,1:2|1:0,0:0:0:0:
211,304,50680,2,0,P|231:324|257:335,1,55,0|0,1:0|1:0,0:0:0:0:
311,312,51109,1,10,1:2:0:0:
431,351,51538,1,0,1:0:0:0:
431,351,51753,1,0,1:0:0:0:
478,313,51966,6,0,L|497:234,1,55,10|0,1:2|1:0,0:0:0:0:
472,201,52395,2,0,L|468:136,1,55,0|0,1:0|1:0,0:0:0:0:
473,85,52823,2,0,L|361:60,1,110,10|0,1:2|1:0,0:0:0:0:
258,117,53681,1,2,0:0:0:0:
89,146,55395,6,0,L|214:174,1,110,4|8,1:0|2:0,0:0:0:0:
254,187,56038,1,2,1:2:0:0:
254,187,56252,2,0,L|251:126,2,55,0|2|10,0:0|1:2|1:2,0:0:0:0:
363,239,57109,6,0,L|385:127,1,110,0|8,1:0|2:0,0:0:0:0:
433,102,57752,1,2,1:2:0:0:
433,102,57966,2,0,L|419:40,1,55,0|2,0:0|1:2,0:0:0:0:
372,11,58395,1,10,1:2:0:0:
295,104,58823,6,0,L|175:87,1,110,0|8,1:0|2:0,0:0:0:0:
131,61,59466,1,2,1:2:0:0:
131,61,59680,2,0,L|113:-4,2,55,0|2|10,0:0|1:2|1:0,0:0:0:0:
97,111,60323,1,0,0:0:0:0:
45,220,60752,1,0,0:0:0:0:
139,295,61180,5,2,1:2:0:0:
139,295,61395,2,0,P|170:284|201:282,1,55,0|2,0:0|1:2,0:0:0:0:
242,314,61823,2,0,P|272:311|300:302,1,55,10|0,1:0|0:0,0:0:0:0:
347,271,62252,6,0,L|341:196,1,55,2|0,1:2|0:0,0:0:0:0:
336,156,62680,1,8,2:0:0:0:
443,211,63109,2,0,L|449:136,1,55,0|2,0:0|1:2,0:0:0:0:
453,96,63537,1,10,2:2:0:0:
339,53,63966,6,0,L|325:-1,2,55,2|0|8,1:2|0:0|0:0,0:0:0:0:
345,117,64609,1,2,1:2:0:0:
345,117,64823,2,0,L|289:109,1,55,0|2,0:0|1:2,0:0:0:0:
235,134,65252,1,10,1:2:0:0:
150,47,65680,6,0,L|162:109,1,55,0|0,1:0|0:0,0:0:0:0:
130,153,66109,2,0,P|79:139|14:146,1,110,8|0,0:1|0:0,0:0:0:0:
11,206,66752,1,2,1:2:0:0:
11,206,66966,1,8,2:0:0:0:
98,290,67395,6,0,L|229:268,1,110,0|8,1:0|2:0,0:0:0:0:
245,226,68038,1,2,1:2:0:0:
245,226,68252,1,0,0:0:0:0:
315,317,68680,1,10,1:2:0:0:
428,276,69109,6,0,P|451:212|455:152,1,110,4|8,1:0|2:0,0:0:0:0:
416,131,69752,1,2,1:2:0:0:
416,131,69966,2,0,L|407:68,2,55,0|2|10,0:0|1:2|1:2,0:0:0:0:
305,181,70823,6,0,P|254:169|218:123,1,110,0|8,1:0|2:0,0:0:0:0:
172,96,71466,1,2,1:2:0:0:
172,96,71680,2,0,P|157:119|148:149,1,55,0|2,0:0|1:2,0:0:0:0:
100,182,72109,1,10,1:2:0:0:
214,221,72538,6,0,P|222:275|222:342,1,110,0|8,1:0|2:0,0:0:0:0:
273,372,73180,1,2,1:2:0:0:
273,372,73395,2,0,P|309:341|371:325,1,110,0|10,0:0|2:0,0:0:0:0:
427,355,74038,1,0,0:0:0:0:
427,355,74252,1,0,1:0:0:0:
485,249,74680,1,8,2:0:0:0:
365,232,75109,6,0,P|350:199|348:164,1,55,0|2,0:0|1:2,0:0:0:0:
309,133,75538,2,0,P|324:104|350:80,1,55,10|0,1:2|0:0,0:0:0:0:
390,55,75966,2,0,L|264:26,1,110,0|8,1:0|2:0,0:0:0:0:
163,11,76823,1,0,0:0:0:0:
103,116,77252,2,0,L|133:185,1,55,8|0,2:0|0:0,0:0:0:0:
179,192,77680,6,0,B|165:325,1,110,0|8,1:0|2:0,0:0:0:0:
123,342,78323,1,2,1:2:0:0:
62,243,78752,1,2,1:2:0:0:
62,243,78966,2,0,L|20:182,1,55,10|0,1:0|0:0,0:0:0:0:
44,138,79395,1,2,1:2:0:0:
256,192,79609,12,0,82823,1:0:0:0:
381,24,89681,6,0,B|394:149,1,110,4|8,1:0|0:0,0:0:0:0:
431,179,90324,1,0,1:0:0:0:
333,248,90752,1,0,1:0:0:0:
333,248,90967,1,10,2:0:0:0:
318,367,91395,6,0,P|275:326|225:318,1,110,0|8,1:0|0:0,0:0:0:0:
171,342,92038,1,0,1:0:0:0:
91,258,92466,1,0,1:0:0:0:
91,258,92681,1,8,0:1:0:0:
211,251,93109,6,0,P|258:223|272:173,1,110,0|8,1:0|0:0,0:0:0:0:
253,114,93752,1,0,1:0:0:0:
163,41,94181,1,0,1:0:0:0:
163,41,94395,1,10,2:0:0:0:
71,120,94824,6,0,P|137:126|178:163,1,110,0|8,1:0|0:0,0:0:0:0:
179,211,95467,1,0,1:0:0:0:
129,323,95895,1,0,1:0:0:0:
129,323,96109,1,8,0:1:0:0:
247,300,96538,6,0,P|293:312|344:350,2,110,0|8|0,1:0|0:0|0:0,0:0:0:0:
187,308,97609,1,0,1:0:0:0:
187,308,97823,1,10,2:0:0:0:
76,357,98252,6,0,P|40:308|52:257,1,110,0|8,1:0|0:0,0:0:0:0:
71,206,98895,1,0,1:0:0:0:
187,163,99324,1,0,1:0:0:0:
187,163,99538,2,0,L|207:220,1,55,8|0,1:0|0:0,0:0:0:0:
260,240,99967,6,0,P|316:235|369:210,2,110,0|8|0,1:0|0:0|0:0,0:0:0:0:
217,205,101038,1,0,1:0:0:0:
217,205,101252,1,10,2:0:0:0:
111,263,101680,6,0,P|55:258|2:233,1,110,0|8,1:0|0:0,0:0:0:0:
15,175,102323,2,0,L|7:111,1,55,0|0,3:0|3:0,0:0:0:0:
34,65,102752,1,0,3:0:0:0:
34,65,102967,1,8,1:0:0:0:
153,85,103395,6,0,L|270:61,1,110,4|8,1:0|0:0,0:0:0:0:
314,92,104038,1,8,1:3:0:0:
412,37,104467,1,8,1:3:0:0:
412,37,104681,2,0,L|428:99,1,55,10|0,2:0|0:0,0:0:0:0:
457,141,105109,6,0,L|439:256,1,110,0|8,1:0|0:0,0:0:0:0:
456,308,105752,1,8,1:3:0:0:
349,261,106181,1,8,1:3:0:0:
349,261,106395,2,0,P|321:260|291:266,1,55,8|2,1:0|0:2,0:0:0:0:
246,302,106824,6,0,P|178:298|139:269,1,110,2|8,1:2|0:0,0:0:0:0:
99,234,107467,1,8,1:3:0:0:
147,125,107895,1,8,1:3:0:0:
147,125,108109,2,0,L|206:108,1,55,10|0,2:0|0:0,0:0:0:0:
246,70,108538,6,0,P|299:39|366:44,1,110,0|8,1:0|0:0,0:0:0:0:
396,72,109181,1,8,1:3:0:0:
333,177,109609,1,8,1:3:0:0:
333,177,109824,2,0,L|269:167,1,55,8|0,1:0|0:0,0:0:0:0:
228,201,110252,6,0,P|181:190|149:122,2,110,0|8|0,1:0|0:0|0:0,0:0:0:0:
311,118,111538,1,10,2:0:0:0:
400,199,111967,2,0,L|377:318,1,110,0|8,1:0|0:0,0:0:0:0:
389,366,112609,1,8,1:3:0:0:
296,288,113038,1,8,1:3:0:0:
296,288,113252,2,0,L|227:308,1,55,8|0,1:0|0:0,0:0:0:0:
202,348,113680,6,0,P|148:344|107:308,2,110,0|8|0,1:0|0:0|0:0,0:0:0:0:
215,292,114752,1,8,1:3:0:0:
215,292,114967,1,10,2:0:0:0:
322,235,115395,6,0,P|323:185|256:159,1,110,0|8,1:0|0:0,0:0:0:0:
217,171,116038,1,0,1:0:0:0:
110,225,116467,1,0,1:0:0:0:
110,225,116681,2,0,L|122:288,1,55,10|2,1:2|0:2,0:0:0:0:
136,337,117109,5,4,1:0:0:0:
213,243,117538,1,0,1:0:0:0:
288,337,117967,1,8,1:2:0:0:
357,238,118395,1,0,1:0:0:0:
420,341,118824,6,0,P|482:320|499:273,1,110,0|0,1:0|1:0,0:0:0:0:
450,171,119681,1,0,1:0:0:0:
357,238,120109,1,2,1:2:0:0:
245,190,120538,6,0,P|237:142|245:75,1,110,0|0,1:0|1:0,0:0:0:0:
219,25,121181,1,0,0:0:0:0:
166,54,121395,2,0,P|117:43|54:38,1,110,8|0,1:0|1:0,0:0:0:0:
16,152,122253,6,0,L|137:128,1,110,0|0,1:0|1:0,0:0:0:0:
215,209,123109,1,8,1:2:0:0:
130,296,123538,1,0,1:0:0:0:
206,384,123966,6,0,P|240:352|306:325,1,110,2|0,1:2|1:0,0:0:0:0:
360,345,124609,1,0,1:0:0:0:
360,345,124823,2,0,L|433:317,1,55,10|0,1:2|1:0,0:0:0:0:
461,290,125252,1,0,1:0:0:0:
359,224,125681,6,0,P|351:191|350:154,1,55,10|0,1:2|1:0,0:0:0:0:
307,126,126109,2,0,P|316:89|332:60,1,55,0|0,1:0|1:0,0:0:0:0:
371,37,126538,1,10,1:2:0:0:
457,129,126966,1,0,1:0:0:0:
457,129,127180,1,0,1:0:0:0:
421,178,127395,6,0,P|389:174|359:169,1,55,10|0,1:2|1:0,0:0:0:0:
315,137,127823,2,0,L|251:151,1,55,0|0,1:0|1:0,0:0:0:0:
215,188,128252,2,0,L|93:170,1,110,10|0,1:2|1:0,0:0:0:0:
28,79,129109,1,2,0:0:0:0:
482,244,130823,6,0,L|357:216,1,110,4|8,1:0|2:0,0:0:0:0:
317,203,131466,1,2,1:2:0:0:
317,203,131680,2,0,L|334:132,2,55,0|2|10,0:0|1:2|1:2,0:0:0:0:
216,270,132537,6,0,P|153:264|107:240,1,110,0|8,1:0|2:0,0:0:0:0:
113,186,133180,1,2,1:2:0:0:
113,186,133394,2,0,L|119:115,1,55,0|2,0:0|1:2,0:0:0:0:
99,73,133823,1,10,1:2:0:0:
10,154,134251,6,0,L|23:282,1,110,0|8,1:0|2:0,0:0:0:0:
53,321,134894,1,2,1:2:0:0:
53,321,135108,2,0,L|-14:344,2,55,0|2|10,0:0|1:2|1:0,0:0:0:0:
102,285,135751,1,0,0:0:0:0:
202,352,136180,1,0,0:0:0:0:
319,315,136608,5,2,1:2:0:0:
319,315,136823,2,0,P|330:284|332:253,1,55,0|2,0:0|1:2,0:0:0:0:
288,220,137251,2,0,P|291:190|300:162,1,55,10|0,1:0|0:0,0:0:0:0:
347,130,137680,6,0,L|427:119,1,55,2|0,1:2|0:0,0:0:0:0:
436,171,138109,1,8,2:0:0:0:
506,269,138538,2,0,L|434:256,1,55,0|2,0:0|1:2,0:0:0:0:
393,275,138966,1,10,2:2:0:0:
285,330,139394,6,0,L|299:384,2,55,2|0|8,1:2|0:0|0:0,0:0:0:0:
250,287,140037,1,2,1:2:0:0:
250,287,140251,2,0,P|219:273|182:266,1,55,0|2,0:0|1:2,0:0:0:0:
141,286,140680,1,10,1:2:0:0:
164,167,141108,6,0,L|171:96,1,55,0|0,1:0|0:0,0:0:0:0:
217,75,141537,2,0,P|203:23|138:0,1,110,8|0,0:1|0:0,0:0:0:0:
105,29,142180,1,2,1:2:0:0:
105,29,142394,1,8,2:0:0:0:
34,127,142823,6,0,P|85:118|157:112,1,110,0|8,1:0|2:0,0:0:0:0:
205,133,143466,1,2,1:2:0:0:
205,133,143680,1,0,0:0:0:0:
305,65,144108,1,10,1:2:0:0:
410,123,144537,6,0,P|379:162|304:145,1,110,4|8,1:0|2:0,0:0:0:0:
283,207,145180,1,2,1:2:0:0:
283,207,145394,2,0,P|287:239|290:277,2,55,0|2|10,0:0|1:2|1:2,0:0:0:0:
191,127,146251,6,0,P|158:172|168:234,1,110,0|8,1:0|2:0,0:0:0:0:
198,279,146895,1,2,1:2:0:0:
198,279,147108,2,0,L|259:266,1,55,0|2,0:0|1:2,0:0:0:0:
298,229,147537,1,10,1:2:0:0:
391,306,147966,6,0,P|429:299|473:230,1,110,0|8,1:0|2:0,0:0:0:0:
467,189,148608,1,2,1:2:0:0:
467,189,148823,2,0,P|470:130|480:59,1,110,0|10,0:0|2:0,0:0:0:0:
512,31,149466,1,0,0:0:0:0:
512,31,149680,1,0,1:0:0:0:
391,17,150108,1,8,2:0:0:0:
301,98,150537,6,0,P|273:116|248:126,1,55,0|2,0:0|1:2,0:0:0:0:
195,104,150966,2,0,P|160:97|128:83,1,55,10|0,1:2|0:0,0:0:0:0:
91,56,151394,2,0,P|66:116|76:165,1,110,0|8,1:0|2:0,0:0:0:0:
173,213,152251,1,0,0:0:0:0:
106,314,152680,2,0,P|134:305|166:301,1,55,8|0,2:0|0:0,0:0:0:0:
219,294,153108,6,0,P|261:308|320:370,1,110,0|8,1:0|2:0,0:0:0:0:
365,374,153751,1,2,1:2:0:0:
471,313,154180,1,2,1:2:0:0:
471,313,154394,2,0,L|453:257,1,55,10|0,1:2|0:0,0:0:0:0:
419,211,154823,5,2,1:2:0:0:
476,104,155251,1,8,0:0:0:0:
367,50,155680,1,2,0:0:0:0:
314,158,156108,2,0,P|226:140|235:28,1,220,8|8,0:0|0:0,0:0:0:0:
286,4,157180,1,2,0:0:0:0:
399,92,157609,1,0,1:0:0:0:
399,92,157823,1,10,0:1:0:0:
419,211,158253,6,1,P|376:200|320:229,1,110,4|0,1:0|0:0,0:0:0:0:
313,292,158896,1,0,1:0:0:0:
313,292,159110,1,8,2:0:0:0:
207,351,159539,6,1,P|226:299|216:237,1,110,0|0,1:0|0:0,0:0:0:0:
171,219,160180,1,0,1:0:0:0:
171,219,160396,1,0,1:0:0:0:
71,150,160824,2,1,P|138:136|183:93,1,110,8|0,2:0|0:0,0:0:0:0:
262,32,161681,6,1,L|247:144,1,110,0|0,1:0|0:0,0:0:0:0:
273,201,162324,1,0,1:0:0:0:
273,201,162538,1,8,2:0:0:0:
218,309,162967,6,1,P|162:316|116:281,1,110,0|0,1:0|0:0,0:0:0:0:
94,239,163610,1,0,1:0:0:0:
94,239,163824,1,0,1:0:0:0:
47,127,164252,1,8,2:0:0:0:
166,141,164680,2,0,P|194:130|228:101,1,55
246,63,165110,6,1,P|288:49|362:60,1,110,0|0,1:0|0:0,0:0:0:0:
399,103,165753,1,0,1:0:0:0:
399,103,165967,1,8,2:0:0:0:
493,178,166396,6,0,L|464:295,1,110,0|0,1:0|0:0,0:0:0:0:
475,349,167039,1,0,1:0:0:0:
475,349,167253,1,0,1:0:0:0:
373,283,167681,2,1,P|343:270|317:265,1,55,8|0,2:0|0:0,0:0:0:0:
271,300,168110,2,0,P|242:306|207:306,1,55
160,282,168539,6,1,P|144:228|149:172,1,110,0|0,1:0|0:0,0:0:0:0:
199,141,169180,1,0,1:0:0:0:
199,141,169396,1,8,2:0:0:0:
290,220,169824,6,1,B|420:181,1,110,4|0,1:0|0:0,0:0:0:0:
453,164,170467,1,0,1:0:0:0:
453,164,170681,1,0,1:0:0:0:
344,110,171110,6,1,P|325:54|346:0,2,110,8|0|0,2:0|0:0|1:0,0:0:0:0:
449,175,172396,1,0,1:0:0:0:
341,229,172824,1,8,1:2:0:0:
373,345,173252,6,0,P|309:317|251:332,1,110,0|0,1:2|1:0,0:0:0:0:
159,370,174110,1,0,1:0:0:0:
74,289,174539,1,8,1:2:0:0:
188,251,174967,6,0,P|210:187|209:120,1,110,0|0,1:0|1:0,0:0:0:0:
180,28,175824,1,0,1:0:0:0:
60,60,176253,1,8,1:2:0:0:
111,168,176680,6,0,L|183:145,1,55,0|0,1:0|0:0,0:0:0:0:
221,170,177109,2,0,P|251:116|259:56,1,110,0|0,1:0|1:0,0:0:0:0:
298,23,177752,1,0,0:0:0:0:
298,23,177966,2,1,L|359:14,1,55,8|0,1:2|0:0,0:0:0:0:
410,31,178395,1,0,1:0:0:0:
507,102,178823,6,0,P|456:127|447:186,1,110,0|0,1:0|1:0,0:0:0:0:
462,233,179466,1,0,1:0:0:0:
462,233,179680,2,0,L|451:294,1,55,8|0,1:2|1:0,0:0:0:0:
470,345,180110,1,0,1:0:0:0:
368,279,180539,6,0,P|325:291|269:329,1,110,0|0,1:0|1:0,0:0:0:0:
229,370,181180,1,0,1:0:0:0:
229,370,181395,2,0,L|162:352,1,55,8|0,1:2|1:0,0:0:0:0:
124,323,181823,1,0,1:0:0:0:
195,224,182253,1,0,1:0:0:0:
256,192,182467,12,0,183967,0:0:0:0:
188,10,185680,6,0,L|164:132,1,110,4|8,1:0|2:0,0:0:0:0:
135,171,186323,1,2,1:2:0:0:
135,171,186537,2,0,L|82:150,2,55,0|2|10,0:0|1:2|1:2,0:0:0:0:
232,242,187394,6,0,P|233:279|167:322,1,110,0|8,1:0|2:0,0:0:0:0:
124,333,188037,1,2,1:2:0:0:
124,333,188251,2,0,L|85:281,1,55,0|2,0:0|1:2,0:0:0:0:
108,231,188680,1,10,1:2:0:0:
222,270,189108,6,0,L|342:255,1,110,0|8,1:0|2:0,0:0:0:0:
381,221,189751,1,2,1:2:0:0:
381,221,189965,2,0,L|394:156,2,55,0|2|10,0:0|1:2|1:0,0:0:0:0:
320,229,190608,1,0,0:0:0:0:
224,154,191037,1,0,0:0:0:0:
298,59,191465,5,2,1:2:0:0:
298,59,191680,2,0,L|306:127,1,55,0|2,0:0|1:2,0:0:0:0:
267,161,192108,2,0,P|235:153|203:151,1,55,10|0,1:0|0:0,0:0:0:0:
165,188,192538,6,0,L|97:170,1,55,2|0,1:2|0:0,0:0:0:0:
62,207,192965,2,0,P|64:259|127:292,1,110,8|0,2:0|0:0,0:0:0:0:
159,333,193608,1,2,1:2:0:0:
159,333,193823,1,10,2:2:0:0:
235,239,194251,6,0,L|249:185,2,55,2|0|8,1:2|0:0|0:0,0:0:0:0:
266,297,194894,1,2,1:2:0:0:
266,297,195108,2,0,P|295:295|322:285,1,55,0|2,0:0|1:2,0:0:0:0:
368,250,195537,1,10,1:2:0:0:
271,177,195965,6,0,P|262:143|259:115,1,55,0|0,1:0|0:0,0:0:0:0:
302,80,196394,2,0,P|273:42|198:13,1,110,8|0,0:1|0:0,0:0:0:0:
163,48,197038,1,2,1:2:0:0:
163,48,197251,1,8,2:0:0:0:
156,168,197680,6,0,L|44:132,1,110,0|8,1:0|2:0,0:0:0:0:
12,181,198323,1,2,1:2:0:0:
12,181,198537,1,0,0:0:0:0:
109,252,198965,1,10,1:2:0:0:
21,335,199394,6,0,P|77:333|136:366,1,110,4|8,1:0|2:0,0:0:0:0:
187,375,200037,1,2,1:2:0:0:
187,375,200252,2,0,L|160:311,2,55,0|2|10,0:0|1:2|1:2,0:0:0:0:
307,378,201108,6,0,P|351:344|355:283,1,110,0|8,1:0|2:0,0:0:0:0:
336,241,201751,1,2,1:2:0:0:
336,241,201965,2,0,P|321:218|312:188,1,55,0|2,0:0|1:2,0:0:0:0:
358,151,202394,1,10,1:2:0:0:
391,34,202823,6,0,P|323:65|277:39,1,110,0|8,1:0|2:0,0:0:0:0:
237,53,203465,1,2,1:2:0:0:
237,53,203680,2,0,L|223:182,1,110,0|10,0:0|2:0,0:0:0:0:
268,213,204323,1,0,0:0:0:0:
268,213,204537,1,0,1:0:0:0:
181,296,204965,1,8,2:0:0:0:
75,241,205394,6,0,L|87:181,1,55,0|2,0:0|1:2,0:0:0:0:
61,131,205823,2,0,L|39:71,1,55,10|0,1:2|0:0,0:0:0:0:
62,22,206251,2,0,P|125:45|177:36,1,110,0|8,1:0|2:0,0:0:0:0:
281,2,207108,1,0,0:0:0:0:
373,79,207537,2,0,L|433:63,1,55,8|0,2:0|0:0,0:0:0:0:
484,80,207965,6,0,P|513:123|502:185,1,110,0|8,1:0|2:0,0:0:0:0:
452,206,208608,1,2,1:2:0:0:
494,325,209037,1,2,1:2:0:0:
494,325,209251,2,0,L|437:311,1,55,10|0,1:2|0:0,0:0:0:0:
385,336,209680,5,2,1:2:0:0:
264,328,210108,1,0,0:0:0:0:
273,207,210537,1,2,0:0:0:0:
393,218,210966,2,0,P|421:153|406:107,1,110
285,136,211823,6,0,L|270:202,1,55,0|0,1:0|0:0,0:0:0:0:
217,215,212252,2,0,P|155:163|161:133,1,110,2|2,0:0|0:0,0:0:0:0:
214,36,213108,1,0,0:0:0:0:
