osu file format v14

[General]
AudioFilename: audio.mp3
AudioLeadIn: 0
PreviewTime: 54206
Countdown: 0
SampleSet: Soft
StackLeniency: 0.7
Mode: 0
LetterboxInBreaks: 0
WidescreenStoryboard: 0

[Editor]
Bookmarks: 14242,41670,55385,82813,89670,117099,130813,158242,171956,185670,213099
DistanceSpacing: 1.9
BeatDivisor: 4
GridSize: 16
TimelineZoom: 1

[Metadata]
Title:Distance
TitleUnicode:Distance
Artist:Nishino Kana
ArtistUnicode:西野カナ
Creator:-Rei
Version:Far
Source:
Tags:Jpop Japanese Pop J-pop female vocalist MATS LIE SKARE FASTLANE SONISTA thank you love ディスタンス 追いかけても
BeatmapID:3665101
BeatmapSetID:1788819

[Difficulty]
HPDrainRate:5
CircleSize:4
OverallDifficulty:7
ApproachRate:8.5
SliderMultiplier:1.8
SliderTickRate:1

[Events]
//Background and Video events
0,0,"api(2).jpg",0,0
//Break Periods
2,83023,86242
//Storyboard Layer 0 (Background)
//Storyboard Layer 1 (Fail)
//Storyboard Layer 2 (Pass)
//Storyboard Layer 3 (Foreground)
//Storyboard Layer 4 (Overlay)
//Storyboard Sound Samples

[TimingPoints]
538,428.571428571429,4,2,1,70,1,0
538,-100,4,2,1,60,0,0
14252,-166.666666666667,4,2,1,60,0,0
14466,-166.666666666667,4,2,1,60,0,0
14680,-166.666666666667,4,2,1,60,0,0
17895,-166.666666666667,4,2,1,60,0,0
18109,-166.666666666667,4,2,1,60,0,0
21002,-166.666666666667,4,2,1,10,0,0
21109,-166.666666666667,4,2,1,60,0,0
21323,-166.666666666667,4,2,1,60,0,0
21538,-166.666666666667,4,2,1,60,0,0
21859,-166.666666666667,4,2,1,10,0,0
21966,-166.666666666667,4,2,1,60,0,0
23038,-166.666666666667,4,2,1,60,0,0
23252,-166.666666666667,4,2,1,60,0,0
24859,-166.666666666667,4,2,1,10,0,0
24966,-166.666666666667,4,2,1,60,0,0
25716,-166.666666666667,4,2,1,10,0,0
25823,-166.666666666667,4,2,1,60,0,0
35145,-166.666666666667,4,2,1,10,0,0
35252,-166.666666666667,4,2,1,60,0,0
38466,-166.666666666667,4,2,1,60,0,0
38680,-166.666666666667,4,2,1,60,0,0
41680,-125,4,2,1,70,0,0
48538,-125,4,2,1,75,0,0
55395,-100,4,2,1,80,0,0
76288,-100,4,2,1,10,0,0
76395,-100,4,2,1,80,0,0
77145,-100,4,2,1,10,0,0
77252,-100,4,2,1,80,0,0
79395,-125,4,2,1,80,0,0
82823,-166.666666666667,4,2,1,60,0,0
89895,-166.666666666667,4,2,1,60,0,0
90109,-166.666666666667,4,2,1,60,0,0
93323,-166.666666666667,4,2,1,60,0,0
93538,-166.666666666667,4,2,1,60,0,0
96430,-166.666666666667,4,2,1,10,0,0
96538,-166.666666666667,4,2,1,60,0,0
96752,-166.666666666667,4,2,1,60,0,0
96966,-166.666666666667,4,2,1,60,0,0
97288,-166.666666666667,4,2,1,10,0,0
97395,-166.666666666667,4,2,1,60,0,0
98466,-166.666666666667,4,2,1,60,0,0
98680,-166.666666666667,4,2,1,60,0,0
100288,-166.666666666667,4,2,1,10,0,0
100395,-166.666666666667,4,2,1,60,0,0
101145,-166.666666666667,4,2,1,10,0,0
101252,-166.666666666667,4,2,1,60,0,0
110573,-166.666666666667,4,2,1,10,0,0
110680,-166.666666666667,4,2,1,60,0,0
113895,-166.666666666667,4,2,1,60,0,0
114109,-166.666666666667,4,2,1,60,0,0
117109,-125,4,2,1,70,0,0
123966,-125,4,2,1,75,0,0
130823,-100,4,2,1,80,0,0
151716,-100,4,2,1,10,0,0
151823,-100,4,2,1,80,0,0
152573,-100,4,2,1,10,0,0
152680,-100,4,2,1,80,0,0
158252,-125,4,2,1,60,0,0
161680,-100,4,2,1,60,0,0
162323,-125,4,2,1,60,0,0
165966,-100,4,2,1,60,0,0
166609,-125,4,2,1,60,0,0
171966,-125,4,2,1,60,0,0
178823,-125,4,2,1,70,0,0
185680,-100,4,2,1,80,0,0
188680,-166.666666666667,4,2,1,80,0,0
189109,-100,4,2,1,80,0,0
206573,-100,4,2,1,10,0,0
206680,-100,4,2,1,80,0,0
207430,-100,4,2,1,10,0,0
207538,-100,4,2,1,70,0,0
209680,-125,4,2,1,70,0,0
213109,-100,4,2,1,20,0,0

[Colours]
Combo1 : 255,226,128
Combo2 : 201,155,227
Combo3 : 234,170,149
Combo4 : 224,158,201

[HitObjects]
412,41,13609,5,0,3:0:0:0:
412,41,13716,1,0,3:0:0:0:
412,41,13823,1,8,0:1:0:0:
375,106,14038,1,0,3:0:0:0:
438,151,14252,6,0,L|504:136,1,53.9999983520508,4|2,1:0|0:3,0:0:0:0:
415,229,14680,1,0,0:0:0:0:
415,229,14895,1,0,1:0:0:0:
350,297,15109,2,0,L|230:274,1,107.999996704102,0|10,0:0|2:0,0:0:0:0:
181,328,15752,1,0,0:0:0:0:
33,234,15966,6,0,P|76:250|107:326,1,107.999996704102,0|0,1:0|0:0,0:0:0:0:
12,368,16609,2,0,L|24:309,1,53.9999983520508,0|0,1:0|0:0,0:0:0:0:
61,151,17038,1,0,1:0:0:0:
169,213,17252,2,0,P|223:196|254:139,1,107.999996704102,8|0,0:1|1:0,0:0:0:0:
169,26,17895,6,0,L|182:89,1,53.9999983520508,2|0,0:3|0:0,0:0:0:0:
258,79,18323,1,0,1:0:0:0:
90,156,18538,2,0,P|56:150|29:142,1,53.9999983520508,0|0,0:0|1:0,0:0:0:0:
58,57,18966,2,0,P|92:63|119:71,1,53.9999983520508,10|0,2:0|0:0,0:0:0:0:
172,134,19395,6,0,L|295:109,1,107.999996704102,0|0,1:0|0:0,0:0:0:0:
355,124,20038,2,0,P|372:106|384:64,1,53.9999983520508,0|0,1:0|0:0,0:0:0:0:
456,48,20467,1,0,1:0:0:0:
485,155,20680,2,0,P|438:162|396:192,1,80.9999975280763,8|0,0:1|0:0,0:0:0:0:
396,213,21109,6,0,L|407:265,1,53.9999983520508,0|2,1:0|0:3,0:0:0:0:
282,365,21538,2,0,L|298:285,1,80.9999975280763
300,257,21966,2,0,P|271:243|236:241,1,53.9999983520508,0|0,0:0|1:0,0:0:0:0:
139,303,22395,2,0,P|165:284|184:255,1,53.9999983520508,10|0,2:0|0:0,0:0:0:0:
187,134,22823,6,0,L|196:187,1,53.9999983520508,0|2,1:0|0:3,0:0:0:0:
126,87,23252,1,0,0:0:0:0:
113,160,23466,2,0,L|122:213,1,53.9999983520508,0|0,1:0|0:0,0:0:0:0:
139,303,23895,1,0,1:0:0:0:
62,261,24109,2,0,P|38:250|-12:243,1,53.9999983520508,8|0,1:0|0:0,0:0:0:0:
0,160,24538,6,0,P|39:161|93:148,1,80.9999975280763,0|0,1:0|0:0,0:0:0:0:
98,127,24966,2,0,L|86:72,1,53.9999983520508,0|0,0:0|1:0,0:0:0:0:
229,10,25395,2,0,L|212:89,1,80.9999975280763
221,129,25823,2,0,P|250:139|286:142,1,53.9999983520508,10|0,2:0|0:0,0:0:0:0:
410,95,26252,6,0,P|377:117|343:190,1,107.999996704102,0|0,1:0|0:0,0:0:0:0:
419,244,26895,1,0,3:0:0:0:
421,233,27002,1,0,3:0:0:0:
423,222,27109,1,0,3:0:0:0:
400,352,27323,1,0,3:0:0:0:
341,287,27538,2,0,P|322:275|291:265,1,53.9999983520508,8|0,1:0|0:0,0:0:0:0:
70,324,27966,6,0,L|178:314,1,107.999996704102,4|0,1:0|0:0,0:0:0:0:
219,253,28609,1,8,1:3:0:0:
219,253,28716,1,8,0:3:0:0:
90,193,28930,1,8,0:3:0:0:
90,193,29038,1,8,1:3:0:0:
163,173,29252,2,0,P|178:153|186:122,1,53.9999983520508,10|0,2:0|0:0,0:0:0:0:
267,17,29680,6,0,P|263:70|275:127,1,107.999996704102,0|0,1:0|0:0,0:0:0:0:
343,174,30323,1,8,1:3:0:0:
343,174,30430,1,8,0:3:0:0:
412,113,30645,1,8,0:3:0:0:
412,113,30752,1,8,1:3:0:0:
471,225,30966,5,8,1:0:0:0:
387,247,31180,1,2,0:2:0:0:
498,348,31395,6,0,P|451:326|390:331,1,107.999996704102,2|0,1:2|0:0,0:0:0:0:
329,370,32038,1,8,1:3:0:0:
329,370,32145,1,8,0:3:0:0:
219,294,32360,1,8,0:3:0:0:
219,294,32467,1,8,1:3:0:0:
147,338,32680,2,0,P|117:334|94:323,1,53.9999983520508,10|0,2:0|0:0,0:0:0:0:
15,179,33109,6,0,P|64:202|81:259,1,107.999996704102,0|0,1:0|0:0,0:0:0:0:
160,212,33752,1,0,1:0:0:0:
160,212,33859,1,0,0:0:0:0:
257,315,34180,1,0,1:0:0:0:
316,250,34395,2,0,L|323:194,1,53.9999983520508,8|0,1:0|0:0,0:0:0:0:
366,318,34823,6,0,P|418:299|440:259,1,80.9999975280763,0|0,1:0|0:0,0:0:0:0:
464,258,35252,2,0,L|471:202,1,53.9999983520508,0|8,0:0|1:3,0:0:0:0:
486,178,35573,1,8,0:3:0:0:
427,118,35788,1,8,0:3:0:0:
427,118,35895,1,8,1:3:0:0:
341,140,36109,2,0,P|309:133|287:120,1,53.9999983520508,10|0,2:0|0:0,0:0:0:0:
263,94,36430,1,0,0:0:0:0:
263,94,36538,6,0,L|148:117,1,107.999996704102,0|0,1:0|0:0,0:0:0:0:
65,84,37180,1,8,1:3:0:0:
65,84,37288,1,8,0:3:0:0:
130,198,37502,1,8,0:3:0:0:
130,198,37609,1,8,1:3:0:0:
10,261,37823,2,0,P|38:251|75:247,1,53.9999983520508,8|0,1:0|0:0,0:0:0:0:
88,339,38252,6,0,P|62:348|36:352,1,53.9999983520508,0|2,1:0|0:3,0:0:0:0:
150,279,38680,1,0,0:0:0:0:
150,279,38895,1,8,1:3:0:0:
218,328,39109,2,0,L|274:340,1,53.9999983520508,0|8,0:0|1:3,0:0:0:0:
224,246,39538,2,0,L|280:258,1,53.9999983520508,10|0,2:0|0:0,0:0:0:0:
412,322,39966,6,0,P|450:292|458:214,1,107.999996704102,0|0,1:0|0:0,0:0:0:0:
356,181,40609,2,0,L|367:234,1,53.9999983520508,0|0,1:0|0:0,0:0:0:0:
427,145,41038,1,0,1:0:0:0:
283,211,41252,2,0,L|230:199,1,53.9999983520508,10|2,1:2|0:2,0:0:0:0:
94,35,41680,6,0,P|134:80|112:157,1,144,4|0,1:0|1:0,0:0:0:0:
0,192,42323,1,0,0:0:0:0:
59,251,42538,2,0,L|155:230,1,72,8|0,1:2|0:0,0:0:0:0:
55,333,42966,2,0,L|151:312,1,72,0|0,1:0|0:0,0:0:0:0:
389,282,43395,6,0,P|315:288|304:348,1,144,0|0,1:0|1:0,0:0:0:0:
388,369,44038,1,0,0:0:0:0:
235,255,44252,2,0,L|163:270,1,72,8|0,1:0|0:0,0:0:0:0:
293,149,44680,1,2,1:2:0:0:
293,149,44895,1,2,0:2:0:0:
346,207,45109,6,0,L|417:222,1,72,0|0,1:0|0:0,0:0:0:0:
498,198,45538,1,0,1:0:0:0:
498,198,45752,1,0,0:0:0:0:
425,103,45966,2,0,L|439:32,1,72,8|0,1:0|0:0,0:0:0:0:
293,149,46395,2,0,L|307:78,1,72,0|0,1:0|0:0,0:0:0:0:
307,279,46823,6,0,P|271:277|228:253,1,72,0|0,1:0|0:0,0:0:0:0:
167,174,47252,2,0,P|158:235|83:254,2,144,0|8|0,1:0|1:2|1:0,0:0:0:0:
119,36,48323,1,0,0:0:0:0:
251,166,48538,5,2,1:2:0:0:
261,131,48752,1,0,1:0:0:0:
271,96,48966,1,0,1:0:0:0:
281,62,49180,1,0,1:0:0:0:
329,234,49395,5,10,1:2:0:0:
339,268,49609,1,0,1:0:0:0:
349,303,49823,1,0,1:0:0:0:
359,337,50037,1,0,1:0:0:0:
512,174,50252,5,10,1:2:0:0:
452,126,50466,1,0,1:0:0:0:
406,186,50680,1,0,1:0:0:0:
464,233,50895,1,0,1:0:0:0:
314,151,51109,5,10,1:2:0:0:
227,255,51323,1,0,1:0:0:0:
321,246,51538,1,0,1:0:0:0:
221,158,51752,1,0,1:0:0:0:
53,252,51966,5,10,1:2:0:0:
158,208,52181,1,0,1:0:0:0:
115,101,52395,1,0,1:0:0:0:
10,145,52609,1,0,1:0:0:0:
42,329,52823,5,10,1:2:0:0:
237,216,53037,1,0,1:0:0:0:
192,368,53251,1,0,1:0:0:0:
84,179,53466,1,0,1:0:0:0:
138,275,53680,5,2,0:0:0:0:
424,15,54323,5,0,3:0:0:0:
424,15,54430,1,0,3:0:0:0:
424,15,54537,1,0,3:0:0:0:
481,94,54752,1,0,3:0:0:0:
331,45,54966,1,0,3:0:0:0:
424,173,55180,1,0,0:0:0:0:
334,144,55395,6,0,B|239:125|252:183|155:159,1,180,4|8,1:0|2:0,0:0:0:0:
10,85,56038,1,2,1:2:0:0:
71,32,56252,1,0,0:0:0:0:
124,92,56466,1,2,1:2:0:0:
91,225,56680,2,0,P|65:189|67:125,1,90,10|0,1:2|0:0,0:0:0:0:
224,189,57109,6,0,B|189:367,1,180,0|8,1:0|2:0,0:0:0:0:
110,342,57752,1,2,1:2:0:0:
110,342,57966,1,0,0:0:0:0:
283,274,58180,1,2,1:2:0:0:
360,375,58394,2,0,L|247:351,1,90,10|0,1:2|0:0,0:0:0:0:
440,310,58823,6,0,P|455:265|459:220,1,90,0|0,1:0|0:0,0:0:0:0:
351,80,59252,1,8,2:0:0:0:
351,80,59466,1,2,1:2:0:0:
401,157,59680,2,0,L|493:137,1,90,0|2,0:0|1:2,0:0:0:0:
262,122,60109,1,10,1:0:0:0:
310,210,60323,1,0,0:0:0:0:
166,375,60538,6,0,P|87:361|103:262,1,180,0|8,1:0|1:0,0:0:0:0:
170,138,61180,1,2,1:2:0:0:
239,271,61395,1,0,0:0:0:0:
262,122,61609,1,2,1:2:0:0:
153,227,61823,2,0,L|54:206,1,90,10|0,1:0|0:0,0:0:0:0:
40,114,62252,5,2,1:2:0:0:
114,68,62466,1,0,0:0:0:0:
154,215,62680,2,0,L|55:194,1,90,8|2,2:0|1:2,0:0:0:0:
41,102,63109,5,0,0:0:0:0:
115,56,63323,1,2,1:2:0:0:
155,203,63537,2,0,L|56:182,1,90,10|0,2:2|0:0,0:0:0:0:
242,113,63966,5,2,1:2:0:0:
279,267,64180,1,0,0:0:0:0:
511,146,64395,5,8,0:0:0:0:
474,300,64609,1,2,1:2:0:0:
290,171,64823,5,0,0:0:0:0:
432,236,65038,1,2,1:2:0:0:
367,308,65252,1,10,1:2:0:0:
385,153,65466,1,0,0:0:0:0:
279,267,65680,6,0,L|180:246,1,90,0|0,1:0|0:0,0:0:0:0:
18,258,66109,2,0,B|55:189|140:194|140:194|121:207|117:232,1,180,8|0,0:1|0:0,0:0:0:0:
35,141,66752,1,2,1:2:0:0:
137,311,66966,2,0,L|38:332,1,90,8|0,2:0|0:0,0:0:0:0:
305,366,67395,6,0,P|371:303|368:209,1,180,0|8,1:0|2:0,0:0:0:0:
289,81,68038,1,2,1:2:0:0:
364,125,68252,1,0,0:0:0:0:
411,53,68466,1,2,1:2:0:0:
339,12,68680,1,10,1:2:0:0:
339,12,68895,1,0,0:0:0:0:
180,199,69109,6,0,P|91:145|138:84,1,180,4|8,1:0|2:0,0:0:0:0:
276,79,69752,1,2,1:2:0:0:
258,162,69966,1,0,0:0:0:0:
194,110,70180,1,2,1:2:0:0:
289,251,70394,2,0,P|328:215|358:165,1,90,10|0,1:2|0:0,0:0:0:0:
460,107,70823,6,0,P|470:158|499:209,1,90,0|0,1:0|0:0,0:0:0:0:
512,331,71252,2,0,L|422:309,1,90,8|2,2:0|1:2,0:0:0:0:
225,358,71680,1,0,0:0:0:0:
225,358,71894,1,2,1:2:0:0:
293,302,72109,2,0,P|282:250|253:199,1,90,10|0,1:2|0:0,0:0:0:0:
19,272,72538,6,0,B|58:243|103:259|103:259|148:299|196:274,1,180,0|8,1:0|2:0,0:0:0:0:
161,185,73181,1,2,1:2:0:0:
17,261,73395,6,0,B|56:232|101:248|101:248|146:288|194:263,1,180,0|10,0:0|2:0,0:0:0:0:
256,132,74038,1,0,0:0:0:0:
161,185,74252,6,0,P|123:136|185:48,1,180,0|8,1:0|2:0,0:0:0:0:
30,147,74895,1,2,1:2:0:0:
30,147,75109,1,0,0:0:0:0:
109,93,75323,1,2,1:2:0:0:
161,185,75537,2,0,P|176:232|181:286,1,90,10|0,1:2|0:0,0:0:0:0:
304,381,75966,6,0,L|329:222,1,135,0|0,1:0|0:0,0:0:0:0:
353,180,76395,2,0,P|391:178|394:225,1,90,8|0,2:0|1:0,0:0:0:0:
168,226,76823,2,0,L|143:67,1,135
114,27,77252,2,0,P|74:39|78:82,1,90,8|0,2:0|0:0,0:0:0:0:
257,113,77680,6,0,L|371:88,1,90,0|0,1:0|0:0,0:0:0:0:
458,6,78109,1,8,2:0:0:0:
507,196,78323,2,0,P|456:218|429:117,1,180,2|2,1:2|1:2,0:0:0:0:
399,308,78966,1,10,1:0:0:0:
399,308,79180,1,0,0:0:0:0:
341,236,79395,6,0,P|316:216|250:206,1,72,2|0,1:2|0:0,0:0:0:0:
214,321,79823,2,0,P|242:309|283:256,1,72
188,174,80252,2,0,L|207:268,1,72,2|0,0:0|0:0,0:0:0:0:
116,313,80680,6,0,P|127:254|48:217,1,144,2|0,0:0|0:0,0:0:0:0:
0,255,81323,1,0,1:0:0:0:
51,333,81538,2,0,P|87:333|116:313,1,72,0|0,1:0|0:0,0:0:0:0:
163,241,81966,6,0,L|151:392,2,144,2|0|0,0:0|0:0|1:0,0:0:0:0:
256,192,87966,12,4,89680,1:0:0:0:
294,21,90109,6,0,L|281:75,1,53.9999983520508,8|0,0:0|1:0,0:0:0:0:
317,162,90538,1,0,0:0:0:0:
317,162,90752,1,0,1:0:0:0:
211,139,90966,2,0,L|142:153,1,53.9999983520508,10|0,2:0|0:0,0:0:0:0:
16,49,91395,6,0,P|55:63|89:122,1,107.999996704102,0|8,1:0|0:0,0:0:0:0:
8,219,92038,2,0,L|20:162,1,53.9999983520508,0|0,1:0|0:0,0:0:0:0:
127,232,92467,1,0,1:0:0:0:
4,303,92680,2,0,B|40:305|61:293|61:293|73:311|108:323,1,107.999996704102,8|0,0:1|1:0,0:0:0:0:
310,268,93324,5,2,0:3:0:0:
226,248,93538,1,8,0:0:0:0:
276,352,93752,1,0,1:0:0:0:
369,340,93966,2,0,P|414:291|408:240,1,107.999996704102,0|10,0:0|2:0,0:0:0:0:
353,113,94609,1,0,0:0:0:0:
406,173,94823,6,0,L|529:146,1,107.999996704102,0|8,1:0|0:0,0:0:0:0:
479,76,95467,2,0,L|411:60,1,53.9999983520508,0|0,1:0|0:0,0:0:0:0:
361,12,95896,1,0,1:0:0:0:
250,128,96109,2,0,P|272:89|272:41,1,80.9999975280763,8|0,0:1|0:0,0:0:0:0:
262,32,96538,6,0,L|194:16,1,53.9999983520508,0|2,1:0|0:3,0:0:0:0:
233,215,96967,2,0,L|332:190,1,80.9999975280763,8|0,0:0|0:0,0:0:0:0:
341,178,97395,2,0,P|344:144|361:114,1,53.9999983520508,0|0,0:0|1:0,0:0:0:0:
471,153,97823,2,0,P|440:167|405:167,1,53.9999983520508,10|0,2:0|0:0,0:0:0:0:
512,254,98252,6,0,P|481:239|446:239,1,53.9999983520508,0|2,1:0|0:3,0:0:0:0:
388,268,98681,1,8,0:0:0:0:
433,341,98895,2,0,P|463:355|498:355,1,53.9999983520508,0|0,1:0|0:0,0:0:0:0:
388,268,99324,1,0,1:0:0:0:
326,325,99538,2,0,L|251:340,1,53.9999983520508,8|0,1:0|0:0,0:0:0:0:
153,375,99967,6,0,P|171:341|166:293,1,80.9999975280763,0|0,1:0|0:0,0:0:0:0:
148,270,100395,2,0,L|82:258,1,53.9999983520508,8|0,0:0|1:0,0:0:0:0:
67,88,100823,6,0,P|85:122|80:170,1,80.9999975280763
62,193,101252,2,0,L|-4:205,1,53.9999983520508,10|0,2:0|0:0,0:0:0:0:
219,226,101680,6,0,P|255:184|258:120,1,107.999996704102,0|8,1:0|0:0,0:0:0:0:
182,85,102323,1,0,3:0:0:0:
182,85,102430,1,0,3:0:0:0:
182,85,102538,1,0,3:0:0:0:
234,18,102752,1,0,3:0:0:0:
299,79,102966,2,0,L|372:63,1,53.9999983520508,8|0,1:0|0:0,0:0:0:0:
512,45,103395,6,0,P|468:21|401:20,1,107.999996704102,4|8,1:0|0:0,0:0:0:0:
351,67,104038,1,8,1:3:0:0:
351,67,104145,1,8,0:3:0:0:
467,134,104359,1,8,0:3:0:0:
467,134,104467,1,8,1:3:0:0:
368,146,104681,2,0,P|353:183|349:215,1,53.9999983520508,10|0,2:0|0:0,0:0:0:0:
494,317,105109,6,0,L|381:293,1,107.999996704102,0|8,1:0|0:0,0:0:0:0:
317,268,105752,1,8,1:3:0:0:
317,268,105859,1,8,0:3:0:0:
165,326,106074,1,8,0:3:0:0:
165,326,106181,1,8,1:3:0:0:
264,359,106395,5,8,1:0:0:0:
252,196,106609,1,2,0:2:0:0:
161,233,106823,6,0,P|106:220|96:163,1,107.999996704102,2|8,1:2|0:0,0:0:0:0:
149,121,107467,1,8,1:3:0:0:
149,121,107574,1,8,0:3:0:0:
15,18,107789,1,8,0:3:0:0:
15,18,107896,1,8,1:3:0:0:
91,43,108109,2,0,L|144:31,1,53.9999983520508,10|0,2:0|0:0,0:0:0:0:
221,70,108538,6,0,L|336:94,1,107.999996704102,0|8,1:0|0:0,0:0:0:0:
398,54,109180,1,8,1:3:0:0:
398,54,109287,1,8,1:3:0:0:
482,192,109502,1,8,1:3:0:0:
482,192,109609,1,8,1:3:0:0:
479,96,109823,5,8,1:0:0:0:
383,219,110038,1,0,0:0:0:0:
431,348,110252,6,0,L|529:336,1,80.9999975280763,0|0,1:0|0:0,0:0:0:0:
512,306,110681,2,0,L|444:314,1,53.9999983520508,8|8,0:0|1:3,0:0:0:0:
426,317,111002,1,8,0:3:0:0:
345,292,111217,1,8,0:3:0:0:
345,292,111324,1,8,1:3:0:0:
282,355,111538,2,0,L|218:341,1,53.9999983520508,10|0,2:0|0:0,0:0:0:0:
191,344,111859,1,0,0:0:0:0:
191,344,111966,6,0,P|135:373|80:345,1,107.999996704102,0|8,1:0|0:0,0:0:0:0:
34,310,112609,1,8,1:3:0:0:
34,310,112717,1,8,0:3:0:0:
108,146,112930,1,8,0:3:0:0:
108,146,113038,1,8,1:3:0:0:
67,216,113252,2,0,P|34:213|8:202,1,53.9999983520508,8|0,1:0|0:0,0:0:0:0:
201,109,113681,6,0,L|187:171,1,53.9999983520508,0|2,1:0|0:3,0:0:0:0:
211,256,114109,1,8,0:0:0:0:
211,256,114324,1,8,1:3:0:0:
326,186,114538,2,0,P|355:175|390:172,1,53.9999983520508,0|8,0:0|1:3,0:0:0:0:
409,289,114966,2,0,P|385:268|364:239,1,53.9999983520508,10|0,2:0|0:0,0:0:0:0:
452,119,115395,6,0,P|466:176|434:235,1,107.999996704102,0|8,1:0|0:0,0:0:0:0:
326,186,116038,2,0,L|394:175,1,53.9999983520508,0|0,1:0|0:0,0:0:0:0:
382,58,116467,1,0,1:0:0:0:
304,104,116680,2,0,L|236:93,1,53.9999983520508,10|2,1:2|0:2,0:0:0:0:
59,121,117109,6,0,P|128:126|156:54,1,144,4|0,1:0|1:0,0:0:0:0:
90,35,117752,1,0,0:0:0:0:
180,185,117967,2,0,L|257:168,1,72,8|0,1:2|0:0,0:0:0:0:
70,274,118395,2,0,L|-7:257,1,72,0|0,1:0|0:0,0:0:0:0:
153,259,118824,6,0,B|217:270|195:340|267:350,1,144,0|0,1:0|1:0,0:0:0:0:
376,331,119467,1,0,0:0:0:0:
281,270,119681,2,0,L|297:192,1,72,0|0,1:0|0:0,0:0:0:0:
454,118,120109,1,2,1:2:0:0:
469,194,120324,1,2,0:2:0:0:
353,136,120538,6,0,P|316:122|259:116,1,72,0|0,1:0|0:0,0:0:0:0:
149,196,120967,1,0,1:0:0:0:
149,196,121181,1,0,0:0:0:0:
188,126,121395,2,0,P|181:86|158:34,1,72,8|0,1:0|0:0,0:0:0:0:
39,97,121823,2,0,P|75:110|132:116,1,72,0|0,1:0|0:0,0:0:0:0:
283,23,122252,2,0,P|270:56|265:92,1,72,0|0,1:0|0:0,0:0:0:0:
353,136,122680,2,0,B|421:122|421:122|426:119|426:119|505:102,2,144,0|8|0,1:0|1:2|1:0,0:0:0:0:
255,167,123752,1,0,0:0:0:0:
341,234,123966,5,2,1:2:0:0:
361,229,124180,1,0,1:0:0:0:
381,225,124395,1,0,1:0:0:0:
401,220,124609,1,0,1:0:0:0:
269,267,124823,5,10,1:2:0:0:
249,262,125037,1,0,1:0:0:0:
229,258,125251,1,0,1:0:0:0:
209,253,125466,1,0,1:0:0:0:
407,384,125680,5,10,1:2:0:0:
351,229,125895,1,0,1:0:0:0:
332,314,126109,1,0,1:0:0:0:
418,172,126323,1,0,1:0:0:0:
294,76,126538,5,10,1:2:0:0:
267,151,126752,1,0,1:0:0:0:
412,29,126966,1,0,1:0:0:0:
412,29,127180,1,0,1:0:0:0:
192,184,127395,5,10,1:2:0:0:
139,22,127609,1,0,1:0:0:0:
218,54,127823,5,0,1:0:0:0:
7,129,128037,1,0,1:0:0:0:
55,45,128252,5,10,1:2:0:0:
130,240,128466,1,0,1:0:0:0:
135,123,128680,1,0,1:0:0:0:
0,246,128894,1,0,1:0:0:0:
151,367,129109,5,2,0:0:0:0:
386,157,129751,5,0,3:0:0:0:
386,157,129858,1,0,3:0:0:0:
386,157,129966,1,0,3:0:0:0:
458,192,130180,1,0,3:0:0:0:
512,130,130394,1,0,3:0:0:0:
459,61,130608,1,0,0:0:0:0:
410,309,130823,6,0,P|328:297|320:213,1,180,4|8,1:0|2:0,0:0:0:0:
251,353,131466,1,2,1:2:0:0:
228,245,131680,1,0,0:0:0:0:
158,323,131894,1,2,1:2:0:0:
138,139,132108,2,0,L|127:46,1,90,10|0,1:2|0:0,0:0:0:0:
12,177,132537,6,0,P|111:247|159:196,1,180,0|8,1:0|2:0,0:0:0:0:
282,59,133180,1,2,1:2:0:0:
203,33,133394,1,0,0:0:0:0:
269,147,133608,1,2,1:2:0:0:
393,78,133822,2,0,P|442:74|504:87,1,90,10|0,1:2|0:0,0:0:0:0:
237,242,134252,6,0,P|286:246|348:233,1,90,0|0,1:0|0:0,0:0:0:0:
410,178,134680,1,8,2:0:0:0:
410,178,134894,1,2,1:2:0:0:
405,341,135109,2,0,P|357:326|294:326,1,90,0|2,0:0|1:2,0:0:0:0:
171,366,135537,1,10,1:0:0:0:
171,366,135751,1,0,0:0:0:0:
10,321,135966,6,0,B|56:260|134:297|134:297|100:309|85:344,1,180,0|8,1:0|1:0,0:0:0:0:
57,188,136608,1,2,1:2:0:0:
100,320,136823,1,0,0:0:0:0:
241,145,137037,1,2,1:2:0:0:
221,227,137251,2,0,P|176:229|128:205,1,90,10|0,1:0|0:0,0:0:0:0:
210,62,137680,5,2,1:2:0:0:
210,62,137894,1,0,0:0:0:0:
383,82,138108,2,0,L|510:100,1,90,8|2,2:0|1:2,0:0:0:0:
218,84,138538,5,0,0:0:0:0:
218,84,138752,1,2,1:2:0:0:
391,104,138966,2,0,L|518:122,1,90,10|0,2:2|0:0,0:0:0:0:
274,269,139394,5,2,1:2:0:0:
163,210,139608,1,0,0:0:0:0:
338,165,139823,1,8,0:0:0:0:
289,353,140038,1,2,1:2:0:0:
251,187,140252,5,0,0:0:0:0:
210,321,140466,1,2,1:2:0:0:
98,150,140680,5,10,1:2:0:0:
116,75,140894,1,0,0:0:0:0:
83,223,141108,6,0,P|34:214|-4:188,1,90,0|0,1:0|0:0,0:0:0:0:
174,127,141537,2,0,L|383:157,1,180,8|0,0:1|0:0,0:0:0:0:
403,55,142180,1,2,1:2:0:0:
491,185,142394,2,0,P|464:147|421:129,1,90,8|0,2:0|0:0,0:0:0:0:
183,255,142823,6,0,P|245:268|347:189,1,180,0|8,1:0|2:0,0:0:0:0:
248,96,143466,1,2,1:2:0:0:
263,178,143680,1,0,0:0:0:0:
150,58,143894,1,2,1:2:0:0:
114,229,144108,2,0,L|92:331,1,90,10|0,1:2|0:0,0:0:0:0:
11,111,144537,6,0,B|84:78|131:154|131:154|95:146|60:172,1,180,4|8,1:0|2:0,0:0:0:0:
286,129,145180,1,2,1:2:0:0:
198,112,145394,1,0,0:0:0:0:
294,235,145608,1,2,1:2:0:0:
466,154,145822,2,0,P|420:149|359:172,1,90,10|0,1:2|0:0,0:0:0:0:
422,292,146252,6,0,L|538:267,1,90,0|0,1:0|0:0,0:0:0:0:
310,361,146680,2,0,L|193:336,1,90,8|2,2:0|1:2,0:0:0:0:
58,313,147108,1,0,0:0:0:0:
58,313,147322,1,2,1:2:0:0:
158,277,147538,2,0,P|182:239|173:180,1,90,10|0,1:2|0:0,0:0:0:0:
57,32,147966,6,0,L|94:208,1,180,0|8,1:0|2:0,0:0:0:0:
185,47,148609,1,2,1:2:0:0:
76,219,148823,6,0,L|39:43,1,180,0|10,0:0|2:0,0:0:0:0:
167,58,149466,1,0,0:0:0:0:
334,275,149680,6,0,P|413:230|343:159,1,180,0|8,1:0|2:0,0:0:0:0:
219,167,150323,1,2,1:2:0:0:
290,196,150537,1,0,0:0:0:0:
429,257,150751,1,2,1:2:0:0:
334,275,150965,2,0,P|298:288|234:340,1,90,10|0,1:2|0:0,0:0:0:0:
159,383,151394,6,0,L|132:225,1,135,0|0,1:0|0:0,0:0:0:0:
108,219,151823,2,0,L|13:195,1,90,8|0,2:0|1:0,0:0:0:0:
316,187,152252,2,0,L|184:155,1,135
163,139,152680,2,0,L|147:43,1,90,8|0,2:0|0:0,0:0:0:0:
228,293,153108,6,0,P|274:290|329:255,1,90,0|0,1:0|0:0,0:0:0:0:
434,131,153537,1,8,2:0:0:0:
463,251,153751,2,0,B|424:187|341:205|341:205|373:219|386:255,1,180,2|2,1:2|1:2,0:0:0:0:
434,131,154394,1,10,1:2:0:0:
384,309,154608,1,0,0:0:0:0:
330,102,154823,6,0,L|307:-1,1,90,2|0,1:2|0:0,0:0:0:0:
174,207,155252,2,0,L|151:103,1,90,8|0,0:0|1:0,0:0:0:0:
287,271,155680,2,0,L|264:167,1,90,2|0,0:0|1:0,0:0:0:0:
384,309,156108,6,0,P|291:371|211:340,1,180,8|2,0:0|0:0,0:0:0:0:
48,218,156752,1,0,1:0:0:0:
114,305,156966,2,0,P|154:279|182:246,1,90,8|2,0:0|0:0,0:0:0:0:
242,110,157395,1,0,0:0:0:0:
242,110,157609,1,0,1:0:0:0:
124,154,157823,6,0,L|18:132,1,90,10|0,0:1|0:0,0:0:0:0:
175,215,158252,2,1,L|339:180,1,144,4|0,1:0|0:0,0:0:0:0:
377,100,158895,1,0,1:0:0:0:
444,160,159109,2,1,P|476:174|525:178,1,72,8|0,2:0|0:0,0:0:0:0:
507,257,159538,6,1,P|465:261|371:309,1,144,0|0,1:0|0:0,0:0:0:0:
377,384,160180,1,0,1:0:0:0:
299,285,160395,2,1,P|261:265|219:257,1,72,0|0,1:0|0:0,0:0:0:0:
85,376,160823,2,1,P|120:353|147:320,1,72,8|0,2:0|0:0,0:0:0:0:
111,145,161252,2,1,P|113:187|127:227,1,72,0|0,0:0|0:0,0:0:0:0:
299,285,161680,6,1,B|259:257|208:273|208:273|176:318|118:312,1,180,0|0,1:0|0:0,0:0:0:0:
250,346,162323,1,0,1:0:0:0:
121,215,162538,2,1,P|111:180|111:145,1,72,8|0,2:0|0:0,0:0:0:0:
233,17,162966,6,1,L|200:167,1,144,0|0,1:0|0:0,0:0:0:0:
139,76,163609,1,0,1:0:0:0:
289,159,163824,2,1,L|390:137,1,72,0|0,1:0|0:0,0:0:0:0:
489,115,164252,1,8,2:0:0:0:
408,309,164466,5,0,0:0:0:0:
447,233,164680,1,0,0:0:0:0:
447,233,164895,1,0,0:0:0:0:
312,362,165109,6,1,P|273:303|207:273,1,144,0|0,1:0|0:0,0:0:0:0:
57,171,165752,1,0,1:0:0:0:
32,300,165966,2,1,B|69:229|149:231|149:231|133:248|132:273,1,180,8|0,2:0|1:0,0:0:0:0:
208,273,166609,1,0,0:0:0:0:
170,357,166823,6,1,L|87:322,1,72,0|0,0:0|1:0,0:0:0:0:
57,171,167252,1,0,1:0:0:0:
57,171,167466,1,0,0:0:0:0:
208,273,167680,2,1,P|262:238|263:154,1,144,8|0,2:0|0:0,0:0:0:0:
246,53,168323,1,0,0:0:0:0:
52,94,168538,6,1,B|119:101|119:101|125:105|125:105|195:113,1,144,0|0,1:0|0:0,0:0:0:0:
246,53,169181,1,0,1:0:0:0:
52,94,169395,2,1,L|131:103,1,72,8|0,2:0|0:0,0:0:0:0:
345,229,169823,6,1,P|289:172|310:110,1,144,4|0,1:0|0:0,0:0:0:0:
282,290,170466,1,0,1:0:0:0:
415,193,170680,2,1,P|441:180|503:182,1,72,0|0,1:0|0:0,0:0:0:0:
389,374,171109,2,1,P|354:323|249:289,1,144,8|0,2:0|0:0,0:0:0:0:
281,289,171966,5,0,1:0:0:0:
281,289,172395,1,0,1:0:0:0:
35,371,172823,2,9,P|95:337|92:253,1,144,8|0,1:2|1:2,0:2:0:0:
70,197,173466,1,0,0:0:0:0:
36,128,173680,5,0,1:0:0:0:
177,254,174109,1,0,1:0:0:0:
177,254,174538,2,1,L|209:101,1,144,8|0,1:2|1:0,0:0:0:0:
206,113,175395,5,0,1:0:0:0:
206,113,175824,1,0,1:0:0:0:
394,242,176253,2,1,P|468:207|448:150,1,144,8|0,1:2|1:0,0:0:0:0:
402,106,176895,1,0,0:0:0:0:
332,138,177109,5,0,1:0:0:0:
441,364,177538,1,0,1:0:0:0:
441,364,177967,2,1,P|394:322|297:329,1,144,8|0,1:2|1:0,0:0:0:0:
315,317,178823,5,0,1:0:0:0:
293,317,179038,1,0,1:0:0:0:
270,314,179252,1,0,1:0:0:0:
247,311,179466,1,0,1:0:0:0:
395,243,179680,5,8,1:2:0:0:
425,236,179895,1,0,1:0:0:0:
456,230,180109,1,0,1:0:0:0:
486,224,180323,1,0,1:0:0:0:
229,113,180538,5,0,1:0:0:0:
257,209,180753,1,0,1:0:0:0:
351,184,180967,1,0,1:0:0:0:
321,90,181181,1,0,1:0:0:0:
173,198,181395,5,8,1:2:0:0:
401,116,181610,1,0,1:0:0:0:
258,39,181824,1,0,1:0:0:0:
333,259,182038,1,0,1:0:0:0:
383,35,182251,5,0,1:0:0:0:
256,192,182466,12,1,184823,0:0:0:0:
71,27,185680,6,0,P|106:75|163:207,1,180,4|8,1:0|2:0,0:0:0:0:
149,345,186323,1,2,1:2:0:0:
189,257,186537,1,0,0:0:0:0:
0,217,186751,1,2,1:2:0:0:
22,296,186965,2,0,P|70:272|117:268,1,90,10|0,1:2|0:0,0:0:0:0:
286,379,187395,6,0,P|259:324|316:230,1,180,0|8,1:0|2:0,0:0:0:0:
438,339,188037,1,2,1:2:0:0:
363,316,188251,1,0,0:0:0:0:
387,238,188465,1,2,1:2:0:0:
461,259,188680,2,0,L|525:280,1,53.9999983520508,10|0,1:2|0:0,0:0:0:0:
303,245,189109,6,0,P|274:206|264:158,1,90,0|0,1:0|0:0,0:0:0:0:
310,86,189537,1,8,2:0:0:0:
310,86,189751,1,2,1:2:0:0:
348,316,189966,2,0,P|377:277|387:229,1,90,0|2,0:0|1:2,0:0:0:0:
380,143,190394,1,10,1:0:0:0:
380,143,190608,1,0,0:0:0:0:
117,257,190823,6,0,P|44:231|69:137,1,180,0|8,1:0|1:0,0:0:0:0:
252,166,191465,1,2,1:2:0:0:
196,318,191680,1,0,0:0:0:0:
154,137,191894,1,2,1:2:0:0:
263,257,192108,2,0,P|295:258|356:235,1,90,10|0,1:0|0:0,0:0:0:0:
326,38,192537,5,2,1:2:0:0:
340,130,192751,1,0,0:0:0:0:
409,66,192965,2,0,P|444:46|513:48,1,90,8|2,2:0|1:2,0:0:0:0:
247,9,193395,5,0,0:0:0:0:
233,101,193609,1,2,1:2:0:0:
164,37,193823,2,0,P|129:17|60:19,1,90,10|0,2:2|0:0,0:0:0:0:
71,262,194251,5,2,1:2:0:0:
103,100,194466,1,0,0:0:0:0:
139,338,194681,1,8,0:0:0:0:
169,175,194895,1,2,1:2:0:0:
325,384,195109,5,0,0:0:0:0:
295,221,195323,1,2,1:2:0:0:
238,284,195538,5,10,1:2:0:0:
481,254,195752,1,0,0:0:0:0:
426,321,195965,6,0,P|382:297|363:254,1,90,0|0,1:0|0:0,0:0:0:0:
228,19,196394,2,0,P|291:89|308:174,1,180,8|0,0:1|0:0,0:0:0:0:
300,256,197037,1,2,1:2:0:0:
119,238,197251,2,0,L|8:224,1,90,8|0,2:0|0:0,0:0:0:0:
140,328,197680,6,0,P|194:303|182:167,1,180,0|8,1:0|2:0,0:0:0:0:
35,45,198323,1,2,1:2:0:0:
71,180,198537,1,0,0:0:0:0:
233,30,198751,1,2,1:2:0:0:
196,119,198965,2,0,P|152:118|102:99,1,90,10|0,1:2|0:0,0:0:0:0:
325,39,199394,6,0,L|283:236,1,180,4|8,1:0|2:0,0:0:0:0:
252,367,200037,1,2,1:2:0:0:
407,179,200251,1,0,0:0:0:0:
372,331,200465,1,2,1:2:0:0:
161,240,200679,2,0,L|56:196,1,90,10|0,1:2|0:0,0:0:0:0:
188,315,201108,6,0,B|239:290|239:290|265:167,1,180,0|8,1:0|2:0,0:0:0:0:
109,84,201752,1,2,1:2:0:0:
127,166,201965,1,0,0:0:0:0:
267,14,202179,1,2,1:2:0:0:
232,166,202395,2,0,L|210:264,1,90,10|0,1:2|0:0,0:0:0:0:
414,325,202823,6,0,P|366:229|292:270,1,180,0|8,1:0|2:0,0:0:0:0:
271,300,203466,1,2,1:2:0:0:
469,188,203680,6,0,P|461:116|352:110,1,180,0|10,0:0|2:0,0:0:0:0:
368,97,204323,1,0,0:0:0:0:
212,253,204537,6,0,P|130:236|121:138,1,180,0|8,1:0|2:0,0:0:0:0:
132,324,205180,1,2,1:2:0:0:
132,324,205394,1,0,0:0:0:0:
308,196,205608,1,2,1:2:0:0:
393,245,205822,2,0,P|430:233|490:234,1,90,10|0,1:2|0:0,0:0:0:0:
507,149,206251,6,0,P|437:143|373:102,1,135,0|0,1:0|0:0,0:0:0:0:
354,99,206680,2,0,L|348:5,1,90,8|0,2:0|1:0,0:0:0:0:
155,146,207109,2,0,P|213:136|252:50,1,135
268,48,207538,2,0,L|273:137,1,90,8|0,2:0|0:0,0:0:0:0:
179,381,207965,6,0,P|167:335|127:299,1,90,0|0,1:0|0:0,0:0:0:0:
48,284,208394,1,8,2:0:0:0:
261,342,208608,2,0,P|339:324|343:217,1,180,2|2,1:2|1:2,0:0:0:0:
159,148,209251,1,10,1:2:0:0:
181,239,209465,1,0,0:0:0:0:
241,183,209680,6,0,P|275:169|327:163,1,72,2|0,1:2|0:0,0:0:0:0:
376,262,210109,2,0,P|339:256|290:234,1,72
399,116,210537,2,0,L|378:210,1,72,2|0,0:0|0:0,0:0:0:0:
345,366,210966,6,0,P|349:288|295:238,1,144
213,193,211608,1,0,1:0:0:0:
120,241,211823,2,0,P|150:268|185:269,1,72,0|0,1:0|0:0,0:0:0:0:
135,175,212251,6,0,P|116:205|119:240,1,72,2|0,0:0|0:0,0:0:0:0:
203,336,212680,2,0,L|213:185,1,144,2|0,0:0|1:0,0:0:0:0:
